<?xml version="1.0" standalone="no"?>
<!DOCTYPE svg PUBLIC "-//W3C//DTD SVG 1.1//EN" "http://www.w3.org/Graphics/SVG/1.1/DTD/svg11.dtd" >
<svg xmlns="http://www.w3.org/2000/svg" xmlns:xlink="http://www.w3.org/1999/xlink" version="1.1">
<metadata></metadata>
<defs>
<font id="brandon_textblack" horiz-adv-x="1228" >
<font-face units-per-em="2048" ascent="1434" descent="-614" />
<missing-glyph horiz-adv-x="491" />
<glyph unicode="fi" horiz-adv-x="1245" d="M66 711v190q0 20 12.5 32.5t32.5 12.5h79v62q0 199 116.5 322.5t338.5 123.5q171 0 344 -96q18 -9 23.5 -28t-2.5 -36l-78 -166q-13 -29 -28 -35t-38 7q-111 59 -217 59q-70 0 -108.5 -42t-38.5 -113v-58h585q20 0 33 -12.5t13 -32.5v-856q0 -19 -13 -32t-33 -13h-219 q-19 0 -32 13t-13 32v621h-321v-621q0 -45 -60 -45h-206q-18 0 -32 13.5t-14 31.5v621h-79q-20 0 -32.5 13t-12.5 32z" />
<glyph unicode="fl" horiz-adv-x="1310" d="M63 711v190q0 20 13 32.5t33 12.5h84v53q0 111 33.5 198.5t93 143t137.5 84.5t170 29q125 0 201 -34t137 -97l28 66q20 45 62 45h94q17 0 31 -14t14 -31v-1344q0 -18 -13.5 -31.5t-31.5 -13.5h-221q-18 0 -31.5 13.5t-13.5 31.5v975q-74 139 -205 139q-34 0 -62.5 -7.5 t-55 -24.5t-41.5 -50.5t-15 -81.5v-49h155q19 0 32.5 -12.5t13.5 -32.5v-190q0 -19 -13.5 -32t-32.5 -13h-155v-621q0 -19 -14 -32t-33 -13h-224q-17 0 -28.5 13t-11.5 32v621h-84q-20 0 -33 13t-13 32z" />
<glyph unicode="ffh" horiz-adv-x="2533" d="M55 711v190q0 20 12.5 32.5t32.5 12.5h103v39q0 193 118.5 321t325.5 128q105 0 171.5 -31t119.5 -86q117 137 332 137q125 0 201 -34t137 -97l28 66q20 45 62 45h94q18 0 31.5 -13.5t13.5 -31.5v-490q100 68 201 68q108 0 186 -37.5t121.5 -105.5t63.5 -151t20 -186 v-442q0 -18 -13.5 -31.5t-31.5 -13.5h-221q-20 0 -32.5 13t-12.5 32v447q0 85 -34.5 134.5t-107.5 49.5q-139 0 -139 -184v-447q0 -45 -51 -45h-215q-18 0 -31.5 13.5t-13.5 31.5v975q-74 139 -205 139q-34 0 -62.5 -7.5t-55 -24.5t-41.5 -50.5t-15 -81.5v-49h156 q19 0 32 -12.5t13 -32.5v-190q0 -19 -13 -32t-32 -13h-156v-621q0 -18 -13.5 -31.5t-31.5 -13.5h-221q-18 0 -31.5 13.5t-13.5 31.5v621h-322v-621q0 -19 -14 -32t-33 -13h-219q-18 0 -31.5 13.5t-13.5 31.5v621h-103q-20 0 -32.5 13t-12.5 32zM514 946h322v41q0 30 4 70 q-65 88 -185 88q-51 0 -84.5 -27.5t-45 -61t-11.5 -71.5v-39z" />
<glyph unicode="fk" horiz-adv-x="1865" d="M63 711v190q0 20 13 32.5t33 12.5h84v53q0 111 33.5 198.5t93 143t137.5 84.5t170 29q125 0 201 -34t137 -97l28 66q20 45 62 45h94q18 0 31.5 -13.5t13.5 -31.5v-801l266 330q28 28 60 28h252q31 0 43.5 -25.5t-7.5 -48.5l-315 -364l334 -436q19 -23 7.5 -47.5 t-42.5 -24.5h-283q-18 0 -32 18l-283 412v-385q0 -19 -13 -32t-32 -13h-221q-18 0 -31.5 13.5t-13.5 31.5v975q-74 139 -205 139q-34 0 -62.5 -7.5t-55 -24.5t-41.5 -50.5t-15 -81.5v-49h155q19 0 32.5 -12.5t13.5 -32.5v-190q0 -19 -13.5 -32t-32.5 -13h-155v-621 q0 -19 -14 -32t-33 -13h-224q-17 0 -28.5 13t-11.5 32v621h-84q-20 0 -33 13t-13 32z" />
<glyph unicode="fj" horiz-adv-x="1245" d="M66 711v190q0 20 12.5 32.5t32.5 12.5h79v62q0 199 116.5 322.5t338.5 123.5q171 0 344 -96q18 -9 23.5 -28t-2.5 -36l-78 -166q-13 -29 -28 -35t-38 7q-111 59 -217 59q-70 0 -108.5 -42t-38.5 -113v-58h585q20 0 33 -12.5t13 -32.5v-909q0 -105 -28.5 -192.5t-78 -147 t-110.5 -98t-132 -56.5q-43 -10 -65.5 -2t-34.5 37l-59 150q-18 49 32 69q164 64 164 215l2 699h-321v-621q0 -45 -60 -45h-206q-18 0 -32 13.5t-14 31.5v621h-79q-20 0 -32.5 13t-12.5 32z" />
<glyph unicode="ffj" horiz-adv-x="1892" d="M55 711v190q0 20 12.5 32.5t32.5 12.5h103v39q0 193 118.5 321t325.5 128q182 0 295 -117q64 74 138.5 105.5t181.5 31.5q201 0 374 -96q18 -9 23.5 -28t-2.5 -36l-78 -166q-13 -29 -28 -35t-38 7q-111 59 -217 59q-70 0 -108.5 -42t-38.5 -113v-58h586q20 0 32.5 -12.5 t12.5 -32.5v-909q0 -105 -28.5 -192.5t-78 -147t-110 -98t-131.5 -56.5q-43 -10 -66 -2t-35 37l-59 150q-18 49 33 69q165 65 165 215v699h-321l-2 -621q0 -18 -13.5 -31.5t-31.5 -13.5h-221q-18 0 -31.5 13.5t-13.5 31.5v621h-322v-621q0 -19 -14 -32t-33 -13h-219 q-18 0 -31.5 13.5t-13.5 31.5v621h-103q-20 0 -32.5 13t-12.5 32zM514 946h322v41q0 30 4 70q-65 88 -185 88q-51 0 -84.5 -27.5t-45 -61t-11.5 -71.5v-39z" />
<glyph unicode="fb" horiz-adv-x="1945" d="M63 711v190q0 20 13 32.5t33 12.5h84v53q0 111 33.5 198.5t93 143t137.5 84.5t170 29q125 0 201 -34t137 -97l28 66q20 45 62 45h94q18 0 31.5 -13.5t13.5 -31.5v-484q27 22 90 42t129 20q96 0 180 -31t149 -90.5t102.5 -155t37.5 -217.5q0 -134 -60.5 -247.5 t-168.5 -181t-238 -67.5q-59 0 -113 15t-90 37t-63.5 44t-40.5 37l-12 15l-27 -78q-14 -47 -49 -47h-92q-18 0 -31.5 13.5t-13.5 31.5v975q-74 139 -205 139q-34 0 -62.5 -7.5t-55 -24.5t-41.5 -50.5t-15 -81.5v-49h155q19 0 32.5 -12.5t13.5 -32.5v-190q0 -19 -13.5 -32 t-32.5 -13h-155v-621q0 -19 -14 -32t-33 -13h-224q-17 0 -28.5 13t-11.5 32v621h-84q-20 0 -33 13t-13 32zM1171 475q0 -88 56.5 -144.5t144.5 -56.5q85 0 142 57t57 144q0 86 -57 141.5t-142 55.5q-88 0 -144.5 -55.5t-56.5 -141.5z" />
<glyph unicode="ffk" horiz-adv-x="2508" d="M55 711v190q0 20 12.5 32.5t32.5 12.5h103v39q0 193 118.5 321t325.5 128q105 0 171.5 -31t119.5 -86q117 137 332 137q125 0 201 -34t137 -97l28 66q20 45 62 45h94q18 0 31.5 -13.5t13.5 -31.5v-801l266 330q28 28 60 28h252q31 0 43.5 -25.5t-7.5 -48.5l-315 -364 l334 -436q19 -23 7.5 -47.5t-42.5 -24.5h-283q-18 0 -32 18l-283 412v-385q0 -19 -13 -32t-32 -13h-221q-18 0 -31.5 13.5t-13.5 31.5v975q-74 139 -205 139q-34 0 -62.5 -7.5t-55 -24.5t-41.5 -50.5t-15 -81.5v-49h156q19 0 32 -12.5t13 -32.5v-190q0 -19 -13 -32t-32 -13 h-156v-621q0 -18 -13.5 -31.5t-31.5 -13.5h-221q-18 0 -31.5 13.5t-13.5 31.5v621h-322v-621q0 -19 -14 -32t-33 -13h-219q-18 0 -31.5 13.5t-13.5 31.5v621h-103q-20 0 -32.5 13t-12.5 32zM514 946h322v41q0 30 4 70q-65 88 -185 88q-51 0 -84.5 -27.5t-45 -61t-11.5 -71.5 v-39z" />
<glyph unicode="fh" horiz-adv-x="1890" d="M63 711v190q0 20 13 32.5t33 12.5h84v53q0 111 33.5 198.5t93 143t137.5 84.5t170 29q125 0 201 -34t137 -97l28 66q20 45 62 45h94q18 0 31.5 -13.5t13.5 -31.5v-490q100 68 201 68q108 0 186 -37.5t121.5 -105.5t63.5 -151t20 -186v-442q0 -18 -13.5 -31.5t-31.5 -13.5 h-221q-20 0 -32.5 13t-12.5 32v447q0 85 -34.5 134.5t-107.5 49.5q-139 0 -139 -184v-447q0 -24 -10.5 -34.5t-40.5 -10.5h-215q-18 0 -31.5 13.5t-13.5 31.5v975q-74 139 -205 139q-34 0 -62.5 -7.5t-55 -24.5t-41.5 -50.5t-15 -81.5v-49h155q19 0 32.5 -12.5t13.5 -32.5 v-190q0 -19 -13.5 -32t-32.5 -13h-155v-621q0 -19 -14 -32t-33 -13h-224q-17 0 -28.5 13t-11.5 32v621h-84q-20 0 -33 13t-13 32z" />
<glyph unicode="ffb" horiz-adv-x="2588" d="M55 711v190q0 20 12.5 32.5t32.5 12.5h103v39q0 193 118.5 321t325.5 128q105 0 171.5 -31t119.5 -86q117 137 332 137q125 0 201 -34t137 -97l28 66q20 45 62 45h94q18 0 31.5 -13.5t13.5 -31.5v-484q27 22 90 42t129 20q96 0 180 -31t149 -90.5t102.5 -155t37.5 -217.5 q0 -134 -60.5 -247.5t-168.5 -181t-238 -67.5q-59 0 -113 15t-90 37t-63.5 44t-39.5 37l-13 15l-27 -78q-14 -47 -49 -47h-92q-18 0 -31.5 13.5t-13.5 31.5v975q-74 139 -205 139q-34 0 -62.5 -7.5t-55 -24.5t-41.5 -50.5t-15 -81.5v-49h156q19 0 32 -12.5t13 -32.5v-190 q0 -19 -13 -32t-32 -13h-156v-621q0 -18 -13.5 -31.5t-31.5 -13.5h-221q-18 0 -31.5 13.5t-13.5 31.5v621h-322v-621q0 -19 -14 -32t-33 -13h-219q-18 0 -31.5 13.5t-13.5 31.5v621h-103q-20 0 -32.5 13t-12.5 32zM514 946h322v41q0 30 4 70q-65 88 -185 88 q-51 0 -84.5 -27.5t-45 -61t-11.5 -71.5v-39zM1815 475q0 -88 56 -144.5t144 -56.5q85 0 142 57t57 144q0 86 -57 141.5t-142 55.5q-88 0 -144 -55.5t-56 -141.5z" />
<glyph unicode="&#xd;" horiz-adv-x="0" />
<glyph unicode=" "  horiz-adv-x="491" />
<glyph unicode="&#x09;" horiz-adv-x="491" />
<glyph unicode="&#xa0;" horiz-adv-x="491" />
<glyph unicode="!" horiz-adv-x="565" d="M88 172q0 80 57.5 138.5t135.5 58.5q79 0 137.5 -58.5t58.5 -138.5q0 -78 -58 -135t-138 -57q-78 0 -135.5 57t-57.5 135zM100 1161v234q0 15 12 27t27 12h287q15 0 27 -12t12 -27v-230l-100 -575q-2 -12 -14 -22.5t-25 -10.5h-86q-13 0 -25 10.5t-14 22.5z" />
<glyph unicode="&#x22;" horiz-adv-x="798" d="M90 1065v330q0 15 12 27t27 12h213q21 0 32 -15.5t5 -36.5l-98 -325q-3 -12 -14.5 -21.5t-22.5 -9.5h-115q-15 0 -27 12t-12 27zM461 1065v330q0 15 12 27t27 12h213q21 0 32 -15.5t5 -36.5l-99 -325q-3 -12 -14.5 -21.5t-22.5 -9.5h-114q-15 0 -27 12t-12 27z" />
<glyph unicode="#" horiz-adv-x="1189" d="M102 418v35q0 17 11 28t28 11h160l49 329h-149q-15 0 -27 12t-12 27v35q0 15 12 27t27 12h164l65 467q2 12 13 22.5t24 10.5h35q18 0 29 -13.5t8 -31.5l-62 -455h330l63 467q2 12 14 22.5t25 10.5h33q19 0 30.5 -13t8.5 -32l-61 -455h122q17 0 28 -11.5t11 -27.5v-35 q0 -16 -11 -27.5t-28 -11.5h-139l-47 -329h127q16 0 27.5 -11t11.5 -28v-35q0 -15 -12 -27t-27 -12h-143l-47 -346q-2 -14 -13 -23.5t-26 -9.5h-33q-19 0 -30 13t-9 32l47 334h-332l-45 -346q-1 -13 -13 -23t-26 -10h-32q-20 0 -31 13t-8 32l45 334h-146q-17 0 -28 11.5 t-11 27.5zM414 492h331l46 329h-328z" />
<glyph unicode="$" d="M135 1047q0 160 108.5 272.5t305.5 132.5v66q0 17 11.5 27.5t27.5 10.5h39q16 0 27.5 -10.5t11.5 -27.5v-68q204 -18 381 -150q17 -9 18.5 -32.5t-6.5 -32.5l-115 -162q-11 -16 -27.5 -19t-27.5 7q-43 31 -62 44t-64 37t-97 42v-301q20 -11 69 -37.5t75 -41t70.5 -43.5 t70 -51.5t58 -58t49.5 -70.5t29.5 -81t12.5 -97q0 -163 -118.5 -283t-315.5 -138v-213q0 -15 -12 -26t-27 -11h-39q-15 0 -27 11t-12 26v213q-71 6 -137.5 24t-116 43t-79.5 44.5t-52 37.5t-22.5 38.5t14.5 45.5l71 135q13 25 28.5 28.5t37.5 -11.5q63 -48 121.5 -78.5 t134.5 -46.5v344q-45 24 -64.5 34.5t-63 35.5t-64.5 40t-57 42.5t-55 49t-43.5 53t-36.5 61.5t-21 67.5t-9 77.5zM432 1092q0 -53 26.5 -87t90.5 -73v266q-49 -6 -83 -37t-34 -69zM666 236q49 12 79.5 46t30.5 80q0 98 -110 173v-299z" />
<glyph unicode="%" horiz-adv-x="1433" d="M96 1180q0 115 80.5 194.5t196.5 79.5q115 0 195.5 -79.5t80.5 -194.5t-81 -196t-195 -81q-115 0 -196 80.5t-81 196.5zM248 55l702 1358q12 21 35 21h156q23 0 34.5 -18t0.5 -38l-707 -1358q-5 -6 -16.5 -13t-18.5 -7h-151q-23 0 -34 17.5t-1 37.5zM301 1180 q0 -29 21.5 -50.5t50.5 -21.5q28 0 48.5 21.5t20.5 50.5q0 28 -20.5 48.5t-48.5 20.5q-29 0 -50.5 -20.5t-21.5 -48.5zM782 256q0 115 81.5 195.5t195.5 80.5q116 0 197 -80.5t81 -195.5q0 -114 -81.5 -195t-196.5 -81q-114 0 -195.5 81t-81.5 195zM989 256q0 -28 21 -49 t49 -21q29 0 50 21t21 49q0 29 -21 50.5t-50 21.5q-28 0 -49 -21.5t-21 -50.5z" />
<glyph unicode="&#x26;" horiz-adv-x="1415" d="M100 369q0 60 15.5 115.5t40.5 95.5t54.5 74.5t59.5 57t55 38.5t41 23l15 7v6l-41 43q-66 70 -100.5 139.5t-34.5 153.5q0 60 27.5 118t77 106t129 78t173.5 30q173 0 286.5 -99t113.5 -243q0 -63 -23 -122t-56 -99t-66 -70.5t-56 -49t-23 -21.5l185 -189q40 64 67 158 q4 15 7.5 24.5t10 19t14 13.5t20 4t28.5 -6l150 -53q50 -18 26 -94q-22 -63 -54 -126t-54 -97l-21 -33l174 -162q17 -16 23 -25t1.5 -27t-28.5 -42l-114 -117q-18 -18 -43.5 -18t-49.5 24l-133 133q-47 -43 -95 -73.5t-142 -57t-209 -26.5q-194 0 -322.5 113.5t-128.5 275.5 zM393 410q0 -74 55.5 -124t137.5 -50q45 0 84 10.5t63 26t42 31t25 26.5l7 10l-268 285q-6 -2 -16 -6.5t-35 -21.5t-44 -39.5t-35 -62t-16 -85.5zM477 1114q0 -35 13.5 -58.5t41.5 -51.5l84 -84q5 2 14.5 7t32.5 21.5t40.5 35t32 48.5t14.5 62q0 55 -39 93t-103 38 q-57 0 -94 -32t-37 -79z" />
<glyph unicode="'" horiz-adv-x="425" d="M90 1065v330q0 15 12 27t27 12h211q21 0 32 -15.5t5 -36.5l-98 -325q-3 -12 -14.5 -21.5t-22.5 -9.5h-113q-15 0 -27 12t-12 27z" />
<glyph unicode="(" horiz-adv-x="692" d="M72 645q0 778 520 805q17 1 29 -10.5t12 -26.5l8 -174q0 -11 -8.5 -23.5t-18.5 -15.5q-125 -39 -180 -177t-55 -378q0 -241 55 -379t180 -178q10 -4 18.5 -16t8.5 -23l-8 -172q-3 -39 -41 -39q-54 4 -102.5 15t-102.5 36.5t-98 63.5t-85.5 100.5t-69.5 143.5t-45 195.5 t-17 252.5z" />
<glyph unicode=")" horiz-adv-x="692" d="M51 51q0 10 9 22t18 15q125 40 180 178t55 379q0 240 -55 378t-180 177q-10 3 -18.5 15.5t-8.5 23.5l8 174q0 15 12 26.5t29 10.5q521 -27 521 -805q0 -138 -17 -252.5t-45 -195.5t-70 -143.5t-86 -100.5t-98 -63.5t-102.5 -36.5t-102.5 -15q-17 0 -29 11t-12 26z" />
<glyph unicode="*" horiz-adv-x="909" d="M120 941q2 17 17 26l176 104l-176 107q-13 9 -16.5 25.5t4.5 29.5q14 22 49 72q9 11 24 14t27 -6l152 -105l-4 187q0 15 12 27t27 12h84q15 0 27 -12t12 -27l-5 -187l154 105q12 8 29 5t24 -15l45 -70q10 -13 7 -30.5t-17 -26.5l-176 -105l176 -106q14 -9 17 -25.5 t-5 -28.5l-51 -71q-7 -12 -23 -15.5t-28 4.5l-152 103l5 -182q0 -15 -12 -27t-27 -12h-84q-15 0 -27 12t-12 27l4 184l-152 -105q-12 -9 -28.5 -5t-24.5 16l-45 71q-9 13 -7 30z" />
<glyph unicode="+" d="M166 637v143q0 15 12 27t27 12h299v301q0 15 12 26t27 11h143q15 0 27 -11t12 -26v-301h301q15 0 26 -12t11 -27v-143q0 -15 -11 -27t-26 -12h-301v-299q0 -15 -12 -26t-27 -11h-143q-15 0 -27 11t-12 26v299h-299q-15 0 -27 12t-12 27z" />
<glyph unicode="," horiz-adv-x="593" d="M66 201q0 86 62 144t155 58q104 0 172.5 -76t68.5 -223q0 -263 -182 -520q-23 -30 -55 -4l-82 58q-25 23 0 59q123 175 123 309q0 13 -2 21q-36 -25 -88 -25q-82 0 -127 56.5t-45 142.5z" />
<glyph unicode="-" horiz-adv-x="747" d="M100 401v187q0 17 11 28t28 11h469q17 0 28 -11t11 -28v-187q0 -15 -11 -25.5t-28 -10.5h-469q-17 0 -28 10.5t-11 25.5z" />
<glyph unicode="." horiz-adv-x="577" d="M63 201q0 93 66.5 160t157.5 67t159 -67t68 -160q0 -90 -68 -157t-159 -67t-157.5 66.5t-66.5 157.5z" />
<glyph unicode="/" horiz-adv-x="880" d="M102 51l402 1356q3 11 14 19t23 8h200q22 0 32.5 -15t4.5 -37l-399 -1355q-3 -10 -14.5 -18.5t-22.5 -8.5h-203q-21 0 -32 15t-5 36z" />
<glyph unicode="0" horiz-adv-x="1308" d="M115 717q0 349 140.5 543t397.5 194t399 -194.5t142 -542.5q0 -347 -142 -542t-399 -195t-397.5 194.5t-140.5 542.5zM436 717q0 -206 60 -323.5t157 -117.5q98 0 158.5 117.5t60.5 323.5q0 204 -60.5 321t-158.5 117q-97 0 -157 -117t-60 -321z" />
<glyph unicode="1" horiz-adv-x="800" d="M66 1030v133q0 19 12 31l274 215q36 25 74 25h154q15 0 26.5 -12t11.5 -27v-1354q0 -17 -11.5 -29t-26.5 -12h-234q-18 0 -29.5 11.5t-11.5 29.5v948h-203q-15 0 -25.5 12t-10.5 29z" />
<glyph unicode="2" horiz-adv-x="1132" d="M76 41v16q0 12 1 17t6.5 15.5t18.5 27.5q382 510 533 739q53 84 53 158q0 64 -49.5 108.5t-134.5 44.5q-58 0 -106 -28t-99 -78q-12 -12 -29.5 -12t-29.5 12l-129 131q-11 9 -11.5 26t9.5 29q37 40 72 70t88 64.5t120 53.5t141 19q219 0 349.5 -122.5t130.5 -303.5 q0 -54 -11.5 -101.5t-25.5 -79t-45 -91.5q-29 -53 -87 -136.5t-140 -195.5t-109 -150v-4h366q17 0 29 -12t12 -29v-188q0 -17 -12 -29t-29 -12h-843q-17 0 -28 12t-11 29z" />
<glyph unicode="3" horiz-adv-x="1128" d="M92 162q-20 27 2 53l123 137q11 11 26 12.5t27 -8.5q114 -96 232 -96q80 0 131 45.5t51 122.5q0 79 -67 125.5t-183 46.5h-119q-15 0 -27 12t-12 27v176q0 17 11.5 28t27.5 11h119q107 0 166 45t59 115q0 71 -44.5 115.5t-122.5 44.5q-106 0 -185 -84q-10 -13 -27 -14.5 t-30 9.5l-129 127q-12 11 -11.5 28t11.5 28q181 186 403 186q191 0 324 -107t133 -280q0 -111 -67 -198.5t-150 -125.5v-8q46 -16 88.5 -43t81 -67.5t61.5 -100t23 -129.5q0 -175 -138.5 -295t-353.5 -120q-285 0 -434 182z" />
<glyph unicode="4" horiz-adv-x="1314" d="M57 338v182q0 16 1 24t7.5 21.5t20.5 30.5l709 846q12 12 30 12h152q17 0 29 -12t12 -29v-854h168q19 0 30 -11t11 -28v-182q0 -16 -11.5 -28.5t-29.5 -12.5h-168v-256q0 -17 -12 -29t-27 -12h-223q-15 0 -27 12t-12 29v256h-619q-17 0 -29 12t-12 29zM387 551h332v399 h-4l-328 -395v-4z" />
<glyph unicode="5" horiz-adv-x="1161" d="M109.5 192.5q-1.5 13.5 17.5 32.5l129 135q10 10 27.5 10.5t27.5 -8.5q63 -52 120.5 -76t131.5 -24q85 0 143 57t58 144q0 96 -58 149.5t-161 53.5h-324q-30 0 -47.5 23t-17.5 52v654q0 16 11 27.5t28 11.5h679q17 0 29 -12t12 -27v-187q0 -15 -12 -27t-29 -12h-434v-227 h150q218 0 349.5 -127.5t131.5 -339.5q0 -136 -68 -249.5t-188 -179.5t-266 -66q-77 0 -149 18t-123.5 46t-86.5 55.5t-57 54.5q-22 25 -23.5 38.5z" />
<glyph unicode="6" horiz-adv-x="1189" d="M102 551q0 128 29.5 243.5t76.5 201.5t112 160.5t129.5 125.5t136 92t124.5 63t101 36q49 15 66 -33l61 -164q14 -44 -41 -62q-38 -12 -77.5 -27.5t-98.5 -47t-105.5 -67t-87.5 -88t-55 -110.5q41 19 99.5 31.5t101.5 12.5q77 0 150 -28.5t134 -82.5t98.5 -144t37.5 -202 q0 -199 -143 -341.5t-341 -142.5q-159 0 -275.5 75t-174.5 204t-58 295zM403 471q0 -83 60 -143t143 -60q84 0 143.5 59.5t59.5 143.5t-59.5 144.5t-143.5 60.5q-83 0 -143 -61t-60 -144z" />
<glyph unicode="7" horiz-adv-x="1075" d="M98 1204v191q0 15 12 27t29 12h895q15 0 25 -9t10 -22v-8q0 -15 -8 -33l-623 -1301q-17 -36 -38 -48.5t-48 -12.5h-209q-19 0 -31 11t-12 30q0 23 13 49l512 1071v4h-486q-17 0 -29 12t-12 27z" />
<glyph unicode="8" horiz-adv-x="1249" d="M111 381q0 66 25 127t65.5 105t83 74.5t84.5 47.5v8q-217 121 -217 324q0 116 63.5 205t168.5 135.5t234 46.5q134 0 243 -46.5t173 -135.5t64 -205q0 -110 -63 -192t-154 -130v-10q48 -20 92 -52t82 -75.5t61 -102.5t23 -124q0 -186 -141 -293.5t-380 -107.5 q-231 0 -369 107.5t-138 293.5zM453 397q0 -72 46.5 -115.5t127.5 -43.5q77 0 123.5 44.5t46.5 114.5q0 61 -45.5 113.5t-128.5 79.5q-80 -27 -125 -80t-45 -113zM475 1055q0 -116 148 -172q73 26 112 71.5t39 100.5q0 56 -41.5 96.5t-109.5 40.5q-64 0 -106 -40.5 t-42 -96.5z" />
<glyph unicode="9" horiz-adv-x="1191" d="M96 971q0 98 39 187.5t104 154t154.5 103t186.5 38.5q238 0 372.5 -160t134.5 -413q0 -128 -28 -243t-73.5 -200.5t-108 -159.5t-126.5 -124t-135.5 -90.5t-127.5 -63t-109 -37.5q-49 -15 -66 33l-61 162q-14 46 41 61q38 13 63.5 22.5t77.5 31.5t90 47.5t80.5 60 t71.5 79.5t41 95q-42 -18 -100.5 -30.5t-100.5 -12.5q-77 0 -150 29t-134 83.5t-98.5 144.5t-37.5 202zM381 961q0 -85 59 -145t144 -60q83 0 142.5 60t59.5 145q0 82 -59.5 142t-142.5 60q-84 0 -143.5 -60t-59.5 -142z" />
<glyph unicode=":" horiz-adv-x="571" d="M98 166q0 77 55.5 132.5t131.5 55.5q78 0 134 -55.5t56 -132.5q0 -78 -56 -133.5t-134 -55.5q-77 0 -132 55.5t-55 133.5zM98 778q0 77 55.5 133t131.5 56q78 0 134 -56t56 -133q0 -76 -56 -131t-134 -55q-77 0 -132 55t-55 131z" />
<glyph unicode=";" horiz-adv-x="581" d="M100 778q0 77 54 133t133 56q76 0 132 -56t56 -133q0 -76 -55.5 -131t-132.5 -55q-79 0 -133 54.5t-54 131.5zM104 160q0 70 51 118t126 48q84 0 140 -61.5t56 -180.5q0 -214 -147 -422q-21 -28 -47 -2l-66 45q-18 16 0 49q100 140 100 250q0 8 -2 16q-27 -20 -71 -20 q-66 0 -103 46t-37 114z" />
<glyph unicode="&#x3c;" d="M186 465v10q0 9 6.5 19.5t14.5 15.5l717 434q20 12 38.5 2t18.5 -35v-178q0 -6 -5 -15.5t-11 -12.5l-392 -232l392 -223q6 -3 11 -13t5 -16v-178q0 -25 -18.5 -35t-38.5 2l-717 420q-8 5 -14.5 15.5t-6.5 19.5z" />
<glyph unicode="=" d="M227 285v145q0 16 11 27.5t28 11.5h695q17 0 27.5 -11.5t10.5 -27.5v-145q0 -16 -10.5 -27.5t-27.5 -11.5h-695q-17 0 -28 11.5t-11 27.5zM227 717v143q0 16 11 27.5t28 11.5h695q17 0 27.5 -11.5t10.5 -27.5v-143q0 -16 -10.5 -27.5t-27.5 -11.5h-695q-17 0 -28 11.5 t-11 27.5z" />
<glyph unicode="&#x3e;" d="M246 43v178q0 6 5 16t11 13l391 223l-391 232q-6 3 -11 12.5t-5 15.5v178q0 25 18.5 35t38.5 -2l717 -434q8 -5 14 -15.5t6 -19.5v-10q0 -9 -6 -19.5t-14 -15.5l-717 -420q-20 -12 -38.5 -2t-18.5 35z" />
<glyph unicode="?" horiz-adv-x="1048" d="M90.5 1247.5q0.5 15.5 11.5 26.5q6 7 18 19.5t52.5 43.5t85 54.5t115.5 43t145 19.5q108 0 204 -45.5t155 -129t59 -183.5q0 -55 -17 -101t-44 -78t-59.5 -61t-65.5 -56t-60 -55t-44 -66t-17 -83q0 -17 -11.5 -28t-27.5 -11h-219q-16 0 -27.5 11t-11.5 28v86 q0 40 21 78.5t52 67t68 59t68 56t52 57t21 61.5q0 48 -44 84.5t-109 36.5q-39 0 -74.5 -13t-55 -29.5t-41 -31.5t-33 -18.5t-30.5 8.5l-125 123q-12 11 -11.5 26.5zM287 172q0 80 57 138.5t135 58.5q79 0 138 -58.5t59 -138.5q0 -78 -58.5 -135t-138.5 -57q-78 0 -135 57 t-57 135z" />
<glyph unicode="@" horiz-adv-x="2111" d="M117 457q0 216 73 401t203 316t314.5 205.5t400.5 74.5q212 0 385 -65.5t287 -181.5t175.5 -274t61.5 -343q0 -102 -34 -200t-94.5 -176t-153.5 -125.5t-203 -47.5q-177 0 -246 160h-16q-36 -69 -108 -114.5t-165 -45.5q-115 0 -202 61.5t-130.5 157.5t-43.5 209 q0 177 110.5 304.5t274.5 127.5q134 0 251 -127q4 9 13 33t14.5 37t17 25t25.5 12h84q16 0 27.5 -11t11.5 -28v-344q0 -63 10 -105.5t28 -62t36 -26.5t41 -7q80 0 126 79t46 197q0 134 -40.5 247t-118 197t-200.5 131.5t-280 47.5q-325 0 -518 -199.5t-193 -539.5 q0 -227 130 -411.5t341 -270.5q14 -6 21.5 -20t3.5 -27l-62 -168q-6 -16 -19.5 -23.5t-27.5 -1.5q-187 62 -336 198.5t-235 326t-86 397.5zM874 477q0 -81 43.5 -127.5t106.5 -46.5q62 0 103.5 51.5t41.5 124.5q0 77 -42 126.5t-109 49.5q-64 0 -104 -51.5t-40 -126.5z" />
<glyph unicode="A" horiz-adv-x="1372" d="M0 53l641 1379q11 22 35 22h20q24 0 35 -22l641 -1379q9 -20 -1.5 -36.5t-33.5 -16.5h-227q-28 0 -43.5 11t-28.5 40l-73 162h-557l-74 -164q-20 -49 -74 -49h-225q-23 0 -33.5 16.5t-1.5 36.5zM530 492h312l-156 337h-2z" />
<glyph unicode="B" horiz-adv-x="1249" d="M162 39v1356q0 16 11 27.5t28 11.5h477q183 0 311.5 -110.5t128.5 -270.5q0 -115 -67.5 -199t-165.5 -123v-2q52 -17 96 -42.5t85 -64.5t65 -97.5t24 -129.5q0 -177 -129 -286t-317 -109h-508q-17 0 -28 11.5t-11 27.5zM481 293h174q77 0 118.5 37.5t41.5 109.5 q0 64 -41.5 105t-114.5 41h-178v-293zM481 852h170q58 0 95.5 42.5t37.5 104.5t-37.5 101t-95.5 39h-170v-287z" />
<glyph unicode="C" horiz-adv-x="1390" d="M80 715q0 151 58.5 288t157 235.5t235.5 157t288 58.5t270.5 -46.5t225.5 -143.5q13 -12 13.5 -29t-11.5 -29l-160 -166q-11 -10 -26 -10t-25 10q-119 105 -277 105q-171 0 -286 -124t-115 -298q0 -172 116 -294t287 -122q159 0 275 99q10 9 27 8t26 -11l160 -170 q10 -11 9.5 -27.5t-11.5 -27.5q-204 -198 -498 -198q-101 0 -197 26t-177 73t-149 114.5t-115.5 148.5t-74 176.5t-26.5 196.5z" />
<glyph unicode="D" horiz-adv-x="1499" d="M162 39v1356q0 15 11 27t26 12h499q145 0 278.5 -57t230 -153t153.5 -228t57 -277q0 -117 -36.5 -227t-103 -198t-155 -154.5t-198 -103t-226.5 -36.5h-499q-15 0 -26 12t-11 27zM481 303h215q170 0 275.5 119t105.5 297q0 177 -105.5 295.5t-275.5 118.5h-215v-830z" />
<glyph unicode="E" horiz-adv-x="1183" d="M162 39v1356q0 16 11 27.5t28 11.5h848q17 0 27.5 -11.5t10.5 -27.5v-224q0 -16 -10.5 -27t-27.5 -11h-568v-254h467q15 0 27 -12t12 -27v-224q0 -17 -11.5 -27.5t-27.5 -10.5h-467v-277h568q17 0 27.5 -11.5t10.5 -27.5v-223q0 -16 -10.5 -27.5t-27.5 -11.5h-848 q-17 0 -28 11.5t-11 27.5z" />
<glyph unicode="F" horiz-adv-x="1138" d="M162 39v1356q0 16 11 27.5t28 11.5h848q17 0 27.5 -11.5t10.5 -27.5v-224q0 -16 -10.5 -27t-27.5 -11h-568v-295h467q15 0 27 -12t12 -27v-224q0 -15 -12 -26.5t-27 -11.5h-467v-498q0 -15 -12 -27t-27 -12h-241q-17 0 -28 11.5t-11 27.5z" />
<glyph unicode="G" horiz-adv-x="1452" d="M80 715q0 151 58 287.5t156 235t234.5 156.5t286.5 58q130 0 263 -51t237 -141q14 -11 15 -27.5t-11 -28.5l-162 -172q-27 -23 -55 -2q-106 98 -268 98q-167 0 -285.5 -122t-118.5 -291q0 -167 119.5 -287.5t286.5 -120.5q101 0 182 33v119h-129q-17 0 -28 11t-11 26v202 q0 17 11 28t28 11h411q15 0 26 -12t11 -27l2 -551q0 -20 -16 -32q-9 -5 -25 -14t-68 -32t-108 -40.5t-140 -32t-167 -14.5q-150 0 -286.5 57.5t-234.5 155t-156 233.5t-58 287z" />
<glyph unicode="H" horiz-adv-x="1552" d="M162 39v1356q0 15 12 27t27 12h243q17 0 28 -11.5t11 -27.5v-516h586v516q0 16 11 27.5t28 11.5h244q15 0 27 -12t12 -27v-1356q0 -15 -12 -27t-27 -12h-244q-17 0 -28 11.5t-11 27.5v539h-586v-539q0 -16 -11 -27.5t-28 -11.5h-243q-15 0 -27 12t-12 27z" />
<glyph unicode="I" horiz-adv-x="647" d="M162 39v1356q0 15 12 27t27 12h245q15 0 27 -12t12 -27v-1356q0 -15 -12 -27t-27 -12h-245q-15 0 -27 12t-12 27z" />
<glyph unicode="J" horiz-adv-x="921" d="M18 129q-16 26 5 51l139 137q12 11 27.5 11.5t27.5 -11.5q43 -43 105 -43q120 0 120 136v985q0 16 11 27.5t28 11.5h250q17 0 28 -11.5t11 -27.5v-987q0 -103 -34.5 -186.5t-93.5 -135t-134.5 -79t-159.5 -27.5q-209 0 -330 149z" />
<glyph unicode="K" horiz-adv-x="1357" d="M162 49v1335q0 21 14 35.5t35 14.5h240q20 0 34.5 -15t14.5 -35v-546l454 575q17 21 39 21h258q29 0 41.5 -26.5t-4.5 -49.5l-479 -608l522 -672q17 -23 3.5 -49.5t-42.5 -26.5h-282q-10 0 -22 4.5t-15 9.5l-473 635v-602q0 -20 -14.5 -34.5t-34.5 -14.5h-240 q-21 0 -35 14t-14 35z" />
<glyph unicode="L" horiz-adv-x="1044" d="M162 39v1356q0 16 11 27.5t28 11.5h243q15 0 27 -12t12 -27v-1094h488q17 0 28 -11.5t11 -27.5v-223q0 -16 -11 -27.5t-28 -11.5h-770q-17 0 -28 11.5t-11 27.5z" />
<glyph unicode="M" horiz-adv-x="1798" d="M86 45l231 1376q1 13 13 23t24 10h33q8 0 19.5 -6t15.5 -14l475 -885h4l475 885q4 8 15.5 14t19.5 6h33q12 0 24 -10t13 -23l231 -1376q3 -20 -8.5 -32.5t-30.5 -12.5h-241q-13 0 -25 10.5t-14 22.5l-93 633h-4l-344 -664q-4 -9 -15 -15.5t-19 -6.5h-37q-9 0 -20 6.5 t-15 15.5l-346 664h-4l-90 -633q-2 -13 -13.5 -23t-25.5 -10h-242q-19 0 -30.5 12.5t-8.5 32.5z" />
<glyph unicode="N" horiz-adv-x="1554" d="M160 1417q0 15 12 26t27 11h30q21 0 52 -31l786 -755h2v727q0 16 11 27.5t28 11.5h246q15 0 27 -12t12 -27v-1379q0 -18 -11.5 -27t-27.5 -9h-21q-29 0 -51 22l-797 801h-2v-764q0 -16 -11 -27.5t-28 -11.5h-243q-15 0 -27 12t-12 27z" />
<glyph unicode="O" horiz-adv-x="1632" d="M80 715q0 101 26 197t73 177t114.5 149t148.5 115.5t176.5 74t196.5 26.5q151 0 287.5 -58t235 -157t156.5 -236t58 -288t-58 -287.5t-156.5 -234.5t-235 -155.5t-287.5 -57.5t-287.5 57.5t-234.5 155.5t-155.5 234.5t-57.5 287.5zM408 715q0 -167 120 -287.5t287 -120.5 q169 0 289.5 120.5t120.5 287.5q0 169 -120.5 290t-289.5 121q-167 0 -287 -121t-120 -290z" />
<glyph unicode="P" horiz-adv-x="1198" d="M162 39v1356q0 16 11 27.5t28 11.5h493q199 0 329 -132t130 -321q0 -193 -129.5 -327t-327.5 -134h-215v-481q0 -15 -12 -27t-27 -12h-241q-17 0 -28 11.5t-11 27.5zM481 819h207q66 0 108 46t42 116q0 65 -42.5 108.5t-107.5 43.5h-207v-314z" />
<glyph unicode="Q" horiz-adv-x="1632" d="M80 715q0 101 26 197t73 177t114.5 149t148.5 115.5t176.5 74t196.5 26.5q151 0 287.5 -58t235 -157t156.5 -236t58 -288q0 -196 -103 -368t-275 -277l264 -414q12 -22 1.5 -42t-34.5 -20h-277q-19 0 -32 21l-217 367q-25 -2 -64 -2q-151 0 -287.5 57.5t-234.5 155.5 t-155.5 234.5t-57.5 287.5zM408 715q0 -167 120 -287.5t287 -120.5q169 0 289.5 120.5t120.5 287.5q0 169 -120.5 290t-289.5 121q-167 0 -287 -121t-120 -290z" />
<glyph unicode="R" horiz-adv-x="1355" d="M162 39v1356q0 16 11 27.5t28 11.5h612q193 0 320 -129t127 -314q0 -140 -80.5 -248.5t-223.5 -162.5l281 -521q11 -20 0.5 -39.5t-35.5 -19.5h-272q-24 0 -33 18l-272 543h-142v-522q0 -15 -12 -27t-27 -12h-243q-17 0 -28 11.5t-11 27.5zM483 821h303q64 0 110 46.5 t46 117.5q0 70 -45.5 113t-110.5 43h-303v-320z" />
<glyph unicode="S" horiz-adv-x="1132" d="M88 1047q0 78 30.5 149.5t87.5 129.5t149 93t206 35q229 0 438 -154q17 -9 19 -32.5t-6 -32.5l-105 -158q-12 -19 -35 -25t-55 11q-158 111 -276 111q-61 0 -93 -32.5t-32 -80.5t53.5 -91t169.5 -100q150 -73 204 -109q174 -114 204 -281q6 -38 6 -77q0 -80 -34 -155.5 t-94.5 -135t-153.5 -96t-202 -36.5q-93 0 -175.5 17t-138.5 44.5t-90 50.5t-56 45q-16 16 -16 35q0 13 7 27l95 166q11 19 33 21.5t36 -9.5q46 -31 75 -49t93 -41t123 -23q62 0 101.5 34.5t39.5 88.5q0 61 -50.5 107t-160.5 100q-72 35 -119.5 61t-105 68.5t-91.5 86 t-57.5 105t-23.5 132.5z" />
<glyph unicode="T" horiz-adv-x="1093" d="M53 1171v224q0 16 11 27.5t28 11.5h909q17 0 28 -11.5t11 -27.5v-224q0 -15 -11 -26.5t-28 -11.5h-292v-1094q0 -15 -12 -27t-27 -12h-246q-15 0 -27 12t-12 27v1094h-293q-17 0 -28 11.5t-11 26.5z" />
<glyph unicode="U" horiz-adv-x="1462" d="M147 524v871q0 15 12 27t27 12h252q17 0 28 -11.5t11 -27.5v-854q0 -110 70 -172t182 -62q113 0 184.5 62t71.5 172v854q0 16 11 27.5t28 11.5h252q15 0 27 -12t12 -27v-871q0 -152 -78.5 -277.5t-213 -196t-294.5 -70.5q-159 0 -292.5 70.5t-211.5 195.5t-78 278z" />
<glyph unicode="V" horiz-adv-x="1370" d="M0 1380q-9 20 1.5 37t33.5 17h272q11 0 21.5 -7.5t13.5 -15.5l338 -747h12l338 747q3 8 13.5 15.5t21.5 7.5h272q23 0 33.5 -17t1.5 -37l-643 -1378q-11 -22 -35 -22h-20q-24 0 -35 22z" />
<glyph unicode="W" horiz-adv-x="1810" d="M37 1384q-6 22 4.5 36t32.5 14h239q12 0 23 -9t14 -20l176 -694h9l317 721q11 22 35 22h37q27 0 34 -22l318 -721h8l176 694q3 11 14 20t23 9h240q22 0 32.5 -14t4.5 -36l-388 -1376q-3 -12 -13.5 -20t-22.5 -8h-33q-24 0 -35 22l-375 838h-6l-373 -838q-11 -22 -34 -22 h-33q-12 0 -23 8t-14 20z" />
<glyph unicode="X" horiz-adv-x="1320" d="M36.5 18.5q-11.5 18.5 2.5 38.5l430 678l-414 641q-12 20 -1.5 39t36.5 19h299q19 0 33 -19l235 -381h2l240 381q3 7 13 13t20 6h299q26 0 37.5 -19t-2.5 -39l-416 -641l430 -678q13 -22 2.5 -39.5t-35.5 -17.5h-284q-24 0 -35 18l-269 414h-4l-262 -414q-13 -18 -35 -18 h-284q-26 0 -37.5 18.5z" />
<glyph unicode="Y" horiz-adv-x="1232" d="M0.5 1414q10.5 20 34.5 20h266q19 0 33 -19l284 -420l285 420q14 19 33 19h266q24 0 34.5 -20t-1.5 -40l-459 -682v-653q0 -15 -12 -27t-27 -12h-243q-17 0 -28 11.5t-11 27.5v651l-453 684q-12 20 -1.5 40z" />
<glyph unicode="Z" horiz-adv-x="1110" d="M47 39v14q0 27 12 49l533 1026v5h-447q-15 0 -27 11.5t-12 26.5v224q0 15 12 27t27 12h871q15 0 27 -10t12 -25v-17q0 -13 -13 -39l-514 -1038v-4h447q17 0 28 -11.5t11 -27.5v-223q0 -16 -11 -27.5t-28 -11.5h-889q-15 0 -27 12t-12 27z" />
<glyph unicode="[" horiz-adv-x="741" d="M119 -451v1846q0 15 12 27t27 12h504q15 0 26.5 -12t11.5 -27v-164q0 -17 -11.5 -28t-26.5 -11h-261v-1440h261q15 0 26.5 -11t11.5 -26v-166q0 -15 -11.5 -26.5t-26.5 -11.5h-504q-15 0 -27 11.5t-12 26.5z" />
<glyph unicode="\" horiz-adv-x="880" d="M102 1382q-6 22 4.5 37t32.5 15h201q12 0 23 -8t14 -19l401 -1356q6 -21 -5 -36t-32 -15h-202q-11 0 -22.5 8.5t-14.5 18.5z" />
<glyph unicode="]" horiz-adv-x="741" d="M41 -285q0 15 12 26t27 11h260v1440h-260q-16 0 -27.5 11t-11.5 28v164q0 15 12 27t27 12h504q15 0 27 -12t12 -27v-1846q0 -15 -12 -26.5t-27 -11.5h-504q-15 0 -27 11.5t-12 26.5v166z" />
<glyph unicode="^" horiz-adv-x="1073" d="M68 792.5q-10 18.5 2 38.5l432 611q5 8 15.5 14t19.5 6h10q9 0 19.5 -6t15.5 -14l422 -611q12 -20 2 -38.5t-35 -18.5h-178q-6 0 -16 5.5t-13 11.5l-225 305l-230 -305q-3 -6 -12.5 -11.5t-15.5 -5.5h-179q-24 0 -34 18.5z" />
<glyph unicode="_" horiz-adv-x="1198" d="M193 -59q0 17 10.5 28t27.5 11h736q17 0 28 -11t11 -28v-105q0 -15 -11 -26t-28 -11h-736q-17 0 -27.5 11t-10.5 26v105z" />
<glyph unicode="`" horiz-adv-x="618" d="M90 1278l70 121q7 12 26 12.5t27 -6.5l348 -213q23 -18 12 -39l-43 -86q-20 -39 -55 -18l-373 168q-33 21 -12 61z" />
<glyph unicode="a" horiz-adv-x="1001" d="M59 289q0 139 95 227t254 88q47 0 93.5 -10t69.5 -20l23 -11q0 76 -26.5 111t-104.5 35q-50 0 -121.5 -10t-116.5 -23q-10 -3 -18 -3q-33 0 -39 52l-23 145q-4 28 7.5 44.5t29.5 21.5q22 8 126.5 19.5t189.5 11.5q217 0 306 -93t89 -307v-522q0 -18 -13.5 -31.5 t-31.5 -13.5h-100q-29 0 -43 31l-31 63q-30 -25 -50 -40t-57 -36t-82 -31t-98 -10q-142 0 -235 86.5t-93 225.5zM365 311q0 -43 30.5 -73.5t73.5 -30.5t74.5 30.5t31.5 73.5q0 41 -31.5 73t-74.5 32q-42 0 -73 -31.5t-31 -73.5z" />
<glyph unicode="b" horiz-adv-x="1179" d="M117 45v1344q0 18 13.5 31.5t31.5 13.5h221q18 0 31.5 -13.5t13.5 -31.5v-484q27 22 90 42t129 20q96 0 180 -31t149 -90.5t102.5 -155t37.5 -217.5q0 -134 -60.5 -247.5t-168.5 -181t-238 -67.5q-59 0 -113 15t-90 37t-63.5 44t-40.5 37l-12 15l-27 -78q-14 -47 -49 -47 h-92q-19 0 -32 13t-13 32zM406 475q0 -88 56 -144.5t144 -56.5q85 0 142 57t57 144q0 86 -57 141.5t-142 55.5q-88 0 -144 -55.5t-56 -141.5z" />
<glyph unicode="c" horiz-adv-x="985" d="M59 473q0 136 69 250.5t184 179t249 64.5q213 0 354 -166q12 -15 12 -29q0 -20 -24 -39l-133 -129q-7 -8 -23.5 -7.5t-29.5 11.5q-76 68 -146 68q-81 0 -140.5 -61.5t-59.5 -141.5q0 -86 57 -144.5t139 -58.5q41 0 74.5 12t51.5 26t44 40q12 15 28.5 17.5t25.5 -9.5 l133 -114q23 -23 23 -45q0 -12 -7 -23q-132 -197 -381 -197q-134 0 -248.5 64t-183 178.5t-68.5 253.5z" />
<glyph unicode="d" horiz-adv-x="1179" d="M63 473q0 122 37.5 217.5t102.5 155t149 90.5t180 31q66 0 130.5 -17t89.5 -37v476q0 18 13.5 31.5t31.5 13.5h221q18 0 31.5 -13.5t13.5 -31.5v-1344q0 -19 -13 -32t-32 -13h-92q-35 0 -49 47l-27 78q-5 -6 -13.5 -16t-39 -35.5t-64.5 -45t-89 -35.5t-114 -16 q-130 0 -238 67.5t-168.5 181t-60.5 247.5zM377 475q0 -87 58 -146t143 -59q87 0 143.5 58.5t56.5 146.5q0 87 -56.5 144t-143.5 57q-85 0 -143 -57.5t-58 -143.5z" />
<glyph unicode="e" horiz-adv-x="1050" d="M61 473q0 132 63.5 245t177.5 181t251 68q120 0 222 -55.5t164 -158t62 -229.5q0 -33 -4 -61q-1 -18 -15 -29.5t-30 -11.5h-583q0 -62 53 -113t143 -51q44 0 95.5 18t84.5 41q15 13 32 13t28 -13l104 -137q11 -15 11.5 -33t-13.5 -34q-133 -136 -350 -136 q-214 0 -355 139t-141 357zM403 602h279q-3 49 -41 83t-96 34q-56 0 -94.5 -33.5t-47.5 -83.5z" />
<glyph unicode="f" horiz-adv-x="819" d="M63 711v190q0 20 13 32.5t33 12.5h81v78q0 197 104 313.5t304 116.5q86 0 170.5 -28.5t118.5 -61.5q11 -8 13 -23.5t-5 -29.5l-100 -176q-8 -12 -23 -16t-29 3q-64 37 -122 37q-73 0 -96 -34t-23 -101v-78h237q19 0 32 -12.5t13 -32.5v-190q0 -19 -13 -32t-32 -13h-237 v-621q0 -19 -14 -32t-33 -13h-219q-18 0 -32 13.5t-14 31.5v621h-81q-20 0 -33 13t-13 32z" />
<glyph unicode="g" horiz-adv-x="1177" d="M63 475q0 134 60.5 246.5t168.5 179t238 66.5q59 0 113 -15t90 -36.5t64 -43t41 -36.5l12 -15l27 78q6 20 19.5 33.5t29.5 13.5h92q18 0 31.5 -13.5t13.5 -31.5v-870q0 -125 -38.5 -222.5t-107.5 -158.5t-160 -92t-200 -31q-97 0 -204.5 34t-147.5 68q-24 20 -10 54 l71 172q6 14 23.5 20t32.5 -2q36 -22 58 -33.5t72.5 -27t98.5 -15.5q201 0 201 189v49q-25 -20 -91.5 -39t-128.5 -19q-96 0 -180 31.5t-149 91.5t-102.5 156.5t-37.5 218.5zM377 473q0 -86 58 -144.5t143 -58.5q87 0 143.5 58t56.5 145q0 86 -56.5 144.5t-143.5 58.5 q-85 0 -143 -59t-58 -144z" />
<glyph unicode="h" horiz-adv-x="1124" d="M117 45v1344q0 18 13.5 31.5t31.5 13.5h221q18 0 31.5 -13.5t13.5 -31.5v-490q100 68 201 68q108 0 186 -37.5t121.5 -105.5t63.5 -151t20 -186v-442q0 -18 -13.5 -31.5t-31.5 -13.5h-221q-20 0 -32.5 13t-12.5 32v447q0 85 -34.5 134.5t-107.5 49.5q-139 0 -139 -184 v-447q0 -24 -10.5 -34.5t-40.5 -10.5h-215q-19 0 -32 13t-13 32z" />
<glyph unicode="i" horiz-adv-x="540" d="M92 1253q0 74 51.5 127.5t124.5 53.5t125.5 -53.5t52.5 -127.5q0 -72 -52.5 -124t-125.5 -52t-124.5 52t-51.5 124zM115 45v856q0 20 13 32.5t32 12.5h221q19 0 32 -12.5t13 -32.5v-856q0 -19 -13 -32t-32 -13h-221q-19 0 -32 13t-13 32z" />
<glyph unicode="j" horiz-adv-x="544" d="M-80 -317q-5 13 -5 24q0 30 38 45q164 64 164 215v934q0 20 13 32.5t32 12.5h221q19 0 32 -12.5t13 -32.5v-909q0 -105 -28.5 -192.5t-78 -147t-110 -98t-131.5 -56.5q-24 -6 -41 -6q-15 0 -25 4q-22 8 -34 37zM96 1253q0 74 51.5 127.5t124.5 53.5t126 -53.5t53 -127.5 q0 -72 -53 -124t-126 -52t-124.5 52t-51.5 124z" />
<glyph unicode="k" horiz-adv-x="1099" d="M117 45v1344q0 18 13.5 31.5t31.5 13.5h221q18 0 31.5 -13.5t13.5 -31.5v-801l266 330q28 28 60 28h252q31 0 43.5 -25.5t-7.5 -48.5l-315 -364l334 -436q19 -23 7.5 -47.5t-42.5 -24.5h-283q-18 0 -32 18l-283 412v-385q0 -19 -13 -32t-32 -13h-221q-19 0 -32 13t-13 32 z" />
<glyph unicode="l" horiz-adv-x="544" d="M117 45v1344q0 18 13.5 31.5t31.5 13.5h221q18 0 31.5 -13.5t13.5 -31.5v-1344q0 -19 -13 -32t-32 -13h-221q-19 0 -32 13t-13 32z" />
<glyph unicode="m" horiz-adv-x="1691" d="M115 45v856q0 20 12.5 32.5t32.5 12.5h90q29 0 39 -26l39 -97q35 35 52.5 50.5t56.5 42.5t84.5 39t99.5 12q92 0 150.5 -33t129.5 -111q25 28 46 46.5t59 44t87.5 39.5t106.5 14q85 0 151.5 -24.5t110.5 -67t72.5 -104t40.5 -131.5t12 -153v-442q0 -19 -13 -32t-32 -13 h-221q-20 0 -32.5 13t-12.5 32v457q0 81 -31 127.5t-108 46.5q-61 0 -97 -44t-36 -114v-473q0 -19 -11.5 -32t-31.5 -13h-224q-19 0 -32 13t-13 32v457q0 32 -2.5 55.5t-10 47t-20.5 38.5t-35.5 24t-52.5 9q-70 0 -107.5 -44t-37.5 -118v-469q0 -18 -13.5 -31.5t-31.5 -13.5 h-221q-20 0 -32.5 13t-12.5 32z" />
<glyph unicode="n" horiz-adv-x="1124" d="M115 45v856q0 20 13 32.5t32 12.5h92q27 0 43 -28l35 -95q24 27 34.5 38t41 36t57 37t70 22.5t92.5 10.5q107 0 185.5 -36t123 -101.5t65.5 -147.5t21 -184v-453q0 -19 -13 -32t-30 -13h-223q-20 0 -32.5 13t-12.5 32v457q0 76 -32 125t-106 49q-69 0 -106 -44t-37 -118 v-469q0 -18 -10 -31.5t-33 -13.5h-225q-19 0 -32 13t-13 32z" />
<glyph unicode="o" horiz-adv-x="1103" d="M59 475q0 131 66.5 244.5t181 180.5t246.5 67t245.5 -67t179.5 -180.5t66 -244.5q0 -133 -66 -248t-179.5 -182.5t-245.5 -67.5q-99 0 -190.5 40t-158 107.5t-106 159.5t-39.5 191zM354 475q0 -84 58 -144.5t141 -60.5q81 0 139 60.5t58 144.5q0 82 -58 141.5t-139 59.5 q-83 0 -141 -59.5t-58 -141.5z" />
<glyph unicode="p" horiz-adv-x="1177" d="M117 -442v1343q0 18 13.5 31.5t31.5 13.5h92q16 0 29.5 -13.5t19.5 -33.5l27 -78q4 6 13 16t39 35t64.5 44t89 35t113.5 16q130 0 237.5 -66.5t167.5 -179t60 -246.5q0 -122 -37.5 -218.5t-102 -156.5t-148 -91.5t-179.5 -31.5q-64 0 -128.5 18t-90.5 38v-475 q0 -19 -13 -32t-32 -13h-221q-19 0 -32 13t-13 32zM401 473q0 -87 57 -145t144 -58q85 0 143 58.5t58 144.5q0 85 -58 144t-143 59q-87 0 -144 -58.5t-57 -144.5z" />
<glyph unicode="q" horiz-adv-x="1179" d="M63 475q0 134 60.5 246.5t168.5 179t238 66.5q59 0 113 -15t90 -36.5t64 -43t41 -36.5l12 -15l27 78q6 20 19.5 33.5t29.5 13.5h92q18 0 31.5 -13.5t13.5 -31.5v-1343q0 -19 -13 -32t-32 -13h-221q-19 0 -32 13t-13 32v477q-25 -20 -91.5 -39t-128.5 -19q-96 0 -180 31.5 t-149 91.5t-102.5 156.5t-37.5 218.5zM377 473q0 -86 58 -144.5t143 -58.5q87 0 143.5 58t56.5 145q0 86 -56.5 144.5t-143.5 58.5q-85 0 -143 -59t-58 -144z" />
<glyph unicode="r" horiz-adv-x="782" d="M115 45v856q0 20 13 32.5t32 12.5h98q32 0 43 -28l43 -105q83 154 236 154q120 0 184 -49q25 -18 6 -52l-94 -186q-20 -35 -53 -23q-40 15 -72 15q-55 0 -90 -36t-35 -95v-496q0 -45 -51 -45h-215q-19 0 -32 13t-13 32z" />
<glyph unicode="s" horiz-adv-x="882" d="M72 672q0 134 90 214.5t268 80.5q87 0 176.5 -21t147.5 -51q19 -9 26 -25.5t-2 -35.5l-73 -152q-4 -12 -20.5 -17t-29.5 1q-116 57 -221 57q-38 0 -52.5 -9.5t-14.5 -29.5q0 -18 25.5 -34t80.5 -36q46 -17 79.5 -31t72 -33t65 -37.5t52.5 -43.5t42 -52.5t25.5 -62.5 t9.5 -75q0 -129 -101.5 -215.5t-283.5 -86.5q-107 0 -196.5 23t-141.5 55q-31 19 -16 49l76 156q5 13 20 20.5t29 0.5q123 -60 233 -60q72 0 72 45q0 22 -36.5 43t-125.5 56q-143 56 -209.5 126.5t-66.5 180.5z" />
<glyph unicode="t" horiz-adv-x="802" d="M55 711v190q0 20 11.5 32.5t29.5 12.5h78v262q0 19 13 32t32 13h225q17 0 29 -13t12 -32v-262h191q19 0 32 -12.5t13 -32.5v-190q0 -19 -13 -32t-32 -13h-191v-330q0 -66 64 -66q37 0 117 21q19 5 34 -3t19 -26l41 -178q4 -21 -3 -32.5t-28 -20.5q-126 -54 -270 -54 q-136 0 -210.5 85t-74.5 245v359h-78q-17 0 -29 13t-12 32z" />
<glyph unicode="u" horiz-adv-x="1099" d="M106 428v473q0 20 13 32.5t31 12.5h223q19 0 32 -12.5t13 -32.5v-467q0 -83 29 -123.5t98 -40.5q66 0 97.5 40.5t31.5 107.5v483q0 45 51 45h215q19 0 32 -12.5t13 -32.5v-856q0 -19 -13 -32t-32 -13h-94q-28 0 -45 33l-33 88q-139 -144 -299 -144q-101 0 -172.5 32 t-112.5 93.5t-59.5 141t-18.5 184.5z" />
<glyph unicode="v" horiz-adv-x="993" d="M23 881q-11 25 1.5 45t38.5 20h224q33 0 43 -26l162 -383h6l170 383q2 5 4 8.5t5 6.5l5 5t6.5 3t6.5 1.5t8 1t8 0.5h10h10h197q28 0 41 -20t0 -45l-428 -879q-5 -9 -18 -17t-23 -8h-13q-21 0 -38 25z" />
<glyph unicode="w" horiz-adv-x="1476" d="M31 889q-8 24 4.5 40.5t38.5 16.5h202q12 0 25.5 -8t17.5 -20l138 -394h2l231 424q10 19 37 19h23q28 0 36 -19l234 -424h2l135 394q10 28 47 28h199q25 0 38 -17.5t5 -39.5l-313 -883q-5 -12 -17.5 -20.5t-25.5 -8.5h-11q-8 0 -21 7t-16 14l-305 510h-2l-301 -510 q-4 -7 -16.5 -14t-20.5 -7h-12q-12 0 -24.5 8.5t-16.5 20.5z" />
<glyph unicode="x" horiz-adv-x="1087" d="M40 24.5q-11 24.5 5 47.5l297 409l-289 393q-18 23 -5.5 47.5t42.5 24.5h260q32 0 39 -18l152 -242h8l153 242q7 18 39 18h260q30 0 42.5 -24.5t-5.5 -47.5l-288 -389l290 -413q16 -23 4.5 -47.5t-40.5 -24.5h-256q-23 0 -35 20l-164 248h-8q-23 -33 -87 -127t-85 -123 q-11 -18 -39 -18h-250q-29 0 -40 24.5z" />
<glyph unicode="y" horiz-adv-x="1013" d="M37 885q-8 24 3 42.5t36 18.5h243q13 0 23.5 -7t13.5 -19l129 -502h4l183 502q10 26 41 26h233q28 0 40 -18t1 -43l-559 -1344q-5 -11 -16 -19.5t-23 -8.5h-229q-26 0 -38 19t-1 44l196 496z" />
<glyph unicode="z" horiz-adv-x="860" d="M61 45q0 22 15 53l295 559v5h-244q-17 0 -30 13t-13 32v194q0 20 12.5 32.5t30.5 12.5h641q27 0 39.5 -19.5t-0.5 -45.5l-318 -594v-4h232q19 0 32 -12.5t13 -32.5v-193q0 -19 -13 -32t-32 -13h-615q-19 0 -32 13t-13 32z" />
<glyph unicode="{" horiz-adv-x="802" d="M29 408v118q0 12 8.5 23t17.5 14q6 2 16 5.5t35 16.5t44 27t35 36t16 46v203q0 101 18 183.5t46 138.5t71.5 98t85.5 65.5t97.5 39.5t98 21.5t95.5 8.5q17 1 28 -8.5t13 -26.5l10 -174q0 -12 -9 -24t-20 -15q-76 -20 -123 -51.5t-74.5 -94.5t-27.5 -161v-162 q0 -45 -18 -89t-43.5 -74t-51 -53t-43.5 -35l-18 -11v-8q25 -11 50.5 -28.5t55.5 -47t49 -74t19 -96.5v-172q0 -98 27.5 -161t74.5 -94.5t123 -51.5q11 -3 20 -15t9 -24l-10 -174q-2 -15 -14 -25.5t-27 -9.5q-53 3 -95.5 8.5t-98 21.5t-97.5 39.5t-85.5 65.5t-71.5 98 t-46 138.5t-18 183.5v193q0 102 -142 131q-12 1 -21 13t-9 24z" />
<glyph unicode="|" horiz-adv-x="348" d="M119 -451v1969q0 17 11.5 27.5t27.5 10.5h35q15 0 25.5 -10.5t10.5 -27.5v-1969q0 -15 -12 -25.5t-27 -10.5h-32q-15 0 -27 10.5t-12 25.5z" />
<glyph unicode="}" horiz-adv-x="802" d="M39 -299q0 12 9 24t20 15q76 20 123 51.5t74.5 94.5t27.5 161v172q0 52 19 96.5t49 74t55.5 47t50.5 28.5v8q-7 4 -19 11.5t-42 33.5t-52.5 54.5t-41.5 73t-19 89.5v162q0 98 -27.5 161t-74.5 94.5t-123 51.5q-11 3 -20 15t-9 24l10 174q2 17 13 26.5t28 8.5 q53 -3 95.5 -8.5t98 -21.5t97.5 -39.5t85.5 -65.5t71.5 -98t46 -138.5t18 -183.5v-203q0 -24 15 -46t36.5 -36.5t43 -26t36.5 -17.5l15 -5q9 -3 17.5 -14t8.5 -23v-118q0 -12 -9.5 -24t-21.5 -13q-141 -29 -141 -131v-193q0 -101 -18 -183.5t-46 -138.5t-71.5 -98 t-85.5 -65.5t-97.5 -39.5t-98 -21.5t-95.5 -8.5q-15 -1 -27 9.5t-14 25.5z" />
<glyph unicode="~" horiz-adv-x="1101" d="M57 530q6 8 16.5 22.5t45.5 50.5t70.5 63.5t88.5 50t103 22.5q39 0 79 -14t59.5 -26t62.5 -40q3 -2 19 -12.5t20.5 -13t19 -11t22 -11.5t20.5 -7.5t24.5 -6t23.5 -1.5q60 0 131 100q12 15 29.5 15.5t30.5 -13.5l118 -125q9 -11 11 -25.5t-7 -25.5q-6 -8 -16 -22 t-43.5 -50t-68.5 -63t-86.5 -49.5t-100.5 -22.5q-19 0 -37.5 2.5t-31 4.5t-31.5 10t-26.5 11t-28 15t-24 14t-26.5 17.5t-24 16.5q-76 49 -123 49q-66 0 -131 -99q-12 -15 -30 -16t-30 12l-125 129q-23 27 -4 49z" />
<glyph unicode="&#xa1;" horiz-adv-x="532" d="M72 774q0 78 58.5 135.5t137.5 57.5q78 0 135.5 -57.5t57.5 -135.5q0 -79 -57.5 -137.5t-135.5 -58.5q-80 0 -138 58t-58 138zM84 -219l100 575q2 12 14 22.5t25 10.5h86q13 0 25 -10.5t14 -22.5l101 -571v-234q0 -15 -12 -26.5t-27 -11.5h-287q-15 0 -27 11.5t-12 26.5 v230z" />
<glyph unicode="&#xa2;" horiz-adv-x="1116" d="M121 473q0 136 69 250.5t184 179t249 64.5q19 0 55 -4l27 100q6 18 22 27t33 2l39 -11q19 -3 28 -19t4 -36l-26 -96q94 -39 172 -129q28 -36 -12 -68l-134 -129q-7 -8 -23.5 -7.5t-29.5 11.5l-15 12t-18.5 14.5t-15.5 10.5l-102 -375h2q41 0 74.5 12t51.5 26t44 40 q12 15 28 17.5t25 -9.5l133 -114q36 -36 16 -68q-132 -197 -380 -197q-32 0 -72 7l-64 -236q-3 -17 -19 -25.5t-34 -5.5l-39 15q-18 3 -27 17.5t-6 33.5l64 233q-136 57 -219.5 179t-83.5 278zM432 473q0 -99 72 -158l96 357q-70 -12 -119 -70t-49 -129z" />
<glyph unicode="&#xa3;" d="M195 631v35q0 15 10.5 27t25.5 12h64q-3 12 -12 46t-12.5 47.5t-10.5 42.5t-10 46t-7 40.5t-5.5 44t-1.5 40.5q0 208 118 325t320 117q190 0 354 -145q12 -9 13 -25.5t-9 -28.5l-129 -155q-9 -11 -25 -12.5t-28 6.5q-11 9 -28.5 22.5t-62.5 35.5t-79 22 q-58 0 -95.5 -38.5t-37.5 -105.5q0 -42 35.5 -152.5t48.5 -172.5h188q17 0 28 -11.5t11 -27.5v-37q0 -15 -11 -26t-28 -11h-170q4 -66 4 -105q0 -109 -22 -213h346q15 0 26 -10.5t11 -27.5v-197q0 -15 -11 -27t-26 -12h-692q-15 0 -27 12t-12 27v37q90 165 90 350 q0 76 -17 166h-88q-15 0 -25.5 12t-10.5 27z" />
<glyph unicode="&#xa4;" horiz-adv-x="1013" d="M132 896q0 18 11 28l103 100q10 10 26 10t27 -10l104 -104q55 22 107 22q50 0 100 -18l105 104q10 11 27.5 10.5t27.5 -12.5l100 -100q11 -11 11.5 -27t-9.5 -27l-104 -104q20 -55 20 -102q0 -54 -22 -109l104 -104q10 -11 9.5 -27t-11.5 -27l-100 -100 q-11 -11 -26.5 -11.5t-26.5 9.5l-109 109q-53 -17 -98 -17q-51 0 -100 19l-107 -107q-11 -11 -28 -11t-27 11l-101 102q-11 11 -11 28t11 28l107 106q-19 49 -19 99q0 43 17 96l-107 108q-11 10 -11 28zM426 666q0 -35 25 -60.5t59 -25.5q35 0 59.5 25.5t24.5 62.5 q0 32 -25 57t-59 27q-35 -1 -59.5 -26.5t-24.5 -59.5z" />
<glyph unicode="&#xa5;" d="M-3.5 1414q10.5 20 34.5 20h266q19 0 33 -19l284 -420l285 420q14 19 33 19h266q24 0 34.5 -20t-1.5 -40l-459 -682v-92h203q17 0 28 -11.5t11 -27.5v-37q0 -15 -11 -26t-28 -11h-203v-133h203q17 0 28 -11.5t11 -27.5v-36q0 -15 -11 -26t-28 -11h-203v-203 q0 -15 -12 -27t-27 -12h-244q-17 0 -27.5 11.5t-10.5 27.5v203h-207q-15 0 -26 12t-11 27v34q0 15 11 27t26 12h207v133h-207q-15 0 -26 12t-11 27v35q0 15 11 27t26 12h207v90l-453 684q-12 20 -1.5 40z" />
<glyph unicode="&#xa6;" horiz-adv-x="360" d="M125 227q0 17 11.5 28t27.5 11h35q15 0 26 -11t11 -28v-678q0 -15 -12 -25.5t-27 -10.5h-33q-15 0 -27 10.5t-12 25.5v678zM125 840v678q0 17 11.5 27.5t27.5 10.5h35q15 0 26 -10.5t11 -27.5v-678q0 -15 -12 -26t-27 -11h-33q-15 0 -27 11t-12 26z" />
<glyph unicode="&#xa7;" horiz-adv-x="1142" d="M123 494q0 173 139 288q-139 125 -139 287q0 75 28 143t81 122.5t139.5 87t193.5 32.5q210 0 412 -145q16 -8 18.5 -29t-6.5 -31l-108 -159q-25 -39 -68 -9q-47 33 -123.5 70t-138.5 37q-53 0 -88 -27.5t-35 -66.5q0 -56 48 -100t161 -89q45 -17 82.5 -35t85.5 -46 t85 -62.5t70 -77t50.5 -98.5t17.5 -119q0 -163 -135 -285q135 -128 135 -293q0 -74 -32 -145t-89 -127.5t-144 -90.5t-190 -34q-88 0 -165.5 16.5t-129.5 42.5t-81.5 45.5t-49.5 38.5q-18 18 -19.5 32t11.5 38l74 137q28 51 78 23q1 -1 24.5 -14.5t50 -26.5t60 -28t69 -24.5 t64.5 -9.5q58 0 95.5 31t37.5 84q0 66 -51 110t-145 81q-373 151 -373 426zM414 520q0 -36 16 -65.5t51 -54t71.5 -42.5t96.5 -43q6 5 16 16t26 48.5t16 81.5q0 25 -6.5 46t-24 39.5t-33.5 32t-49 30.5t-55.5 27.5t-67.5 29.5q-2 -3 -8 -9q-49 -55 -49 -137z" />
<glyph unicode="&#xa8;" horiz-adv-x="847" d="M59 1241q0 65 44.5 109.5t109.5 44.5t110.5 -45t45.5 -109q0 -65 -45.5 -110.5t-110.5 -45.5q-64 0 -109 45.5t-45 110.5zM479 1241q0 65 44.5 109.5t109.5 44.5t110 -45t45 -109q0 -65 -45.5 -110.5t-109.5 -45.5t-109 45.5t-45 110.5z" />
<glyph unicode="&#xa9;" horiz-adv-x="1693" d="M111 717q0 200 98.5 369.5t267.5 268.5t369 99t369.5 -99t268.5 -268.5t99 -369.5t-99 -369.5t-268.5 -268.5t-369.5 -99t-369 99t-267.5 268.5t-98.5 369.5zM289 717q0 -113 44 -216.5t119 -178.5t178 -119.5t216 -44.5q114 0 217 44.5t177.5 119.5t118.5 178.5 t44 216.5q0 152 -74.5 280t-202.5 202.5t-280 74.5q-113 0 -216 -44t-178 -118.5t-119 -177.5t-44 -217zM481 713q0 161 112 273t271 112q136 0 236 -78q14 -12 15 -28.5t-11 -30.5l-98 -99q-9 -9 -24 -11t-26 5q-39 27 -92 27q-68 0 -113.5 -48.5t-45.5 -115.5 q0 -70 45 -117t114 -47q51 0 90 27q11 7 26 4.5t24 -11.5l102 -102q11 -12 10.5 -28.5t-12.5 -28.5q-102 -86 -240 -86q-158 0 -270.5 112.5t-112.5 270.5z" />
<glyph unicode="&#xaa;" horiz-adv-x="696" d="M57 1024q0 82 66 136t178 54q27 0 53.5 -3.5t39.5 -6.5l12 -4q2 44 -18 66t-66 22q-64 0 -152 -18q-34 -6 -37 33l-14 86q-5 34 22 43q17 5 83.5 13.5t121.5 8.5q139 0 198.5 -61.5t59.5 -198.5v-340q0 -10 -9 -19.5t-20 -9.5h-67q-18 0 -29 21l-20 43q-24 -22 -44 -36.5 t-58.5 -28t-84.5 -13.5q-96 0 -155.5 58t-59.5 155zM262 1024q0 -28 18.5 -48t47.5 -20q27 0 46 20t19 48q0 27 -19 46.5t-46 19.5q-29 0 -47.5 -19.5t-18.5 -46.5z" />
<glyph unicode="&#xab;" horiz-adv-x="1054" d="M68 459q-17 23 0 49l223 303q15 25 37 25h161q26 0 35 -19.5t-4 -44.5l-133 -285l127 -301q11 -25 3 -43t-34 -18h-172q-18 0 -30 16zM514 459q-17 23 0 49l223 303q15 25 37 25h162q26 0 35 -19.5t-4 -44.5l-133 -285l127 -301q11 -25 3 -43t-34 -18h-172q-6 0 -16.5 5 t-14.5 11z" />
<glyph unicode="&#xac;" horiz-adv-x="1171" d="M121 639v143q0 15 12 27t27 12h819q16 0 27.5 -12.5t11.5 -26.5v-483q0 -15 -12 -26t-27 -11h-143q-15 0 -27 11t-12 26v301h-637q-15 0 -27 12t-12 27z" />
<glyph unicode="&#xad;" horiz-adv-x="747" />
<glyph unicode="&#xae;" horiz-adv-x="1693" d="M111 717q0 200 98.5 369.5t267.5 268.5t369 99t369.5 -99t268.5 -268.5t99 -369.5t-99 -369.5t-268.5 -268.5t-369.5 -99t-369 99t-267.5 268.5t-98.5 369.5zM289 717q0 -113 44 -216.5t119 -178.5t178 -119.5t216 -44.5q114 0 217 44.5t177.5 119.5t118.5 178.5 t44 216.5q0 152 -74.5 280t-202.5 202.5t-280 74.5q-113 0 -216 -44t-178 -118.5t-119 -177.5t-44 -217zM563 383v672q0 16 11 27.5t28 11.5h332q100 0 176 -74.5t76 -192.5q0 -150 -137 -229l81 -199q9 -20 -1.5 -37.5t-32.5 -17.5h-140q-12 0 -22.5 9t-13.5 20l-76 217 h-80v-207q0 -16 -11 -27.5t-28 -11.5h-123q-17 0 -28 11.5t-11 27.5zM758 756h141q27 0 46.5 20t19.5 47q0 29 -19.5 48.5t-46.5 19.5h-141v-135z" />
<glyph unicode="&#xaf;" horiz-adv-x="847" d="M123 1190v84q0 17 11 28t28 11h524q17 0 28 -11t11 -28v-84q0 -15 -11 -26t-28 -11h-524q-17 0 -28 11t-11 26z" />
<glyph unicode="&#xb0;" horiz-adv-x="663" d="M55 1178q0 115 80.5 195.5t196.5 80.5q114 0 195 -80.5t81 -195.5t-81 -196t-195 -81q-116 0 -196.5 80.5t-80.5 196.5zM260 1178q0 -29 21.5 -50.5t50.5 -21.5q28 0 48.5 21.5t20.5 50.5q0 28 -20.5 48.5t-48.5 20.5q-29 0 -50.5 -20.5t-21.5 -48.5z" />
<glyph unicode="&#xb1;" d="M168 762v143q0 15 12 27t27 12h299v301q0 15 12 26t27 11h143q15 0 27 -11t12 -26v-301h301q15 0 26 -12t11 -27v-143q0 -15 -11 -27t-26 -12h-301v-197q0 -15 -12 -26t-27 -11h-143q-15 0 -27 11t-12 26v197h-299q-15 0 -27 12t-12 27zM188 119v143q0 15 12 27t27 12 h766q15 0 26 -12t11 -27v-143q0 -15 -11 -27t-26 -12h-766q-15 0 -27 12t-12 27z" />
<glyph unicode="&#xb2;" horiz-adv-x="565" d="M49 1051v36l209 252q41 52 41 97q0 29 -18 44t-45 15q-41 0 -72 -31q-23 -16 -37 9l-45 73q-14 25 -12 33q2 10 20 23q23 18 74.5 37.5t116.5 19.5q91 0 152 -53t61 -140q0 -85 -62 -172l-82 -108h119q8 0 14 -6t6 -13v-116q0 -7 -6 -13t-14 -6h-399q-9 0 -15 5.5 t-6 13.5z" />
<glyph unicode="&#xb3;" horiz-adv-x="559" d="M61 1116l48 70q16 22 41 8q28 -23 73 -23q68 0 68 50q0 23 -17.5 37t-50.5 14h-67q-14 2 -20.5 8t-6.5 25v69q0 35 37 35h57q24 0 41 13.5t17 35.5q0 20 -16 32.5t-44 12.5q-32 0 -61 -22q-8 -7 -16.5 -6.5t-18.5 14.5l-53 72q-18 23 2 43q7 6 20.5 15t60 24.5t97.5 15.5 q103 0 164 -46t61 -124q0 -90 -104 -143q48 -19 85.5 -56.5t37.5 -101.5q0 -83 -71 -129.5t-173 -46.5q-105 0 -184 59q-25 19 -7 45z" />
<glyph unicode="&#xb4;" horiz-adv-x="618" d="M66 1153q-10 21 12 39l348 213q8 7 27 6.5t26 -12.5l70 -121q21 -40 -12 -61l-373 -168q-35 -21 -55 18z" />
<glyph unicode="&#xb5;" horiz-adv-x="1140" d="M152 -442v1343q0 20 12.5 32.5t30.5 12.5h223q19 0 32 -12.5t13 -32.5v-450q0 -181 127 -181q65 0 97 47.5t32 116.5v467q0 45 51 45h215q19 0 32 -12.5t13 -32.5v-856q0 -19 -13 -32t-32 -13h-94q-29 0 -45 33l-33 88q-4 -5 -24 -26t-28.5 -29t-29.5 -26t-39 -26 t-45 -18.5t-59 -14.5t-70 -4q-15 0 -55 5v-424q0 -19 -13 -32t-32 -13h-221q-19 0 -32 13t-13 32z" />
<glyph unicode="&#xb6;" horiz-adv-x="1579" d="M84 1006q0 176 115.5 302t281.5 126h946q15 0 27 -12t12 -27v-125q0 -17 -11.5 -28t-27.5 -11h-124v-1680q0 -15 -11 -26.5t-28 -11.5h-146q-15 0 -27 11.5t-12 26.5v1680h-258v-1680q0 -15 -12 -26.5t-27 -11.5h-143q-15 0 -27 11.5t-12 26.5v1024h-90 q-175 0 -300.5 125.5t-125.5 305.5z" />
<glyph unicode="&#xb7;" horiz-adv-x="573" d="M68 520q0 92 63.5 157.5t151.5 65.5q92 0 157.5 -65.5t65.5 -157.5q0 -88 -65.5 -151.5t-157.5 -63.5q-88 0 -151.5 63.5t-63.5 151.5z" />
<glyph unicode="&#xb8;" horiz-adv-x="505" d="M70 -397l20 47q20 48 62 20q33 -26 81 -26q86 0 86 67q0 68 -86 68q-12 0 -24.5 -2.5t-19 -4.5t-17 -6.5t-12.5 -5.5q-17 -6 -33 9t-8 30l96 207h147l-77 -123q12 2 30 2q77 0 131 -44.5t54 -135.5q0 -100 -73.5 -157.5t-182.5 -57.5q-113 0 -172 49q-22 19 -2 64z" />
<glyph unicode="&#xb9;" horiz-adv-x="448" d="M43 1450v78q0 12 16 22l156 88h129q8 0 13 -5t5 -13v-569q0 -8 -5.5 -13.5t-12.5 -5.5h-154q-9 0 -14.5 5.5t-5.5 13.5v376h-111q-16 0 -16 23z" />
<glyph unicode="&#xba;" horiz-adv-x="663" d="M63 1130q0 153 70.5 238.5t198.5 85.5t198 -85.5t70 -238.5q0 -152 -70 -237.5t-198 -85.5t-198.5 85.5t-70.5 237.5zM268 1130q0 -159 64 -159q63 0 63 159q0 160 -63 160q-64 0 -64 -160z" />
<glyph unicode="&#xbb;" horiz-adv-x="1054" d="M82 816.5q9 19.5 35 19.5h162q21 0 36 -25l224 -303q17 -26 0 -49l-213 -318q-4 -6 -14.5 -11t-16.5 -5h-172q-26 0 -34 18t3 43l127 301l-133 285q-13 25 -4 44.5zM528 816.5q9 19.5 35 19.5h162q22 0 37 -25l223 -303q17 -26 0 -49l-213 -318q-4 -6 -14.5 -11t-16.5 -5 h-172q-25 0 -33 18t3 43l127 301l-134 285q-13 25 -4 44.5z" />
<glyph unicode="&#xbc;" horiz-adv-x="1363" d="M96 1245v78q0 13 17 23l155 88h129q7 0 13 -6t6 -13v-569q0 -8 -6 -13.5t-13 -5.5h-153q-9 0 -15 5.5t-6 13.5v377h-110q-17 0 -17 22zM205 55l704 1358q11 21 35 21h115q23 0 34.5 -18t0.5 -38l-707 -1358q-10 -20 -35 -20h-112q-23 0 -34 17.5t-1 37.5zM702 131v127 l285 342q3 6 14 6h146q7 0 12.5 -5t5.5 -13v-334h80q7 0 13 -5t6 -11v-105q0 -7 -5.5 -12.5t-13.5 -5.5h-80v-97q0 -8 -5.5 -13t-12.5 -5h-139q-8 0 -14.5 5.5t-6.5 12.5v97h-266q-7 0 -13 5t-6 11zM885 250h104v133z" />
<glyph unicode="&#xbd;" horiz-adv-x="1368" d="M96 1245v78q0 13 17 23l155 88h129q7 0 13 -6t6 -13v-569q0 -8 -6 -13.5t-13 -5.5h-153q-9 0 -15 5.5t-6 13.5v377h-110q-17 0 -17 22zM205 55l704 1358q11 21 35 21h115q23 0 34.5 -18t0.5 -38l-707 -1358q-10 -20 -35 -20h-112q-23 0 -34 17.5t-1 37.5zM813 18v37 l209 252q41 52 41 96q0 29 -18.5 44.5t-45.5 15.5q-40 0 -71 -31q-24 -16 -37 8l-45 74q-1 2 -5 8.5t-4.5 7.5t-2.5 6t-1 6.5t1.5 5.5t3 6.5l6.5 6.5t10 8q13 10 34.5 21.5t66 24t89.5 12.5q91 0 152 -53t61 -140q0 -86 -61 -172l-82 -108h119q8 0 14 -6t6 -13v-117 q0 -7 -6 -12.5t-14 -5.5h-399q-9 0 -15 5t-6 13z" />
<glyph unicode="&#xbe;" horiz-adv-x="1413" d="M113 911l47 70q16 22 41 8q28 -22 73 -22q68 0 68 49q0 23 -17.5 37t-50.5 14h-67q-14 2 -20.5 8t-6.5 25v69q0 35 37 35h57q24 0 41 13.5t17 35.5q0 20 -16 32.5t-44 12.5q-32 0 -61 -22q-8 -7 -16.5 -6.5t-18.5 14.5l-53 72q-18 23 2 43q7 6 20.5 15t60 24.5t97.5 15.5 q103 0 164 -46t61 -124q0 -90 -104 -143q48 -19 85.5 -56.5t37.5 -101.5q0 -83 -71 -129.5t-173 -46.5q-105 0 -184 59q-24 18 -6 45zM256 55l705 1358q11 21 34 21h115q23 0 34.5 -18t0.5 -38l-707 -1358q-10 -20 -35 -20h-112q-23 0 -34 17.5t-1 37.5zM754 131v127 l284 342q3 6 15 6h145q8 0 13.5 -5.5t5.5 -12.5v-334h79q7 0 13 -5t6 -11v-105q0 -7 -5.5 -12.5t-13.5 -5.5h-79v-97q0 -7 -5.5 -12.5t-13.5 -5.5h-139q-8 0 -14.5 5.5t-6.5 12.5v97h-266q-7 0 -12.5 5t-5.5 11zM936 250h104v133z" />
<glyph unicode="&#xbf;" horiz-adv-x="1026" d="M100 -152q0 63 23 115.5t57 85.5t74 67.5t74 63.5t57 73t23 95q0 17 11.5 28t26.5 11h220q16 0 27.5 -11t11.5 -28v-86q0 -40 -21 -78.5t-52.5 -67t-68 -59t-68 -56t-52.5 -57t-21 -61.5q0 -48 44 -84.5t109 -36.5q39 0 74.5 13t55 29.5t41 31.5t33 18.5t30.5 -8.5 l125 -122q12 -11 11.5 -27t-11.5 -27q-6 -7 -18 -19.5t-52.5 -43.5t-85 -54.5t-115.5 -43t-145 -19.5q-108 0 -204 45.5t-155 129t-59 183.5zM360 774q0 78 58.5 135.5t138.5 57.5q78 0 135.5 -57.5t57.5 -135.5q0 -79 -57.5 -137.5t-135.5 -58.5q-80 0 -138.5 58.5 t-58.5 137.5z" />
<glyph unicode="&#xc0;" horiz-adv-x="1372" d="M0 53l641 1379q11 22 35 22h20q24 0 35 -22l641 -1379q9 -20 -1.5 -36.5t-33.5 -16.5h-227q-28 0 -43.5 11t-28.5 40l-73 162h-557l-74 -164q-20 -49 -74 -49h-225q-23 0 -33.5 16.5t-1.5 36.5zM446 1790l70 121q7 12 26 12.5t27 -6.5l349 -213q23 -18 12 -39l-43 -86 q-20 -39 -56 -18l-372 168q-34 21 -13 61zM530 492h312l-156 337h-2z" />
<glyph unicode="&#xc1;" horiz-adv-x="1372" d="M0 53l641 1379q11 22 35 22h20q24 0 35 -22l641 -1379q9 -20 -1.5 -36.5t-33.5 -16.5h-227q-28 0 -43.5 11t-28.5 40l-73 162h-557l-74 -164q-20 -49 -74 -49h-225q-23 0 -33.5 16.5t-1.5 36.5zM442 1665q-10 20 13 39l348 213q8 7 27 6.5t26 -12.5l70 -121 q21 -40 -13 -61l-372 -168q-36 -21 -56 18zM530 492h312l-156 337h-2z" />
<glyph unicode="&#xc2;" horiz-adv-x="1372" d="M0 53l641 1379q11 22 35 22h20q24 0 35 -22l641 -1379q9 -20 -1.5 -36.5t-33.5 -16.5h-227q-28 0 -43.5 11t-28.5 40l-73 162h-557l-74 -164q-20 -49 -74 -49h-225q-23 0 -33.5 16.5t-1.5 36.5zM371 1665q-13 19 12 39l276 213q24 18 50 0l282 -213q23 -19 13 -39 l-70 -94q-7 -10 -20 -13t-23 3l-203 118l-205 -118q-28 -15 -45 8zM530 492h312l-156 337h-2z" />
<glyph unicode="&#xc3;" horiz-adv-x="1372" d="M0 53l641 1379q11 22 35 22h20q24 0 35 -22l641 -1379q9 -20 -1.5 -36.5t-33.5 -16.5h-227q-28 0 -43.5 11t-28.5 40l-73 162h-557l-74 -164q-20 -49 -74 -49h-225q-23 0 -33.5 16.5t-1.5 36.5zM361 1687q-4 15 1 25q10 19 28 43.5t47 55.5t67.5 52t77.5 21 q41 0 79.5 -24t73.5 -48t68 -24q40 0 78 63q8 13 21.5 15t29.5 -11l69 -53q28 -21 3 -59q-12 -21 -26.5 -41t-41.5 -50.5t-63 -49.5t-74 -19q-36 0 -70 15.5t-56.5 33.5t-49.5 33.5t-50 15.5q-17 0 -31.5 -11.5t-31 -34.5t-18.5 -25q-20 -20 -46 -2l-71 57q-10 7 -14 22z M530 492h312l-156 337h-2z" />
<glyph unicode="&#xc4;" horiz-adv-x="1372" d="M0 53l641 1379q11 22 35 22h20q24 0 35 -22l641 -1379q9 -20 -1.5 -36.5t-33.5 -16.5h-227q-28 0 -43.5 11t-28.5 40l-73 162h-557l-74 -164q-20 -49 -74 -49h-225q-23 0 -33.5 16.5t-1.5 36.5zM260 1718q0 64 45 109t109 45q65 0 110 -45t45 -109t-45.5 -109.5 t-109.5 -45.5t-109 45t-45 110zM530 492h312l-156 337h-2zM803 1718q0 65 44.5 109.5t108.5 44.5q65 0 110.5 -45t45.5 -109t-45.5 -109.5t-110.5 -45.5q-64 0 -108.5 45t-44.5 110z" />
<glyph unicode="&#xc5;" horiz-adv-x="1372" d="M0 53l641 1379q11 22 35 22h20q24 0 35 -22l641 -1379q9 -20 -1.5 -36.5t-33.5 -16.5h-227q-28 0 -43.5 11t-28.5 40l-73 162h-557l-74 -164q-20 -49 -74 -49h-225q-23 0 -33.5 16.5t-1.5 36.5zM451 1776q0 98 68.5 166.5t166.5 68.5q97 0 166.5 -68.5t69.5 -166.5 t-69.5 -167t-166.5 -69q-98 0 -166.5 69t-68.5 167zM530 492h312l-156 337h-2zM596 1776q0 -35 27.5 -62.5t62.5 -27.5t61.5 27.5t26.5 62.5t-26.5 61.5t-61.5 26.5t-62.5 -26.5t-27.5 -61.5z" />
<glyph unicode="&#xc6;" horiz-adv-x="1841" d="M-32 16.5q-7 16.5 5 36.5l822 1317q2 3 7.5 11.5t7 11t6.5 9t7 8.5l7 7t8.5 6.5t9 4.5t10.5 3.5t12 1.5t15 1h821q17 0 28 -11.5t11 -27.5v-224q0 -15 -11 -26.5t-28 -11.5h-567v-254h467q15 0 27 -12t12 -27v-224q0 -17 -11.5 -27.5t-27.5 -10.5h-467v-277h567 q17 0 28 -11.5t11 -27.5v-223q0 -16 -11 -27.5t-28 -11.5h-848q-17 0 -28 11.5t-11 27.5v174h-377l-108 -178q-20 -35 -60 -35h-276q-23 0 -30 16.5zM594 492h225v362z" />
<glyph unicode="&#xc7;" horiz-adv-x="1390" d="M80 715q0 151 58.5 288t157 235.5t235.5 157t288 58.5t270.5 -46.5t225.5 -143.5q13 -12 13.5 -29t-11.5 -29l-160 -166q-11 -10 -26 -10t-25 10q-117 105 -277 105q-171 0 -286 -124t-115 -298q0 -172 116 -294t287 -122q73 0 146.5 26t128.5 73q10 9 27 8t26 -11 l160 -170q10 -11 9.5 -27.5t-11.5 -27.5q-189 -183 -457 -196l-61 -99q12 2 30 2q77 0 131 -44.5t54 -135.5q0 -100 -73.5 -157.5t-182.5 -57.5q-113 0 -172 49q-22 19 -2 64l20 47q20 48 62 20q10 -8 33.5 -17t48.5 -9q86 0 86 67q0 68 -86 68q-12 0 -24.5 -2.5t-19 -4.5 t-17.5 -6.5t-13 -5.5q-17 -6 -33 9t-8 30l86 187q-179 23 -325 124t-230 260.5t-84 344.5z" />
<glyph unicode="&#xc8;" horiz-adv-x="1183" d="M162 39v1356q0 16 11 27.5t28 11.5h848q17 0 27.5 -11.5t10.5 -27.5v-224q0 -16 -10.5 -27t-27.5 -11h-568v-254h467q15 0 27 -12t12 -27v-224q0 -17 -11.5 -27.5t-27.5 -10.5h-467v-277h568q17 0 27.5 -11.5t10.5 -27.5v-223q0 -16 -10.5 -27.5t-27.5 -11.5h-848 q-17 0 -28 11.5t-11 27.5zM395 1790l70 121q7 12 26 12.5t27 -6.5l348 -213q23 -19 13 -39l-43 -86q-20 -39 -56 -18l-372 168q-34 21 -13 61z" />
<glyph unicode="&#xc9;" horiz-adv-x="1183" d="M162 39v1356q0 16 11 27.5t28 11.5h848q17 0 27.5 -11.5t10.5 -27.5v-224q0 -16 -10.5 -27t-27.5 -11h-568v-254h467q15 0 27 -12t12 -27v-224q0 -17 -11.5 -27.5t-27.5 -10.5h-467v-277h568q17 0 27.5 -11.5t10.5 -27.5v-223q0 -16 -10.5 -27.5t-27.5 -11.5h-848 q-17 0 -28 11.5t-11 27.5zM391 1665q-10 21 12 39l349 213q8 7 27 6.5t26 -12.5l69 -121q21 -40 -12 -61l-373 -168q-35 -21 -55 18z" />
<glyph unicode="&#xca;" horiz-adv-x="1183" d="M162 39v1356q0 16 11 27.5t28 11.5h848q17 0 27.5 -11.5t10.5 -27.5v-224q0 -16 -10.5 -27t-27.5 -11h-568v-254h467q15 0 27 -12t12 -27v-224q0 -17 -11.5 -27.5t-27.5 -10.5h-467v-277h568q17 0 27.5 -11.5t10.5 -27.5v-223q0 -16 -10.5 -27.5t-27.5 -11.5h-848 q-17 0 -28 11.5t-11 27.5zM319 1665q-13 18 13 39l276 213q23 17 49 0l283 -213q23 -18 12 -39l-69 -94q-7 -10 -20 -13t-23 3l-203 118l-205 -118q-28 -15 -45 8z" />
<glyph unicode="&#xcb;" horiz-adv-x="1183" d="M162 39v1356q0 16 11 27.5t28 11.5h848q17 0 27.5 -11.5t10.5 -27.5v-224q0 -16 -10.5 -27t-27.5 -11h-568v-254h467q15 0 27 -12t12 -27v-224q0 -17 -11.5 -27.5t-27.5 -10.5h-467v-277h568q17 0 27.5 -11.5t10.5 -27.5v-223q0 -16 -10.5 -27.5t-27.5 -11.5h-848 q-17 0 -28 11.5t-11 27.5zM203 1718q0 65 44.5 109.5t108.5 44.5q65 0 110.5 -45t45.5 -109t-45.5 -109.5t-110.5 -45.5q-64 0 -108.5 45t-44.5 110zM745 1718q0 64 44.5 109t109.5 45t110.5 -45t45.5 -109t-45.5 -109.5t-110.5 -45.5q-64 0 -109 45t-45 110z" />
<glyph unicode="&#xcc;" horiz-adv-x="647" d="M84 1790l70 121q7 12 26 12.5t27 -6.5l348 -213q23 -18 12 -39l-43 -86q-20 -39 -55 -18l-373 168q-33 21 -12 61zM162 39v1356q0 15 12 27t27 12h245q15 0 27 -12t12 -27v-1356q0 -15 -12 -27t-27 -12h-245q-15 0 -27 12t-12 27z" />
<glyph unicode="&#xcd;" horiz-adv-x="647" d="M80 1665q-10 21 12 39l348 213q8 7 27.5 6.5t26.5 -12.5l69 -121q21 -40 -12 -61l-373 -168q-35 -21 -55 18zM162 39v1356q0 15 12 27t27 12h245q15 0 27 -12t12 -27v-1356q0 -15 -12 -27t-27 -12h-245q-15 0 -27 12t-12 27z" />
<glyph unicode="&#xce;" horiz-adv-x="647" d="M8 1665q-13 19 12 39l277 213q23 17 49 0l283 -213q23 -18 12 -39l-70 -94q-7 -10 -20 -13t-23 3l-202 118l-205 -118q-28 -15 -45 8zM162 39v1356q0 15 12 27t27 12h245q15 0 27 -12t12 -27v-1356q0 -15 -12 -27t-27 -12h-245q-15 0 -27 12t-12 27z" />
<glyph unicode="&#xcf;" horiz-adv-x="647" d="M-102 1718q0 65 44.5 109.5t108.5 44.5q65 0 110.5 -45t45.5 -109t-45.5 -109.5t-110.5 -45.5q-64 0 -108.5 45t-44.5 110zM162 39v1356q0 15 12 27t27 12h245q15 0 27 -12t12 -27v-1356q0 -15 -12 -27t-27 -12h-245q-15 0 -27 12t-12 27zM440 1718q0 64 45 109t109 45 q65 0 110.5 -45t45.5 -109t-45.5 -109.5t-110.5 -45.5q-64 0 -109 45t-45 110z" />
<glyph unicode="&#xd0;" horiz-adv-x="1499" d="M66 692v35q0 15 10.5 27t25.5 12h60v629q0 15 11 27t26 12h499q145 0 278.5 -57t230 -153t153.5 -228t57 -277q0 -117 -36.5 -227t-103 -198t-155 -154.5t-198 -103t-226.5 -36.5h-499q-15 0 -26 12t-11 27v614h-60q-15 0 -25.5 12t-10.5 27zM481 303h197 q172 0 285.5 120t113.5 296q0 175 -113.5 294.5t-285.5 119.5h-197v-367h291q17 0 28 -11.5t11 -27.5v-37q0 -15 -11 -26t-28 -11h-291v-350z" />
<glyph unicode="&#xd1;" horiz-adv-x="1554" d="M160 1417q0 15 12 26t27 11h30q21 0 52 -31l786 -755h2v727q0 16 11 27.5t28 11.5h246q15 0 27 -12t12 -27v-1379q0 -18 -11.5 -27t-27.5 -9h-21q-29 0 -51 22l-797 801h-2v-764q0 -16 -11 -27.5t-28 -11.5h-243q-15 0 -27 12t-12 27zM455.5 1687q-3.5 15 1.5 25 q10 19 28 43t46.5 55.5t67 52.5t77.5 21q41 0 79.5 -24t73.5 -48t68 -24q40 0 78 63q8 13 21.5 15t29.5 -11l70 -53q27 -20 2 -59q-12 -21 -26.5 -41t-41.5 -50.5t-63 -49.5t-74 -19q-36 0 -70 15.5t-56 33.5t-49 33.5t-50 15.5q-17 0 -31.5 -11.5t-32 -35t-18.5 -24.5 q-19 -19 -45 -2l-72 57q-10 7 -13.5 22z" />
<glyph unicode="&#xd2;" horiz-adv-x="1632" d="M80 715q0 101 26 197t73 177t114.5 149t148.5 115.5t176.5 74t196.5 26.5q151 0 287.5 -58t235 -157t156.5 -236t58 -288t-58 -287.5t-156.5 -234.5t-235 -155.5t-287.5 -57.5t-287.5 57.5t-234.5 155.5t-155.5 234.5t-57.5 287.5zM408 715q0 -167 120 -287.5t287 -120.5 q169 0 289.5 120.5t120.5 287.5q0 169 -120.5 290t-289.5 121q-167 0 -287 -121t-120 -290zM575 1790l70 121q7 12 26 12.5t27 -6.5l349 -213q23 -18 12 -39l-43 -86q-20 -39 -55 -18l-373 168q-34 21 -13 61z" />
<glyph unicode="&#xd3;" horiz-adv-x="1632" d="M80 715q0 101 26 197t73 177t114.5 149t148.5 115.5t176.5 74t196.5 26.5q151 0 287.5 -58t235 -157t156.5 -236t58 -288t-58 -287.5t-156.5 -234.5t-235 -155.5t-287.5 -57.5t-287.5 57.5t-234.5 155.5t-155.5 234.5t-57.5 287.5zM408 715q0 -167 120 -287.5t287 -120.5 q169 0 289.5 120.5t120.5 287.5q0 169 -120.5 290t-289.5 121q-167 0 -287 -121t-120 -290zM571 1665q-10 20 13 39l348 213q8 7 27 6.5t26 -12.5l70 -121q21 -40 -13 -61l-372 -168q-36 -21 -56 18z" />
<glyph unicode="&#xd4;" horiz-adv-x="1632" d="M80 715q0 101 26 197t73 177t114.5 149t148.5 115.5t176.5 74t196.5 26.5q151 0 287.5 -58t235 -157t156.5 -236t58 -288t-58 -287.5t-156.5 -234.5t-235 -155.5t-287.5 -57.5t-287.5 57.5t-234.5 155.5t-155.5 234.5t-57.5 287.5zM408 715q0 -167 120 -287.5t287 -120.5 q169 0 289.5 120.5t120.5 287.5q0 169 -120.5 290t-289.5 121q-167 0 -287 -121t-120 -290zM500 1665q-13 19 12 39l276 213q24 18 50 0l282 -213q23 -19 13 -39l-70 -94q-7 -10 -20 -13t-23 3l-203 118l-205 -118q-28 -15 -45 8z" />
<glyph unicode="&#xd5;" horiz-adv-x="1632" d="M80 715q0 101 26 197t73 177t114.5 149t148.5 115.5t176.5 74t196.5 26.5q151 0 287.5 -58t235 -157t156.5 -236t58 -288t-58 -287.5t-156.5 -234.5t-235 -155.5t-287.5 -57.5t-287.5 57.5t-234.5 155.5t-155.5 234.5t-57.5 287.5zM408 715q0 -167 120 -287.5t287 -120.5 q169 0 289.5 120.5t120.5 287.5q0 169 -120.5 290t-289.5 121q-167 0 -287 -121t-120 -290zM490.5 1687q-3.5 15 1.5 25q10 19 28 43t46.5 55.5t67 52.5t77.5 21q41 0 79.5 -24t73.5 -48t68 -24q40 0 78 63q8 13 21.5 15t29.5 -11l69 -53q28 -21 3 -59q-12 -21 -26.5 -41 t-41.5 -50.5t-63 -49.5t-74 -19q-45 0 -86.5 24.5t-76.5 49t-63 24.5q-17 0 -31.5 -11.5t-31 -34.5t-18.5 -25q-20 -20 -46 -2l-71 57q-10 7 -13.5 22z" />
<glyph unicode="&#xd6;" horiz-adv-x="1632" d="M80 715q0 101 26 197t73 177t114.5 149t148.5 115.5t176.5 74t196.5 26.5q151 0 287.5 -58t235 -157t156.5 -236t58 -288t-58 -287.5t-156.5 -234.5t-235 -155.5t-287.5 -57.5t-287.5 57.5t-234.5 155.5t-155.5 234.5t-57.5 287.5zM389 1718q0 64 44.5 109t109.5 45 t110 -45t45 -109t-45 -109.5t-110 -45.5q-64 0 -109 45t-45 110zM408 715q0 -167 120 -287.5t287 -120.5q169 0 289.5 120.5t120.5 287.5q0 169 -120.5 290t-289.5 121q-167 0 -287 -121t-120 -290zM932 1718q0 65 44.5 109.5t108.5 44.5q65 0 110.5 -45t45.5 -109 t-45.5 -109.5t-110.5 -45.5q-64 0 -108.5 45t-44.5 110z" />
<glyph unicode="&#xd7;" d="M236 473q0 17 10 27l211 211l-211 213q-10 10 -10 26t10 27l100 102q10 11 27 11t28 -11l211 -211l213 213q11 10 27 9.5t27 -11.5l102 -102q11 -11 11.5 -26.5t-9.5 -26.5l-213 -213l213 -213q10 -11 9.5 -27t-11.5 -27l-102 -100q-11 -11 -27 -11.5t-27 9.5l-213 213 l-211 -211q-11 -10 -27 -10t-26 10l-102 102q-10 10 -10 27z" />
<glyph unicode="&#xd8;" horiz-adv-x="1634" d="M82 715q0 101 26 197t73 177t114.5 149t148.5 115.5t176.5 74t196.5 26.5q274 0 481 -178l144 141q11 12 26.5 11.5t26.5 -11.5l25 -24q12 -11 12 -26.5t-12 -27.5l-144 -143q178 -207 178 -481q0 -151 -58 -287.5t-156.5 -234.5t-235 -155.5t-287.5 -57.5 q-138 0 -261 46t-220 130l-137 -136q-11 -10 -27 -9t-27 12l-24 24q-11 11 -11.5 26.5t9.5 26.5l137 136q-174 206 -174 479zM410 715q0 -135 82 -244l573 571q-115 84 -248 84q-167 0 -287 -121t-120 -290zM571 391q108 -84 246 -84q169 0 289.5 120.5t120.5 287.5 q0 140 -84 248z" />
<glyph unicode="&#xd9;" horiz-adv-x="1462" d="M147 524v871q0 15 12 27t27 12h252q17 0 28 -11.5t11 -27.5v-854q0 -110 70 -172t182 -62q113 0 184.5 62t71.5 172v854q0 16 11 27.5t28 11.5h252q15 0 27 -12t12 -27v-871q0 -152 -78.5 -277.5t-213 -196t-294.5 -70.5q-159 0 -292.5 70.5t-211.5 195.5t-78 278z M492 1790l69 121q7 12 26 12.5t27 -6.5l349 -213q23 -18 12 -39l-43 -86q-20 -39 -55 -18l-373 168q-33 21 -12 61z" />
<glyph unicode="&#xda;" horiz-adv-x="1462" d="M147 524v871q0 15 12 27t27 12h252q17 0 28 -11.5t11 -27.5v-854q0 -110 70 -172t182 -62q113 0 184.5 62t71.5 172v854q0 16 11 27.5t28 11.5h252q15 0 27 -12t12 -27v-871q0 -152 -78.5 -277.5t-213 -196t-294.5 -70.5q-159 0 -292.5 70.5t-211.5 195.5t-78 278z M487 1665q-10 20 13 39l348 213q8 7 27 6.5t26 -12.5l70 -121q21 -40 -13 -61l-372 -168q-36 -21 -56 18z" />
<glyph unicode="&#xdb;" horiz-adv-x="1462" d="M147 524v871q0 15 12 27t27 12h252q17 0 28 -11.5t11 -27.5v-854q0 -110 70 -172t182 -62q113 0 184.5 62t71.5 172v854q0 16 11 27.5t28 11.5h252q15 0 27 -12t12 -27v-871q0 -152 -78.5 -277.5t-213 -196t-294.5 -70.5q-159 0 -292.5 70.5t-211.5 195.5t-78 278z M414 1665q-13 19 12 39l276 213q24 18 50 0l282 -213q23 -19 13 -39l-70 -94q-7 -10 -20 -13t-23 3l-203 118l-205 -118q-28 -15 -45 8z" />
<glyph unicode="&#xdc;" horiz-adv-x="1462" d="M147 524v871q0 15 12 27t27 12h252q17 0 28 -11.5t11 -27.5v-854q0 -110 70 -172t182 -62q113 0 184.5 62t71.5 172v854q0 16 11 27.5t28 11.5h252q15 0 27 -12t12 -27v-871q0 -152 -78.5 -277.5t-213 -196t-294.5 -70.5q-159 0 -292.5 70.5t-211.5 195.5t-78 278z M303 1718q0 64 44.5 109t109.5 45t110 -45t45 -109t-45 -109.5t-110 -45.5q-64 0 -109 45t-45 110zM846 1718q0 65 44.5 109.5t108.5 44.5q65 0 110.5 -45t45.5 -109t-45.5 -109.5t-110.5 -45.5q-64 0 -108.5 45t-44.5 110z" />
<glyph unicode="&#xdd;" horiz-adv-x="1232" d="M0.5 1414q10.5 20 34.5 20h266q19 0 33 -19l284 -420l285 420q14 19 33 19h266q24 0 34.5 -20t-1.5 -40l-459 -682v-653q0 -15 -12 -27t-27 -12h-243q-17 0 -28 11.5t-11 27.5v651l-453 684q-12 20 -1.5 40zM375 1665q-10 21 12 39l348 213q8 7 27 6.5t26 -12.5l70 -121 q21 -40 -12 -61l-373 -168q-35 -21 -55 18z" />
<glyph unicode="&#xde;" horiz-adv-x="1196" d="M162 39v1356q0 16 11 27.5t28 11.5h241q15 0 27 -12t12 -27v-221h213q189 0 324 -133.5t135 -319.5q0 -190 -134.5 -325.5t-322.5 -135.5h-215v-221q0 -15 -12 -27t-27 -12h-241q-17 0 -28 11.5t-11 27.5zM481 559h195q67 0 114.5 47t47.5 115q0 64 -47.5 107.5 t-114.5 43.5h-195v-313z" />
<glyph unicode="&#xdf;" horiz-adv-x="1187" d="M117 43v825q0 285 132.5 435.5t356.5 150.5q167 0 291.5 -106.5t124.5 -260.5q0 -55 -16.5 -102.5t-40.5 -79.5t-48 -59t-40.5 -52t-16.5 -46q0 -26 21.5 -50.5t68.5 -62.5q39 -32 63.5 -55.5t55 -62.5t46 -85.5t15.5 -99.5q0 -76 -25 -137t-66.5 -100.5t-97.5 -66 t-115.5 -38.5t-123.5 -13q-15 0 -28.5 9.5t-18.5 23.5l-41 191q-5 18 6 34t29 17q123 9 123 104q0 17 -4.5 32.5t-9 25.5t-17.5 23.5t-19 19t-24.5 20.5t-23.5 19q-35 29 -55 47.5t-45 48t-36.5 62.5t-11.5 71q0 55 27 104.5t59 80t59 70t27 77.5q0 43 -30.5 72.5 t-77.5 29.5q-79 0 -120.5 -66.5t-41.5 -230.5v-819q0 -17 -12 -30t-29 -13h-227q-17 0 -30 13t-13 30z" />
<glyph unicode="&#xe0;" horiz-adv-x="1001" d="M59 289q0 139 95 227t254 88q47 0 93.5 -10t69.5 -20l23 -11q0 76 -26.5 111t-104.5 35q-50 0 -121.5 -10t-116.5 -23q-50 -16 -57 49l-23 145q-4 28 7.5 44.5t29.5 21.5q22 8 126.5 19.5t189.5 11.5q217 0 306 -93t89 -307v-522q0 -18 -13.5 -31.5t-31.5 -13.5h-100 q-29 0 -43 31l-31 63q-30 -25 -50 -40t-57 -36t-82 -31t-98 -10q-142 0 -235 86.5t-93 225.5zM295 1278l70 121q7 12 26 12.5t27 -6.5l348 -213q23 -18 12 -39l-43 -86q-20 -39 -55 -18l-373 168q-33 21 -12 61zM365 311q0 -43 30.5 -73.5t73.5 -30.5t74.5 30.5t31.5 73.5 q0 41 -31.5 73t-74.5 32q-42 0 -73 -31.5t-31 -73.5z" />
<glyph unicode="&#xe1;" horiz-adv-x="1001" d="M59 289q0 139 95 227t254 88q47 0 93.5 -10t69.5 -20l23 -11q0 76 -26.5 111t-104.5 35q-50 0 -121.5 -10t-116.5 -23q-50 -16 -57 49l-23 145q-4 28 7.5 44.5t29.5 21.5q22 8 126.5 19.5t189.5 11.5q217 0 306 -93t89 -307v-522q0 -18 -13.5 -31.5t-31.5 -13.5h-100 q-29 0 -43 31l-31 63q-30 -25 -50 -40t-57 -36t-82 -31t-98 -10q-142 0 -235 86.5t-93 225.5zM250 1153q-10 21 12 39l348 213q8 7 27.5 6.5t26.5 -12.5l69 -121q21 -40 -12 -61l-373 -168q-35 -21 -55 18zM365 311q0 -43 30.5 -73.5t73.5 -30.5t74.5 30.5t31.5 73.5 q0 41 -31.5 73t-74.5 32q-42 0 -73 -31.5t-31 -73.5z" />
<glyph unicode="&#xe2;" horiz-adv-x="1001" d="M59 289q0 139 95 227t254 88q47 0 93.5 -10t69.5 -20l23 -11q0 76 -26.5 111t-104.5 35q-50 0 -121.5 -10t-116.5 -23q-50 -16 -57 49l-23 145q-4 28 7.5 44.5t29.5 21.5q22 8 126.5 19.5t189.5 11.5q217 0 306 -93t89 -307v-522q0 -18 -13.5 -31.5t-31.5 -13.5h-100 q-29 0 -43 31l-31 63q-30 -25 -50 -40t-57 -36t-82 -31t-98 -10q-142 0 -235 86.5t-93 225.5zM201 1153q-13 19 12 39l276 213q24 18 50 0l282 -213q23 -19 13 -39l-70 -94q-7 -10 -20 -13t-23 3l-203 118l-205 -118q-28 -15 -45 8zM365 311q0 -43 30.5 -73.5t73.5 -30.5 t74.5 30.5t31.5 73.5q0 41 -31.5 73t-74.5 32q-42 0 -73 -31.5t-31 -73.5z" />
<glyph unicode="&#xe3;" horiz-adv-x="1001" d="M59 289q0 139 95 227t254 88q47 0 93.5 -10t69.5 -20l23 -11q0 76 -26.5 111t-104.5 35q-50 0 -121.5 -10t-116.5 -23q-50 -16 -57 49l-23 145q-4 28 7.5 44.5t29.5 21.5q22 8 126.5 19.5t189.5 11.5q217 0 306 -93t89 -307v-522q0 -18 -13.5 -31.5t-31.5 -13.5h-100 q-29 0 -43 31l-31 63q-30 -25 -50 -40t-57 -36t-82 -31t-98 -10q-142 0 -235 86.5t-93 225.5zM162.5 1216q-3.5 15 1.5 25q10 19 28 43t46.5 55.5t67 52.5t77.5 21q41 0 79.5 -24t73.5 -48t68 -24q40 0 78 63q8 13 21.5 15t29.5 -11l70 -53q27 -20 2 -59q-12 -21 -26.5 -41 t-41.5 -50.5t-63 -49.5t-74 -19q-36 0 -70 15.5t-56 33.5t-49 33.5t-50 15.5q-17 0 -31.5 -11.5t-32 -35t-18.5 -24.5q-19 -19 -45 -2l-72 57q-10 7 -13.5 22zM365 311q0 -43 30.5 -73.5t73.5 -30.5t74.5 30.5t31.5 73.5q0 41 -31.5 73t-74.5 32q-42 0 -73 -31.5t-31 -73.5z " />
<glyph unicode="&#xe4;" horiz-adv-x="1001" d="M59 289q0 139 95 227t254 88q47 0 93.5 -10t69.5 -20l23 -11q0 76 -26.5 111t-104.5 35q-50 0 -121.5 -10t-116.5 -23q-50 -16 -57 49l-23 145q-4 28 7.5 44.5t29.5 21.5q22 8 126.5 19.5t189.5 11.5q217 0 306 -93t89 -307v-522q0 -18 -13.5 -31.5t-31.5 -13.5h-100 q-29 0 -43 31l-31 63q-30 -25 -50 -40t-57 -36t-82 -31t-98 -10q-142 0 -235 86.5t-93 225.5zM150 1241q0 65 44.5 109.5t108.5 44.5q65 0 110.5 -45t45.5 -109q0 -65 -45.5 -110.5t-110.5 -45.5q-64 0 -108.5 45.5t-44.5 110.5zM365 311q0 -43 30.5 -73.5t73.5 -30.5 t74.5 30.5t31.5 73.5q0 41 -31.5 73t-74.5 32q-42 0 -73 -31.5t-31 -73.5zM569 1241q0 65 44.5 109.5t109.5 44.5t110.5 -45t45.5 -109q0 -65 -45.5 -110.5t-110.5 -45.5q-64 0 -109 45.5t-45 110.5z" />
<glyph unicode="&#xe5;" horiz-adv-x="1001" d="M59 289q0 139 95 227t254 88q47 0 93.5 -10t69.5 -20l23 -11q0 76 -26.5 111t-104.5 35q-50 0 -121.5 -10t-116.5 -23q-50 -16 -57 49l-23 145q-4 28 7.5 44.5t29.5 21.5q22 8 126.5 19.5t189.5 11.5q217 0 306 -93t89 -307v-522q0 -18 -13.5 -31.5t-31.5 -13.5h-100 q-29 0 -43 31l-31 63q-30 -25 -50 -40t-57 -36t-82 -31t-98 -10q-142 0 -235 86.5t-93 225.5zM279 1280q0 98 68.5 167t166.5 69q97 0 166.5 -69t69.5 -167t-69.5 -167t-166.5 -69q-98 0 -166.5 69t-68.5 167zM365 311q0 -43 30.5 -73.5t73.5 -30.5t74.5 30.5t31.5 73.5 q0 41 -31.5 73t-74.5 32q-42 0 -73 -31.5t-31 -73.5zM424 1280q0 -35 27.5 -62.5t62.5 -27.5t61.5 27.5t26.5 62.5t-26.5 61.5t-61.5 26.5t-62.5 -26.5t-27.5 -61.5z" />
<glyph unicode="&#xe6;" horiz-adv-x="1564" d="M59 293q0 136 94.5 223.5t260.5 87.5q42 0 87 -10t69 -20l24 -11q2 80 -26.5 113t-100.5 33q-49 0 -122.5 -9.5t-117.5 -21.5q-47 -13 -55 39l-27 170q-1 16 11 30t28 17q189 33 316 33q207 0 299 -80q119 80 270 80q184 0 315.5 -126t131.5 -317v-28t-2.5 -26 t-7.5 -25.5t-14.5 -15.5t-23.5 -7h-585q2 -60 55 -111t139 -51q100 0 185 59q11 11 29 12t28 -12l102 -139q14 -12 14.5 -31.5t-12.5 -31.5q-137 -140 -348 -140q-104 0 -197.5 41t-158.5 115q-15 -19 -39.5 -41t-66 -50t-101 -46.5t-123.5 -18.5q-150 0 -240 87t-90 229z M365 311q0 -43 30.5 -73.5t73.5 -30.5t74.5 30.5t31.5 73.5q0 41 -31.5 73t-74.5 32q-42 0 -73 -31.5t-31 -73.5zM918 602h278q-3 49 -41 83t-96 34q-56 0 -94 -33.5t-47 -83.5z" />
<glyph unicode="&#xe7;" horiz-adv-x="985" d="M59 473q0 136 69 250.5t184 179t249 64.5q213 0 354 -166q28 -36 -12 -68l-133 -129q-7 -8 -23.5 -7.5t-29.5 11.5q-76 68 -146 68q-81 0 -140.5 -61.5t-59.5 -141.5q0 -86 57 -144.5t139 -58.5q41 0 74.5 12t51.5 26t44 40q12 15 28.5 17.5t25.5 -9.5l133 -114 q36 -36 16 -68q-121 -182 -346 -194l-59 -97q12 2 30 2q77 0 131 -44.5t54 -135.5q0 -100 -73.5 -157.5t-182.5 -57.5q-113 0 -172 49q-23 20 -3 64l21 47q20 47 61 20q33 -26 82 -26q86 0 86 67q0 68 -86 68q-12 0 -24.5 -2.5t-19 -4.5t-17 -6.5t-12.5 -5.5q-17 -6 -33 9 t-8 30l88 189q-171 35 -284.5 169t-113.5 316z" />
<glyph unicode="&#xe8;" horiz-adv-x="1050" d="M61 473q0 132 63.5 245t177.5 181t251 68q120 0 222 -55.5t164 -158t62 -229.5q0 -33 -4 -61q-1 -18 -15 -29.5t-30 -11.5h-583q0 -62 53 -113t143 -51q44 0 95.5 18t84.5 41q15 13 32 13t28 -13l104 -137q11 -15 11.5 -33t-13.5 -34q-133 -136 -350 -136 q-214 0 -355 139t-141 357zM326 1278l69 121q7 12 26.5 12.5t27.5 -6.5l348 -213q23 -18 12 -39l-43 -86q-20 -39 -55 -18l-373 168q-33 21 -12 61zM403 602h279q-3 49 -41 83t-96 34q-56 0 -94.5 -33.5t-47.5 -83.5z" />
<glyph unicode="&#xe9;" horiz-adv-x="1050" d="M61 473q0 132 63.5 245t177.5 181t251 68q120 0 222 -55.5t164 -158t62 -229.5q0 -33 -4 -61q-1 -18 -15 -29.5t-30 -11.5h-583q0 -62 53 -113t143 -51q44 0 95.5 18t84.5 41q15 13 32 13t28 -13l104 -137q11 -15 11.5 -33t-13.5 -34q-133 -136 -350 -136 q-214 0 -355 139t-141 357zM309 1153q-10 20 13 39l348 213q8 7 27 6.5t26 -12.5l70 -121q21 -40 -13 -61l-372 -168q-36 -21 -56 18zM403 602h279q-3 49 -41 83t-96 34q-56 0 -94.5 -33.5t-47.5 -83.5z" />
<glyph unicode="&#xea;" horiz-adv-x="1050" d="M61 473q0 132 63.5 245t177.5 181t251 68q120 0 222 -55.5t164 -158t62 -229.5q0 -33 -4 -61q-1 -18 -15 -29.5t-30 -11.5h-583q0 -62 53 -113t143 -51q44 0 95.5 18t84.5 41q15 13 32 13t28 -13l104 -137q11 -15 11.5 -33t-13.5 -34q-133 -136 -350 -136 q-214 0 -355 139t-141 357zM244 1153q-13 19 12 39l276 213q24 18 50 0l282 -213q23 -19 13 -39l-70 -94q-7 -10 -20 -13t-23 3l-203 118l-205 -118q-28 -15 -45 8zM403 602h279q-3 49 -41 83t-96 34q-56 0 -94.5 -33.5t-47.5 -83.5z" />
<glyph unicode="&#xeb;" horiz-adv-x="1050" d="M61 473q0 132 63.5 245t177.5 181t251 68q120 0 222 -55.5t164 -158t62 -229.5q0 -33 -4 -61q-1 -18 -15 -29.5t-30 -11.5h-583q0 -62 53 -113t143 -51q44 0 95.5 18t84.5 41q15 13 32 13t28 -13l104 -137q11 -15 11.5 -33t-13.5 -34q-133 -136 -350 -136 q-214 0 -355 139t-141 357zM195 1241q0 65 44.5 109.5t108.5 44.5q65 0 110.5 -45t45.5 -109q0 -65 -46 -110.5t-110 -45.5t-108.5 45.5t-44.5 110.5zM403 602h279q-3 49 -41 83t-96 34q-56 0 -94.5 -33.5t-47.5 -83.5zM614 1241q0 65 45 109.5t109 44.5q65 0 110.5 -45 t45.5 -109q0 -65 -46 -110.5t-110 -45.5t-109 45.5t-45 110.5z" />
<glyph unicode="&#xec;" horiz-adv-x="579" d="M59 1278l70 121q7 12 26 12.5t27 -6.5l348 -213q23 -19 13 -39l-43 -86q-20 -39 -56 -18l-372 168q-34 21 -13 61zM115 45v856q0 20 13 32.5t32 12.5h260q19 0 32 -12.5t13 -32.5v-856q0 -19 -13 -32t-32 -13h-260q-19 0 -32 13t-13 32z" />
<glyph unicode="&#xed;" horiz-adv-x="579" d="M18 1153q-10 20 13 39l348 213q8 7 27 6.5t26 -12.5l70 -121q21 -40 -13 -61l-372 -168q-36 -21 -56 18zM115 45v856q0 20 13 32.5t32 12.5h260q19 0 32 -12.5t13 -32.5v-856q0 -19 -13 -32t-32 -13h-260q-19 0 -32 13t-13 32z" />
<glyph unicode="&#xee;" horiz-adv-x="579" d="M-29 1153q-13 18 13 39l276 213q23 17 49 0l283 -213q22 -18 12 -39l-69 -94q-7 -10 -20 -13t-23 3l-203 118l-205 -118q-28 -15 -45 8zM115 45v856q0 20 13 32.5t32 12.5h260q19 0 32 -12.5t13 -32.5v-856q0 -19 -13 -32t-32 -13h-260q-19 0 -32 13t-13 32z" />
<glyph unicode="&#xef;" horiz-adv-x="579" d="M-68 1241q0 65 45 109.5t109 44.5q65 0 110.5 -45t45.5 -109q0 -65 -46 -110.5t-110 -45.5t-109 45.5t-45 110.5zM115 45v856q0 20 13 32.5t32 12.5h260q19 0 32 -12.5t13 -32.5v-856q0 -19 -13 -32t-32 -13h-260q-19 0 -32 13t-13 32zM352 1241q0 65 45 109.5t109 44.5 q65 0 110.5 -45t45.5 -109q0 -65 -46 -110.5t-110 -45.5t-109 45.5t-45 110.5z" />
<glyph unicode="&#xf0;" horiz-adv-x="1128" d="M63 463q0 111 37.5 200.5t98.5 144t134 83.5t150 29q45 0 102.5 -12t98.5 -31q-32 142 -188 241l-162 -92q-36 -22 -53 12l-19 31q-9 13 -6 30.5t18 24.5l99 58q-45 26 -129 51q-40 11 -25 51l62 164q17 46 79 27q37 -12 114.5 -51.5t156.5 -94.5l149 88q14 7 30 2.5 t24 -18.5l18 -31q8 -13 4.5 -29.5t-16.5 -23.5l-111 -64q326 -279 326 -700q0 -166 -58 -294.5t-174.5 -203.5t-275.5 -75q-97 0 -186.5 38.5t-154.5 103t-104 154t-39 187.5zM348 473q0 -84 59.5 -143.5t143.5 -59.5q83 0 143 60t60 143t-60 144t-143 61 q-84 0 -143.5 -60.5t-59.5 -144.5z" />
<glyph unicode="&#xf1;" horiz-adv-x="1124" d="M115 45v856q0 20 13 32.5t32 12.5h92q27 0 43 -28l35 -95q24 27 34.5 38t41 36t57 37t70 22.5t92.5 10.5q107 0 185.5 -36t123 -101.5t65.5 -147.5t21 -184v-453q0 -19 -13 -32t-30 -13h-223q-20 0 -32.5 13t-12.5 32v457q0 76 -32 125t-106 49q-69 0 -106 -44t-37 -118 v-469q0 -18 -10 -31.5t-33 -13.5h-225q-19 0 -32 13t-13 32zM258.5 1216q-3.5 15 1.5 25q10 19 28 43t46.5 55.5t67 52.5t77.5 21q41 0 79.5 -24t73.5 -48t68 -24q40 0 78 63q8 13 21.5 15t29.5 -11l70 -53q27 -20 2 -59q-12 -21 -26.5 -41t-41.5 -50.5t-63 -49.5t-74 -19 q-36 0 -70 15.5t-56 33.5t-49 33.5t-50 15.5q-17 0 -31.5 -11.5t-32 -35t-18.5 -24.5q-19 -19 -45 -2l-72 57q-10 7 -13.5 22z" />
<glyph unicode="&#xf2;" horiz-adv-x="1103" d="M59 475q0 131 66.5 244.5t181 180.5t246.5 67t245.5 -67t179.5 -180.5t66 -244.5q0 -133 -66 -248t-179.5 -182.5t-245.5 -67.5q-99 0 -190.5 40t-158 107.5t-106 159.5t-39.5 191zM322 1278l69 121q7 12 26 12.5t27 -6.5l349 -213q23 -18 12 -39l-43 -86 q-20 -39 -55 -18l-373 168q-33 21 -12 61zM354 475q0 -84 58 -144.5t141 -60.5q81 0 139 60.5t58 144.5q0 82 -58 141.5t-139 59.5q-83 0 -141 -59.5t-58 -141.5z" />
<glyph unicode="&#xf3;" horiz-adv-x="1103" d="M59 475q0 131 66.5 244.5t181 180.5t246.5 67t245.5 -67t179.5 -180.5t66 -244.5q0 -133 -66 -248t-179.5 -182.5t-245.5 -67.5q-99 0 -190.5 40t-158 107.5t-106 159.5t-39.5 191zM313 1153q-10 20 13 39l348 213q8 7 27 6.5t26 -12.5l70 -121q21 -40 -13 -61l-372 -168 q-36 -21 -56 18zM354 475q0 -84 58 -144.5t141 -60.5q81 0 139 60.5t58 144.5q0 82 -58 141.5t-139 59.5q-83 0 -141 -59.5t-58 -141.5z" />
<glyph unicode="&#xf4;" horiz-adv-x="1103" d="M59 475q0 131 66.5 244.5t181 180.5t246.5 67t245.5 -67t179.5 -180.5t66 -244.5q0 -133 -66 -248t-179.5 -182.5t-245.5 -67.5q-99 0 -190.5 40t-158 107.5t-106 159.5t-39.5 191zM240 1153q-13 19 12 39l276 213q24 18 50 0l282 -213q22 -18 12 -39l-69 -94 q-7 -10 -20 -13t-23 3l-203 118l-205 -118q-28 -15 -45 8zM354 475q0 -84 58 -144.5t141 -60.5q81 0 139 60.5t58 144.5q0 82 -58 141.5t-139 59.5q-83 0 -141 -59.5t-58 -141.5z" />
<glyph unicode="&#xf5;" horiz-adv-x="1103" d="M59 475q0 131 66.5 244.5t181 180.5t246.5 67t245.5 -67t179.5 -180.5t66 -244.5q0 -133 -66 -248t-179.5 -182.5t-245.5 -67.5q-99 0 -190.5 40t-158 107.5t-106 159.5t-39.5 191zM230 1216q-4 15 1 25q10 19 28 43.5t47 55.5t67.5 52t77.5 21q41 0 79.5 -24t73.5 -48 t68 -24q40 0 78 63q8 13 21.5 15t29.5 -11l69 -53q27 -20 2 -59q-9 -16 -18.5 -30.5t-30.5 -40t-42 -43.5t-51.5 -32t-61.5 -14q-45 0 -86.5 24.5t-76.5 49t-63 24.5q-17 0 -31.5 -11.5t-32 -35t-18.5 -24.5q-19 -19 -45 -2l-71 57q-10 7 -14 22zM354 475q0 -84 58 -144.5 t141 -60.5q81 0 139 60.5t58 144.5q0 82 -58 141.5t-139 59.5q-83 0 -141 -59.5t-58 -141.5z" />
<glyph unicode="&#xf6;" horiz-adv-x="1103" d="M59 475q0 131 66.5 244.5t181 180.5t246.5 67t245.5 -67t179.5 -180.5t66 -244.5q0 -133 -66 -248t-179.5 -182.5t-245.5 -67.5q-99 0 -190.5 40t-158 107.5t-106 159.5t-39.5 191zM188 1241q0 65 45 109.5t109 44.5q65 0 110.5 -45t45.5 -109q0 -65 -46 -110.5 t-110 -45.5t-109 45.5t-45 110.5zM354 475q0 -84 58 -144.5t141 -60.5q81 0 139 60.5t58 144.5q0 82 -58 141.5t-139 59.5q-83 0 -141 -59.5t-58 -141.5zM608 1241q0 65 45 109.5t109 44.5q65 0 110.5 -45t45.5 -109q0 -65 -46 -110.5t-110 -45.5t-109 45.5t-45 110.5z" />
<glyph unicode="&#xf7;" d="M166 637v143q0 15 12 27t27 12h821q15 0 26 -12t11 -27v-143q0 -15 -11 -27t-26 -12h-821q-15 0 -27 12t-12 27zM455 315q0 63 44 107.5t107 44.5t108.5 -44.5t45.5 -107.5t-45.5 -108t-108.5 -45t-107 45t-44 108zM457 1118q0 63 44 107.5t107 44.5t108.5 -44.5 t45.5 -107.5t-45.5 -108t-108.5 -45t-107 45t-44 108z" />
<glyph unicode="&#xf8;" horiz-adv-x="1105" d="M61 475q0 131 66.5 244.5t181 180.5t246.5 67q169 0 299 -105l70 70q12 13 30.5 12.5t30.5 -12.5l29 -29q14 -11 14 -29t-14 -30l-70 -72q103 -134 103 -297q0 -99 -39 -191t-105 -159.5t-157.5 -107.5t-190.5 -40q-164 0 -295 101l-59 -60q-12 -12 -30.5 -11t-29.5 13 l-30 29q-11 14 -11.5 32t9.5 32l57 57q-105 137 -105 305zM356 475q0 -45 21 -92l268 268q-42 25 -90 25q-83 0 -141 -59.5t-58 -141.5zM469 289q40 -19 86 -19q81 0 139 60.5t58 144.5q0 41 -19 84z" />
<glyph unicode="&#xf9;" horiz-adv-x="1099" d="M106 428v473q0 20 13 32.5t31 12.5h223q19 0 32 -12.5t13 -32.5v-467q0 -83 29 -123.5t98 -40.5q66 0 97.5 40.5t31.5 107.5v483q0 45 51 45h215q19 0 32 -12.5t13 -32.5v-856q0 -19 -13 -32t-32 -13h-94q-28 0 -45 33l-33 88q-139 -144 -299 -144q-101 0 -172.5 32 t-112.5 93.5t-59.5 141t-18.5 184.5zM322 1278l69 121q7 12 26 12.5t27 -6.5l349 -213q23 -18 12 -39l-43 -86q-20 -39 -55 -18l-373 168q-33 21 -12 61z" />
<glyph unicode="&#xfa;" horiz-adv-x="1099" d="M106 428v473q0 20 13 32.5t31 12.5h223q19 0 32 -12.5t13 -32.5v-467q0 -83 29 -123.5t98 -40.5q66 0 97.5 40.5t31.5 107.5v483q0 45 51 45h215q19 0 32 -12.5t13 -32.5v-856q0 -19 -13 -32t-32 -13h-94q-28 0 -45 33l-33 88q-139 -144 -299 -144q-101 0 -172.5 32 t-112.5 93.5t-59.5 141t-18.5 184.5zM313 1153q-10 20 13 39l348 213q8 7 27 6.5t26 -12.5l70 -121q21 -40 -13 -61l-372 -168q-36 -21 -56 18z" />
<glyph unicode="&#xfb;" horiz-adv-x="1099" d="M106 428v473q0 20 13 32.5t31 12.5h223q19 0 32 -12.5t13 -32.5v-467q0 -83 29 -123.5t98 -40.5q66 0 97.5 40.5t31.5 107.5v483q0 45 51 45h215q19 0 32 -12.5t13 -32.5v-856q0 -19 -13 -32t-32 -13h-94q-28 0 -45 33l-33 88q-139 -144 -299 -144q-101 0 -172.5 32 t-112.5 93.5t-59.5 141t-18.5 184.5zM242 1153q-13 19 12 39l276 213q24 18 50 0l282 -213q22 -18 12 -39l-69 -94q-7 -10 -20 -13t-23 3l-203 118l-205 -118q-28 -15 -45 8z" />
<glyph unicode="&#xfc;" horiz-adv-x="1099" d="M106 428v473q0 20 13 32.5t31 12.5h223q19 0 32 -12.5t13 -32.5v-467q0 -83 29 -123.5t98 -40.5q66 0 97.5 40.5t31.5 107.5v483q0 45 51 45h215q19 0 32 -12.5t13 -32.5v-856q0 -19 -13 -32t-32 -13h-94q-28 0 -45 33l-33 88q-139 -144 -299 -144q-101 0 -172.5 32 t-112.5 93.5t-59.5 141t-18.5 184.5zM193 1241q0 65 44.5 109.5t108.5 44.5q65 0 110.5 -45t45.5 -109q0 -65 -46 -110.5t-110 -45.5t-108.5 45.5t-44.5 110.5zM612 1241q0 65 45 109.5t109 44.5q65 0 110.5 -45t45.5 -109q0 -65 -46 -110.5t-110 -45.5t-109 45.5t-45 110.5 z" />
<glyph unicode="&#xfd;" horiz-adv-x="1013" d="M37 885q-8 24 3 42.5t36 18.5h243q13 0 23.5 -7t13.5 -19l129 -502h4l183 502q10 26 41 26h233q28 0 40 -18t1 -43l-559 -1344q-5 -11 -16 -19.5t-23 -8.5h-229q-26 0 -38 19t-1 44l196 496zM231 1153q-10 20 13 39l348 213q8 7 27 6.5t26 -12.5l70 -121q21 -40 -13 -61 l-372 -168q-36 -21 -56 18z" />
<glyph unicode="&#xfe;" horiz-adv-x="1177" d="M117 -444v1835q0 17 13 30t30 13h223q17 0 30 -13t13 -30v-478q33 23 91.5 38.5t125.5 15.5q98 0 181.5 -30.5t148.5 -89.5t102 -155t37 -219q0 -119 -38 -214t-104.5 -155.5t-155 -92t-191.5 -31.5q-126 0 -195 34v-458q0 -17 -13 -30t-30 -13h-225q-17 0 -30 13t-13 30 zM406 475q0 -88 56 -144.5t144 -56.5q85 0 142 57t57 144q0 86 -57 141.5t-142 55.5q-88 0 -144 -55.5t-56 -141.5z" />
<glyph unicode="&#xff;" horiz-adv-x="1013" d="M37 885q-8 24 3 42.5t36 18.5h243q13 0 23.5 -7t13.5 -19l129 -502h4l183 502q10 26 41 26h233q28 0 40 -18t1 -43l-559 -1344q-5 -11 -16 -19.5t-23 -8.5h-229q-26 0 -38 19t-1 44l196 496zM147 1241q0 65 44.5 109.5t109.5 44.5t110.5 -45t45.5 -109 q0 -65 -45.5 -110.5t-110.5 -45.5q-64 0 -109 45.5t-45 110.5zM567 1241q0 65 44.5 109.5t109.5 44.5t110.5 -45t45.5 -109q0 -65 -45.5 -110.5t-110.5 -45.5q-64 0 -109 45.5t-45 110.5z" />
<glyph unicode="&#x100;" horiz-adv-x="1372" d="M0 53l641 1379q11 22 35 22h20q24 0 35 -22l641 -1379q9 -20 -1.5 -36.5t-33.5 -16.5h-227q-28 0 -43.5 11t-28.5 40l-73 162h-557l-74 -164q-20 -49 -74 -49h-225q-23 0 -33.5 16.5t-1.5 36.5zM385 1677v84q0 17 11 28t28 11h524q17 0 28 -11t11 -28v-84q0 -15 -11 -26 t-28 -11h-524q-17 0 -28 11t-11 26zM530 492h312l-156 337h-2z" />
<glyph unicode="&#x101;" horiz-adv-x="1001" d="M59 289q0 139 95 227t254 88q47 0 93.5 -10t69.5 -20l23 -11q0 76 -26.5 111t-104.5 35q-50 0 -121.5 -10t-116.5 -23q-50 -16 -57 49l-23 145q-4 28 7.5 44.5t29.5 21.5q22 8 126.5 19.5t189.5 11.5q217 0 306 -93t89 -307v-522q0 -18 -13.5 -31.5t-31.5 -13.5h-100 q-29 0 -43 31l-31 63q-30 -25 -50 -40t-57 -36t-82 -31t-98 -10q-142 0 -235 86.5t-93 225.5zM209 1190v84q0 17 11 28t28 11h524q17 0 28 -11t11 -28v-84q0 -15 -11 -26t-28 -11h-524q-17 0 -28 11t-11 26zM365 311q0 -43 30.5 -73.5t73.5 -30.5t74.5 30.5t31.5 73.5 q0 41 -31.5 73t-74.5 32q-42 0 -73 -31.5t-31 -73.5z" />
<glyph unicode="&#x102;" horiz-adv-x="1372" d="M0 53l641 1379q11 22 35 22h20q24 0 35 -22l641 -1379q9 -20 -1.5 -36.5t-33.5 -16.5h-227q-28 0 -43.5 11t-28.5 40l-73 162h-557l-74 -164q-20 -49 -74 -49h-225q-23 0 -33.5 16.5t-1.5 36.5zM395 1808q-3 19 8 32t31 13h92q12 0 22 -7.5t13 -16.5q14 -43 48 -70.5 t77 -27.5q38 0 72.5 29.5t48.5 68.5q3 10 13.5 17t21.5 7h96q19 0 30 -13t9 -32q-17 -106 -98.5 -175.5t-192.5 -69.5q-113 0 -194.5 70t-96.5 175zM530 492h312l-156 337h-2z" />
<glyph unicode="&#x103;" horiz-adv-x="1001" d="M59 289q0 139 95 227t254 88q47 0 93.5 -10t69.5 -20l23 -11q0 76 -26.5 111t-104.5 35q-50 0 -121.5 -10t-116.5 -23q-50 -16 -57 49l-23 145q-4 28 7.5 44.5t29.5 21.5q22 8 126.5 19.5t189.5 11.5q217 0 306 -93t89 -307v-522q0 -18 -13.5 -31.5t-31.5 -13.5h-100 q-29 0 -43 31l-31 63q-30 -25 -50 -40t-57 -36t-82 -31t-98 -10q-142 0 -235 86.5t-93 225.5zM225 1325q-3 19 8 32t31 13h92q12 0 22 -7.5t13 -16.5q14 -43 48 -71t77 -28q38 0 72.5 30t48.5 69q3 10 13.5 17t21.5 7h96q19 0 30 -13t9 -32q-17 -106 -98.5 -176t-192.5 -70 q-113 0 -194.5 70t-96.5 176zM365 311q0 -43 30.5 -73.5t73.5 -30.5t74.5 30.5t31.5 73.5q0 41 -31.5 73t-74.5 32q-42 0 -73 -31.5t-31 -73.5z" />
<glyph unicode="&#x104;" horiz-adv-x="1372" d="M0 53l641 1379q11 22 35 22h20q24 0 35 -22l641 -1379q9 -20 -1.5 -36.5t-33.5 -16.5h-82q-26 -19 -54 -44t-58.5 -58t-50 -70.5t-19.5 -69.5q0 -75 70 -75q35 0 69.5 20t53.5 39q14 14 29.5 8.5t15.5 -24.5v-117q0 -48 -33 -70q-75 -49 -188 -49q-106 0 -164 62t-58 157 q0 52 18.5 99.5t52.5 86t59 61.5t61 50l-94 207h-557l-74 -164q-20 -49 -74 -49h-225q-23 0 -33.5 16.5t-1.5 36.5zM530 492h312l-156 337h-2z" />
<glyph unicode="&#x105;" horiz-adv-x="1001" d="M59 289q0 139 95 227t254 88q47 0 93.5 -10t69.5 -20l23 -11q0 76 -26.5 111t-104.5 35q-50 0 -121.5 -10t-116.5 -23q-50 -16 -57 49l-23 145q-4 28 7.5 44.5t29.5 21.5q22 8 126.5 19.5t189.5 11.5q217 0 306 -93t89 -307v-512q0 -30 -35 -55q-67 -45 -125.5 -112.5 t-58.5 -129.5q0 -75 69 -75q35 0 69.5 20t53.5 39q14 14 29.5 8.5t15.5 -24.5v-117q0 -49 -32 -70q-75 -49 -189 -49q-106 0 -163.5 62t-57.5 157q0 50 24.5 101t64 92t76.5 71t73 52l-33 69q-30 -25 -50 -40t-57 -36t-82 -31t-98 -10q-142 0 -235 86.5t-93 225.5zM365 311 q0 -43 30.5 -73.5t73.5 -30.5t74.5 30.5t31.5 73.5q0 41 -31.5 73t-74.5 32q-42 0 -73 -31.5t-31 -73.5z" />
<glyph unicode="&#x106;" horiz-adv-x="1390" d="M80 715q0 151 58.5 288t157 235.5t235.5 157t288 58.5t270.5 -46.5t225.5 -143.5q13 -12 13.5 -29t-11.5 -29l-160 -166q-11 -10 -26 -10t-25 10q-119 105 -277 105q-171 0 -286 -124t-115 -298q0 -172 116 -294t287 -122q159 0 275 99q10 9 27 8t26 -11l160 -170 q10 -11 9.5 -27.5t-11.5 -27.5q-204 -198 -498 -198q-101 0 -197 26t-177 73t-149 114.5t-115.5 148.5t-74 176.5t-26.5 196.5zM578 1665q-10 21 12 39l348 213q8 7 27 6.5t26 -12.5l70 -121q21 -40 -12 -61l-373 -168q-35 -21 -55 18z" />
<glyph unicode="&#x107;" horiz-adv-x="985" d="M59 473q0 136 69 250.5t184 179t249 64.5q213 0 354 -166q28 -36 -12 -68l-133 -129q-7 -8 -23.5 -7.5t-29.5 11.5q-76 68 -146 68q-81 0 -140.5 -61.5t-59.5 -141.5q0 -86 57 -144.5t139 -58.5q41 0 74.5 12t51.5 26t44 40q12 15 28.5 17.5t25.5 -9.5l133 -114 q36 -36 16 -68q-132 -197 -381 -197q-134 0 -248.5 64t-183 178.5t-68.5 253.5zM332 1153q-10 21 12 39l348 213q8 7 27 6.5t26 -12.5l70 -121q21 -40 -12 -61l-373 -168q-35 -21 -55 18z" />
<glyph unicode="&#x108;" horiz-adv-x="1390" d="M80 715q0 151 58.5 288t157 235.5t235.5 157t288 58.5t270.5 -46.5t225.5 -143.5q13 -12 13.5 -29t-11.5 -29l-160 -166q-11 -10 -26 -10t-25 10q-119 105 -277 105q-171 0 -286 -124t-115 -298q0 -172 116 -294t287 -122q159 0 275 99q10 9 27 8t26 -11l160 -170 q10 -11 9.5 -27.5t-11.5 -27.5q-204 -198 -498 -198q-101 0 -197 26t-177 73t-149 114.5t-115.5 148.5t-74 176.5t-26.5 196.5zM506 1665q-13 19 12 39l277 213q23 17 49 0l282 -213q23 -19 13 -39l-70 -94q-7 -10 -20 -13t-23 3l-203 118l-205 -118q-28 -15 -45 8z" />
<glyph unicode="&#x109;" horiz-adv-x="985" d="M59 473q0 136 69 250.5t184 179t249 64.5q213 0 354 -166q28 -36 -12 -68l-133 -129q-7 -8 -23.5 -7.5t-29.5 11.5q-76 68 -146 68q-81 0 -140.5 -61.5t-59.5 -141.5q0 -86 57 -144.5t139 -58.5q41 0 74.5 12t51.5 26t44 40q12 15 28.5 17.5t25.5 -9.5l133 -114 q36 -36 16 -68q-132 -197 -381 -197q-134 0 -248.5 64t-183 178.5t-68.5 253.5zM258 1153q-13 19 12 39l277 213q23 17 49 0l283 -213q23 -18 12 -39l-70 -94q-7 -10 -20 -13t-23 3l-203 118l-204 -118q-28 -15 -45 8z" />
<glyph unicode="&#x10a;" horiz-adv-x="1390" d="M80 715q0 151 58.5 288t157 235.5t235.5 157t288 58.5t270.5 -46.5t225.5 -143.5q13 -12 13.5 -29t-11.5 -29l-160 -166q-11 -10 -26 -10t-25 10q-119 105 -277 105q-171 0 -286 -124t-115 -298q0 -172 116 -294t287 -122q159 0 275 99q10 9 27 8t26 -11l160 -170 q10 -11 9.5 -27.5t-11.5 -27.5q-204 -198 -498 -198q-101 0 -197 26t-177 73t-149 114.5t-115.5 148.5t-74 176.5t-26.5 196.5zM645 1745q0 74 51.5 127t124.5 53t125.5 -53t52.5 -127q0 -72 -52.5 -124t-125.5 -52t-124.5 52t-51.5 124z" />
<glyph unicode="&#x10b;" horiz-adv-x="985" d="M59 473q0 136 69 250.5t184 179t249 64.5q213 0 354 -166q28 -36 -12 -68l-133 -129q-7 -8 -23.5 -7.5t-29.5 11.5q-76 68 -146 68q-81 0 -140.5 -61.5t-59.5 -141.5q0 -86 57 -144.5t139 -58.5q41 0 74.5 12t51.5 26t44 40q12 15 28.5 17.5t25.5 -9.5l133 -114 q36 -36 16 -68q-132 -197 -381 -197q-134 0 -248.5 64t-183 178.5t-68.5 253.5zM393 1253q0 74 51.5 127.5t124.5 53.5t126 -53.5t53 -127.5q0 -72 -53 -124t-126 -52t-124.5 52t-51.5 124z" />
<glyph unicode="&#x10c;" horiz-adv-x="1390" d="M80 715q0 151 58.5 288t157 235.5t235.5 157t288 58.5t270.5 -46.5t225.5 -143.5q13 -12 13.5 -29t-11.5 -29l-160 -166q-11 -10 -26 -10t-25 10q-119 105 -277 105q-171 0 -286 -124t-115 -298q0 -172 116 -294t287 -122q159 0 275 99q10 9 27 8t26 -11l160 -170 q10 -11 9.5 -27.5t-11.5 -27.5q-204 -198 -498 -198q-101 0 -197 26t-177 73t-149 114.5t-115.5 148.5t-74 176.5t-26.5 196.5zM504 1812l69 95q7 10 20 13t23 -3l203 -119l205 119q28 15 45 -8l68 -97q13 -18 -13 -38l-276 -213q-23 -17 -49 0l-283 213q-22 18 -12 38z" />
<glyph unicode="&#x10d;" horiz-adv-x="985" d="M59 473q0 136 69 250.5t184 179t249 64.5q213 0 354 -166q28 -36 -12 -68l-133 -129q-7 -8 -23.5 -7.5t-29.5 11.5q-76 68 -146 68q-81 0 -140.5 -61.5t-59.5 -141.5q0 -86 57 -144.5t139 -58.5q41 0 74.5 12t51.5 26t44 40q12 15 28.5 17.5t25.5 -9.5l133 -114 q36 -36 16 -68q-132 -197 -381 -197q-134 0 -248.5 64t-183 178.5t-68.5 253.5zM248 1300l69 95q7 10 20 13t23 -3l203 -119l205 119q28 15 45 -8l68 -97q13 -18 -13 -38l-276 -213q-23 -17 -49 0l-283 213q-22 18 -12 38z" />
<glyph unicode="&#x10e;" horiz-adv-x="1499" d="M162 39v1356q0 15 11 27t26 12h499q145 0 278.5 -57t230 -153t153.5 -228t57 -277q0 -117 -36.5 -227t-103 -198t-155 -154.5t-198 -103t-226.5 -36.5h-499q-15 0 -26 12t-11 27zM336 1812l70 95q7 10 20 13t23 -3l202 -119l205 119q28 15 45 -8l68 -97q13 -18 -13 -38 l-276 -213q-23 -17 -49 0l-283 213q-22 18 -12 38zM481 303h215q170 0 275.5 119t105.5 297q0 177 -105.5 295.5t-275.5 118.5h-215v-830z" />
<glyph unicode="&#x10f;" horiz-adv-x="1193" d="M63 473q0 122 37.5 217.5t102.5 155t149 90.5t180 31q66 0 130.5 -17t89.5 -37v476q0 18 13.5 31.5t31.5 13.5h221q18 0 31.5 -13.5t13.5 -31.5v-1344q0 -19 -13 -32t-32 -13h-92q-35 0 -49 47l-27 78q-5 -6 -13.5 -16t-39 -35.5t-64.5 -45t-89 -35.5t-114 -16 q-130 0 -238 67.5t-168.5 181t-60.5 247.5zM377 475q0 -87 58 -146t143 -59q87 0 143.5 58.5t56.5 146.5q0 87 -56.5 144t-143.5 57q-85 0 -143 -57.5t-58 -143.5zM1087 1290q0 76 49.5 120t127.5 44q86 0 141 -51.5t55 -161.5q0 -96 -29 -167.5t-77 -137.5q-21 -21 -47 -2 l-62 45q-13 9 -14 23t10 24q22 26 35.5 63.5t13.5 69.5v15q-28 -19 -67 -19q-62 0 -99 38t-37 97z" />
<glyph unicode="&#x110;" horiz-adv-x="1499" d="M66 692v35q0 15 10.5 27t25.5 12h60v629q0 15 11 27t26 12h499q145 0 278.5 -57t230 -153t153.5 -228t57 -277q0 -117 -36.5 -227t-103 -198t-155 -154.5t-198 -103t-226.5 -36.5h-499q-15 0 -26 12t-11 27v614h-60q-15 0 -25.5 12t-10.5 27zM481 303h197 q172 0 285.5 120t113.5 296q0 175 -113.5 294.5t-285.5 119.5h-197v-367h291q17 0 28 -11.5t11 -27.5v-37q0 -15 -11 -26t-28 -11h-291v-350z" />
<glyph unicode="&#x111;" horiz-adv-x="1179" d="M63 473q0 122 37.5 217.5t102.5 155t149 90.5t180 31q66 0 130.5 -17t89.5 -37v174h-205q-17 0 -28 11t-11 26v37q0 16 11 27.5t28 11.5h205v189q0 18 13.5 31.5t31.5 13.5h221q18 0 31.5 -13.5t13.5 -31.5v-189h51q15 0 26 -12t11 -27v-35q0 -15 -11 -27t-26 -12h-51 v-1042q0 -19 -13 -32t-32 -13h-92q-35 0 -49 47l-27 78q-5 -6 -13.5 -16t-39 -35.5t-64.5 -45t-89 -35.5t-114 -16q-130 0 -238 67.5t-168.5 181t-60.5 247.5zM377 475q0 -87 58 -146t143 -59q87 0 143.5 58.5t56.5 146.5q0 87 -56.5 144t-143.5 57q-85 0 -143 -57.5 t-58 -143.5z" />
<glyph unicode="&#x112;" horiz-adv-x="1183" d="M162 39v1356q0 16 11 27.5t28 11.5h848q17 0 27.5 -11.5t10.5 -27.5v-224q0 -16 -10.5 -27t-27.5 -11h-568v-254h467q15 0 27 -12t12 -27v-224q0 -17 -11.5 -27.5t-27.5 -10.5h-467v-277h568q17 0 27.5 -11.5t10.5 -27.5v-223q0 -16 -10.5 -27.5t-27.5 -11.5h-848 q-17 0 -28 11.5t-11 27.5zM334 1677v84q0 17 11 28t28 11h524q17 0 28 -11t11 -28v-84q0 -15 -11 -26t-28 -11h-524q-17 0 -28 11t-11 26z" />
<glyph unicode="&#x113;" horiz-adv-x="1050" d="M61 473q0 132 63.5 245t177.5 181t251 68q120 0 222 -55.5t164 -158t62 -229.5q0 -33 -4 -61q-1 -18 -15 -29.5t-30 -11.5h-583q0 -62 53 -113t143 -51q44 0 95.5 18t84.5 41q15 13 32 13t28 -13l104 -137q11 -15 11.5 -33t-13.5 -34q-133 -136 -350 -136 q-214 0 -355 139t-141 357zM252 1190v84q0 17 11 28t28 11h524q17 0 28 -11t11 -28v-84q0 -15 -11 -26t-28 -11h-524q-17 0 -28 11t-11 26zM403 602h279q-3 49 -41 83t-96 34q-56 0 -94.5 -33.5t-47.5 -83.5z" />
<glyph unicode="&#x114;" horiz-adv-x="1183" d="M162 39v1356q0 16 11 27.5t28 11.5h848q17 0 27.5 -11.5t10.5 -27.5v-224q0 -16 -10.5 -27t-27.5 -11h-568v-254h467q15 0 27 -12t12 -27v-224q0 -17 -11.5 -27.5t-27.5 -10.5h-467v-277h568q17 0 27.5 -11.5t10.5 -27.5v-223q0 -16 -10.5 -27.5t-27.5 -11.5h-848 q-17 0 -28 11.5t-11 27.5zM344 1808q-3 19 8 32t31 13h92q12 0 22 -7.5t13 -16.5q14 -43 48 -70.5t77 -27.5q38 0 72.5 29.5t48.5 68.5q3 10 13.5 17t21.5 7h96q19 0 30 -13t9 -32q-17 -106 -98.5 -175.5t-192.5 -69.5q-113 0 -194.5 70t-96.5 175z" />
<glyph unicode="&#x115;" horiz-adv-x="1050" d="M61 473q0 132 63.5 245t177.5 181t251 68q120 0 222 -55.5t164 -158t62 -229.5q0 -33 -4 -61q-1 -18 -15 -29.5t-30 -11.5h-583q0 -62 53 -113t143 -51q44 0 95.5 18t84.5 41q15 13 32 13t28 -13l104 -137q11 -15 11.5 -33t-13.5 -34q-133 -136 -350 -136 q-214 0 -355 139t-141 357zM268 1325q-3 19 8 32t31 13h92q12 0 22 -7.5t13 -16.5q14 -43 48 -71t77 -28q38 0 72.5 30t48.5 69q3 10 13.5 17t21.5 7h96q19 0 30 -13t9 -32q-17 -106 -98.5 -176t-192.5 -70q-113 0 -194.5 70t-96.5 176zM403 602h279q-3 49 -41 83t-96 34 q-56 0 -94.5 -33.5t-47.5 -83.5z" />
<glyph unicode="&#x116;" horiz-adv-x="1183" d="M162 39v1356q0 16 11 27.5t28 11.5h848q17 0 27.5 -11.5t10.5 -27.5v-224q0 -16 -10.5 -27t-27.5 -11h-568v-254h467q15 0 27 -12t12 -27v-224q0 -17 -11.5 -27.5t-27.5 -10.5h-467v-277h568q17 0 27.5 -11.5t10.5 -27.5v-223q0 -16 -10.5 -27.5t-27.5 -11.5h-848 q-17 0 -28 11.5t-11 27.5zM459 1745q0 74 51.5 127t124.5 53t125.5 -53t52.5 -127q0 -72 -52.5 -124t-125.5 -52t-124.5 52t-51.5 124z" />
<glyph unicode="&#x117;" horiz-adv-x="1050" d="M61 473q0 132 63.5 245t177.5 181t251 68q120 0 222 -55.5t164 -158t62 -229.5q0 -33 -4 -61q-1 -18 -15 -29.5t-30 -11.5h-583q0 -62 53 -113t143 -51q44 0 95.5 18t84.5 41q15 13 32 13t28 -13l104 -137q11 -15 11.5 -33t-13.5 -34q-133 -136 -350 -136 q-214 0 -355 139t-141 357zM377 1253q0 74 51.5 127.5t124.5 53.5t125.5 -53.5t52.5 -127.5q0 -72 -52.5 -124t-125.5 -52t-124.5 52t-51.5 124zM403 602h279q-3 49 -41 83t-96 34q-56 0 -94.5 -33.5t-47.5 -83.5z" />
<glyph unicode="&#x118;" horiz-adv-x="1183" d="M162 39v1356q0 16 11 27.5t28 11.5h848q17 0 27.5 -11.5t10.5 -27.5v-224q0 -16 -10.5 -27t-27.5 -11h-568v-254h467q15 0 27 -12t12 -27v-224q0 -17 -11.5 -27.5t-27.5 -10.5h-467v-277h568q17 0 27.5 -11.5t10.5 -27.5v-219q0 -26 -18 -37q-203 -146 -203 -248 q0 -75 70 -75q35 0 69.5 20t53.5 39q13 14 29 8.5t16 -24.5v-117q0 -48 -33 -70q-75 -49 -188 -49q-106 0 -163.5 62t-57.5 157q0 50 18.5 96.5t52 84.5t59.5 61t62 49h-653q-17 0 -28 11.5t-11 27.5z" />
<glyph unicode="&#x119;" horiz-adv-x="1050" d="M61 473q0 132 63.5 245t177.5 181t251 68q120 0 222 -55.5t164 -158t62 -229.5q0 -33 -4 -61q-1 -18 -15 -29.5t-30 -11.5h-583q0 -62 53 -113t143 -51q44 0 95.5 18t84.5 41q15 13 32 13t28 -13l104 -137q11 -15 11.5 -33t-13.5 -34q-81 -84 -194 -113 q-27 -21 -54 -45.5t-58 -58t-50 -70t-19 -68.5q0 -75 70 -75q35 0 69.5 20t53.5 39q13 14 29 8.5t16 -24.5v-117q0 -48 -33 -70q-75 -49 -188 -49q-106 0 -163.5 62t-57.5 157q0 150 157 273q-187 24 -305.5 158t-118.5 333zM403 602h279q-3 49 -41 83t-96 34 q-56 0 -94.5 -33.5t-47.5 -83.5z" />
<glyph unicode="&#x11a;" horiz-adv-x="1183" d="M162 39v1356q0 16 11 27.5t28 11.5h848q17 0 27.5 -11.5t10.5 -27.5v-224q0 -16 -10.5 -27t-27.5 -11h-568v-254h467q15 0 27 -12t12 -27v-224q0 -17 -11.5 -27.5t-27.5 -10.5h-467v-277h568q17 0 27.5 -11.5t10.5 -27.5v-223q0 -16 -10.5 -27.5t-27.5 -11.5h-848 q-17 0 -28 11.5t-11 27.5zM317 1812l70 95q7 10 20 13t23 -3l203 -119l205 119q28 15 45 -8l67 -97q13 -18 -12 -38l-276 -213q-24 -18 -50 0l-282 213q-23 18 -13 38z" />
<glyph unicode="&#x11b;" horiz-adv-x="1050" d="M61 473q0 132 63.5 245t177.5 181t251 68q120 0 222 -55.5t164 -158t62 -229.5q0 -33 -4 -61q-1 -18 -15 -29.5t-30 -11.5h-583q0 -62 53 -113t143 -51q44 0 95.5 18t84.5 41q15 13 32 13t28 -13l104 -137q11 -15 11.5 -33t-13.5 -34q-133 -136 -350 -136 q-214 0 -355 139t-141 357zM242 1300l69 95q7 10 20 13t23 -3l203 -119l205 119q28 15 45 -8l67 -97q13 -18 -12 -38l-276 -213q-23 -17 -49 0l-283 213q-22 18 -12 38zM403 602h279q-3 49 -41 83t-96 34q-56 0 -94.5 -33.5t-47.5 -83.5z" />
<glyph unicode="&#x11c;" horiz-adv-x="1452" d="M80 715q0 151 58 287.5t156 235t234.5 156.5t286.5 58q130 0 263 -51t237 -141q14 -11 15 -27.5t-11 -28.5l-162 -172q-27 -23 -55 -2q-106 98 -268 98q-167 0 -285.5 -122t-118.5 -291q0 -167 119.5 -287.5t286.5 -120.5q101 0 182 33v119h-129q-17 0 -28 11t-11 26v202 q0 17 11 28t28 11h411q15 0 26 -12t11 -27l2 -551q0 -20 -16 -32q-9 -5 -25 -14t-68 -32t-108 -40.5t-140 -32t-167 -14.5q-150 0 -286.5 57.5t-234.5 155t-156 233.5t-58 287zM502 1665q-13 19 12 39l277 213q23 17 49 0l282 -213q23 -19 13 -39l-70 -94q-7 -10 -20 -13 t-23 3l-203 118l-205 -118q-28 -15 -45 8z" />
<glyph unicode="&#x11d;" horiz-adv-x="1177" d="M63 475q0 134 60.5 246.5t168.5 179t238 66.5q59 0 113 -15t90 -36.5t64 -43t41 -36.5l12 -15l27 78q6 20 19.5 33.5t29.5 13.5h92q18 0 31.5 -13.5t13.5 -31.5v-870q0 -125 -38.5 -222.5t-107.5 -158.5t-160 -92t-200 -31q-97 0 -204.5 34t-147.5 68q-24 20 -10 54 l71 172q6 14 23.5 20t32.5 -2q36 -22 58 -33.5t72.5 -27t98.5 -15.5q201 0 201 189v49q-25 -20 -91.5 -39t-128.5 -19q-96 0 -180 31.5t-149 91.5t-102.5 156.5t-37.5 218.5zM276 1153q-13 18 13 39l276 213q23 17 49 0l283 -213q23 -18 12 -39l-69 -94q-7 -10 -20 -13 t-23 3l-203 118l-205 -118q-28 -15 -45 8zM377 473q0 -86 58 -144.5t143 -58.5q87 0 143.5 58t56.5 145q0 86 -56.5 144.5t-143.5 58.5q-85 0 -143 -59t-58 -144z" />
<glyph unicode="&#x11e;" horiz-adv-x="1452" d="M80 715q0 151 58 287.5t156 235t234.5 156.5t286.5 58q130 0 263 -51t237 -141q14 -11 15 -27.5t-11 -28.5l-162 -172q-27 -23 -55 -2q-106 98 -268 98q-167 0 -285.5 -122t-118.5 -291q0 -167 119.5 -287.5t286.5 -120.5q101 0 182 33v119h-129q-17 0 -28 11t-11 26v202 q0 17 11 28t28 11h411q15 0 26 -12t11 -27l2 -551q0 -20 -16 -32q-9 -5 -25 -14t-68 -32t-108 -40.5t-140 -32t-167 -14.5q-150 0 -286.5 57.5t-234.5 155t-156 233.5t-58 287zM526 1808q-3 19 8 32t31 13h92q12 0 22 -7.5t13 -16.5q14 -43 48 -70.5t77 -27.5 q38 0 72.5 29.5t48.5 68.5q3 10 13.5 17t21.5 7h96q19 0 30 -13t9 -32q-17 -106 -98.5 -175.5t-192.5 -69.5q-113 0 -194.5 70t-96.5 175z" />
<glyph unicode="&#x11f;" horiz-adv-x="1177" d="M63 475q0 134 60.5 246.5t168.5 179t238 66.5q59 0 113 -15t90 -36.5t64 -43t41 -36.5l12 -15l27 78q6 20 19.5 33.5t29.5 13.5h92q18 0 31.5 -13.5t13.5 -31.5v-870q0 -125 -38.5 -222.5t-107.5 -158.5t-160 -92t-200 -31q-97 0 -204.5 34t-147.5 68q-24 20 -10 54 l71 172q6 14 23.5 20t32.5 -2q36 -22 58 -33.5t72.5 -27t98.5 -15.5q201 0 201 189v49q-25 -20 -91.5 -39t-128.5 -19q-96 0 -180 31.5t-149 91.5t-102.5 156.5t-37.5 218.5zM299 1325q-3 19 8 32t31 13h92q12 0 22 -7.5t13 -16.5q14 -43 48 -71t77 -28q38 0 72.5 30 t48.5 69q3 10 13 17t21 7h97q19 0 30 -13t9 -32q-17 -106 -98.5 -176t-192.5 -70q-113 0 -194.5 70t-96.5 176zM377 473q0 -86 58 -144.5t143 -58.5q87 0 143.5 58t56.5 145q0 86 -56.5 144.5t-143.5 58.5q-85 0 -143 -59t-58 -144z" />
<glyph unicode="&#x120;" horiz-adv-x="1452" d="M80 715q0 151 58 287.5t156 235t234.5 156.5t286.5 58q130 0 263 -51t237 -141q14 -11 15 -27.5t-11 -28.5l-162 -172q-27 -23 -55 -2q-106 98 -268 98q-167 0 -285.5 -122t-118.5 -291q0 -167 119.5 -287.5t286.5 -120.5q101 0 182 33v119h-129q-17 0 -28 11t-11 26v202 q0 17 11 28t28 11h411q15 0 26 -12t11 -27l2 -551q0 -20 -16 -32q-9 -5 -25 -14t-68 -32t-108 -40.5t-140 -32t-167 -14.5q-150 0 -286.5 57.5t-234.5 155t-156 233.5t-58 287zM641 1745q0 74 51.5 127t124.5 53t125.5 -53t52.5 -127q0 -72 -52.5 -124t-125.5 -52t-124.5 52 t-51.5 124z" />
<glyph unicode="&#x121;" horiz-adv-x="1177" d="M63 475q0 134 60.5 246.5t168.5 179t238 66.5q59 0 113 -15t90 -36.5t64 -43t41 -36.5l12 -15l27 78q6 20 19.5 33.5t29.5 13.5h92q18 0 31.5 -13.5t13.5 -31.5v-870q0 -125 -38.5 -222.5t-107.5 -158.5t-160 -92t-200 -31q-97 0 -204.5 34t-147.5 68q-24 20 -10 54 l71 172q6 14 23.5 20t32.5 -2q36 -22 58 -33.5t72.5 -27t98.5 -15.5q201 0 201 189v49q-25 -20 -91.5 -39t-128.5 -19q-96 0 -180 31.5t-149 91.5t-102.5 156.5t-37.5 218.5zM375 1253q0 74 51.5 127.5t124.5 53.5t125.5 -53.5t52.5 -127.5q0 -72 -52.5 -124t-125.5 -52 t-124.5 52t-51.5 124zM377 473q0 -86 58 -144.5t143 -58.5q87 0 143.5 58t56.5 145q0 86 -56.5 144.5t-143.5 58.5q-85 0 -143 -59t-58 -144z" />
<glyph unicode="&#x122;" horiz-adv-x="1452" d="M80 715q0 151 58 287.5t156 235t234.5 156.5t286.5 58q130 0 263 -51t237 -141q14 -11 15 -27.5t-11 -28.5l-162 -172q-27 -23 -55 -2q-106 98 -268 98q-167 0 -285.5 -122t-118.5 -291q0 -167 119.5 -287.5t286.5 -120.5q101 0 182 33v119h-129q-17 0 -28 11t-11 26v202 q0 17 11 28t28 11h411q15 0 26 -12t11 -27l2 -551q0 -20 -16 -32q-9 -5 -25 -14t-68 -32t-108 -40.5t-140 -32t-167 -14.5q-150 0 -286.5 57.5t-234.5 155t-156 233.5t-58 287zM604 -295q0 76 49 120t127 44q86 0 141.5 -51.5t55.5 -161.5q0 -96 -29 -167t-78 -138 q-21 -21 -47 -2l-61 45q-13 9 -14 23t10 24q22 26 35.5 63.5t13.5 69.5v14q-29 -18 -68 -18q-62 0 -98.5 37.5t-36.5 97.5z" />
<glyph unicode="&#x123;" horiz-adv-x="1177" d="M63 475q0 134 60.5 246.5t168.5 179t238 66.5q59 0 113 -15t90 -36.5t64 -43t41 -36.5l12 -15l27 78q6 20 19.5 33.5t29.5 13.5h92q18 0 31.5 -13.5t13.5 -31.5v-870q0 -125 -38.5 -222.5t-107.5 -158.5t-160 -92t-200 -31q-97 0 -204.5 34t-147.5 68q-24 20 -10 54 l71 172q6 14 23.5 20t32.5 -2q36 -22 58 -33.5t72.5 -27t98.5 -15.5q201 0 201 189v49q-25 -20 -91.5 -39t-128.5 -19q-96 0 -180 31.5t-149 91.5t-102.5 156.5t-37.5 218.5zM377 473q0 -86 58 -144.5t143 -58.5q87 0 143.5 58t56.5 145q0 86 -56.5 144.5t-143.5 58.5 q-85 0 -143 -59t-58 -144zM408 1262q0 96 29 167.5t77 137.5q20 20 47 2l62 -45q13 -9 14 -23.5t-10 -23.5q-22 -27 -37 -64.5t-15 -69.5v-14q31 19 68 19q63 0 100 -38t37 -98q0 -76 -49 -119.5t-127 -43.5q-86 0 -141 51.5t-55 161.5z" />
<glyph unicode="&#x124;" horiz-adv-x="1552" d="M162 39v1356q0 15 12 27t27 12h243q17 0 28 -11.5t11 -27.5v-516h586v516q0 16 11 27.5t28 11.5h244q15 0 27 -12t12 -27v-1356q0 -15 -12 -27t-27 -12h-244q-17 0 -28 11.5t-11 27.5v539h-586v-539q0 -16 -11 -27.5t-28 -11.5h-243q-15 0 -27 12t-12 27zM461 1665 q-13 19 12 39l277 213q23 17 49 0l282 -213q23 -19 13 -39l-70 -94q-7 -10 -20 -13t-23 3l-203 118l-205 -118q-28 -15 -45 8z" />
<glyph unicode="&#x125;" horiz-adv-x="1124" d="M-61 1597q-13 19 12 39l276 213q23 17 49 0l283 -213q23 -18 12 -39l-69 -94q-7 -10 -20 -13t-23 3l-203 119l-205 -119q-28 -15 -45 8zM117 45v1344q0 18 13.5 31.5t31.5 13.5h221q18 0 31.5 -13.5t13.5 -31.5v-490q100 68 201 68q108 0 186 -37.5t121.5 -105.5 t63.5 -151t20 -186v-442q0 -18 -13.5 -31.5t-31.5 -13.5h-221q-20 0 -32.5 13t-12.5 32v447q0 85 -34.5 134.5t-107.5 49.5q-139 0 -139 -184v-447q0 -24 -10.5 -34.5t-40.5 -10.5h-215q-19 0 -32 13t-13 32z" />
<glyph unicode="&#x126;" horiz-adv-x="1552" d="M68 1126v35q0 15 10.5 27t25.5 12h58v195q0 15 12 27t27 12h243q17 0 28 -11.5t11 -27.5v-195h586v195q0 16 11 27.5t28 11.5h244q15 0 27 -12t12 -27v-195h57q17 0 28 -11.5t11 -27.5v-37q0 -15 -11 -26t-28 -11h-57v-1048q0 -15 -12 -27t-27 -12h-244q-17 0 -28 11.5 t-11 27.5v539h-586v-539q0 -16 -11 -27.5t-28 -11.5h-243q-15 0 -27 12t-12 27v1048h-58q-15 0 -25.5 12t-10.5 27zM483 879h586v208h-586v-208z" />
<glyph unicode="&#x127;" horiz-adv-x="1163" d="M31 1126v35q0 15 11 27t26 12h49v189q0 18 13.5 31.5t31.5 13.5h221q18 0 31.5 -13.5t13.5 -31.5v-189h207q17 0 28 -11.5t11 -27.5v-37q0 -15 -11 -26t-28 -11h-207v-188q100 68 221 68q108 0 189 -37.5t129 -104.5t71 -151.5t23 -186.5v-442q0 -18 -13.5 -31.5 t-31.5 -13.5h-221q-20 0 -32.5 13t-12.5 32v447q0 81 -43.5 132.5t-118.5 51.5q-67 0 -113.5 -43t-46.5 -141v-447q0 -24 -10.5 -34.5t-40.5 -10.5h-215q-19 0 -32 13t-13 32v1042h-49q-15 0 -26 12t-11 27z" />
<glyph unicode="&#x128;" horiz-adv-x="647" d="M-1.5 1687q-3.5 15 1.5 25q10 19 28 43t46.5 55.5t67 52.5t77.5 21q41 0 79.5 -24t73.5 -48t68 -24q40 0 78 63q8 13 21.5 15t29.5 -11l70 -53q27 -20 2 -59q-12 -21 -26.5 -41t-41.5 -50.5t-63 -49.5t-74 -19q-36 0 -70 15.5t-56 33.5t-49 33.5t-50 15.5 q-17 0 -31.5 -11.5t-32 -35t-18.5 -24.5q-19 -19 -45 -2l-72 57q-10 7 -13.5 22zM162 39v1356q0 15 12 27t27 12h245q15 0 27 -12t12 -27v-1356q0 -15 -12 -27t-27 -12h-245q-15 0 -27 12t-12 27z" />
<glyph unicode="&#x129;" horiz-adv-x="579" d="M-38.5 1216q-3.5 15 1.5 25q10 19 28 43t46.5 55.5t67 52.5t77.5 21q41 0 79.5 -24t73.5 -48t68 -24q40 0 78 63q8 13 21.5 15t29.5 -11l70 -53q27 -20 2 -59q-12 -21 -26.5 -41t-41.5 -50.5t-63 -49.5t-74 -19q-36 0 -70 15.5t-56 33.5t-49 33.5t-50 15.5 q-17 0 -31.5 -11.5t-32 -35t-18.5 -24.5q-19 -19 -45 -2l-72 57q-10 7 -13.5 22zM115 45v856q0 20 13 32.5t32 12.5h260q19 0 32 -12.5t13 -32.5v-856q0 -19 -13 -32t-32 -13h-260q-19 0 -32 13t-13 32z" />
<glyph unicode="&#x12a;" horiz-adv-x="647" d="M23 1677v84q0 17 10.5 28t27.5 11h525q17 0 28 -11t11 -28v-84q0 -15 -11 -26t-28 -11h-525q-17 0 -27.5 11t-10.5 26zM162 39v1356q0 15 12 27t27 12h245q15 0 27 -12t12 -27v-1356q0 -15 -12 -27t-27 -12h-245q-15 0 -27 12t-12 27z" />
<glyph unicode="&#x12b;" horiz-adv-x="579" d="M-14 1190v84q0 17 11 28t28 11h524q17 0 28 -11t11 -28v-84q0 -15 -11 -26t-28 -11h-524q-17 0 -28 11t-11 26zM115 45v856q0 20 13 32.5t32 12.5h260q19 0 32 -12.5t13 -32.5v-856q0 -19 -13 -32t-32 -13h-260q-19 0 -32 13t-13 32z" />
<glyph unicode="&#x12c;" horiz-adv-x="647" d="M33 1808q-3 19 8 32t31 13h92q12 0 22 -7.5t13 -16.5q14 -43 48 -70.5t77 -27.5q38 0 72 29.5t48 68.5q3 10 13.5 17t21.5 7h96q19 0 30 -13t9 -32q-17 -106 -98 -175.5t-192 -69.5q-113 0 -194.5 70t-96.5 175zM162 39v1356q0 15 12 27t27 12h245q15 0 27 -12t12 -27 v-1356q0 -15 -12 -27t-27 -12h-245q-15 0 -27 12t-12 27z" />
<glyph unicode="&#x12d;" horiz-adv-x="579" d="M-8 1325q-3 19 8 32t31 13h92q12 0 22 -7.5t13 -16.5q14 -43 48 -71t77 -28q38 0 72 30t48 69q3 10 13.5 17t21.5 7h97q18 0 29 -13t9 -32q-18 -106 -98.5 -176t-191.5 -70q-113 0 -194.5 70t-96.5 176zM115 45v856q0 20 13 32.5t32 12.5h260q19 0 32 -12.5t13 -32.5 v-856q0 -19 -13 -32t-32 -13h-260q-19 0 -32 13t-13 32z" />
<glyph unicode="&#x12e;" horiz-adv-x="647" d="M37 -291q0 157 182 291h-18q-15 0 -27 12t-12 27v1356q0 15 12 27t27 12h245q15 0 27 -12t12 -27v-1356q0 -15 -12 -27t-27 -12h-22q-26 -19 -54 -44t-58.5 -58t-50 -70.5t-19.5 -69.5q0 -75 69 -75q35 0 69.5 20t53.5 39q14 14 29.5 8.5t15.5 -24.5v-117q0 -48 -33 -70 q-75 -49 -188 -49q-106 0 -163.5 62t-57.5 157z" />
<glyph unicode="&#x12f;" horiz-adv-x="540" d="M-4 -291q0 157 182 291h-18q-19 0 -32 13t-13 32v856q0 20 13 32.5t32 12.5h221q19 0 32 -12.5t13 -32.5v-831q0 -41 -43 -70q-26 -19 -54 -44t-58.5 -58t-50 -70.5t-19.5 -69.5q0 -75 69 -75q35 0 69.5 20t53.5 39q13 14 29 8.5t16 -24.5v-117q0 -49 -32 -70 q-75 -49 -189 -49q-106 0 -163.5 62t-57.5 157zM92 1253q0 74 51.5 127.5t124.5 53.5t125.5 -53.5t52.5 -127.5q0 -72 -52.5 -124t-125.5 -52t-124.5 52t-51.5 124z" />
<glyph unicode="&#x130;" horiz-adv-x="647" d="M147 1745q0 74 52 127t125 53t125.5 -53t52.5 -127q0 -72 -52.5 -124t-125.5 -52t-125 52t-52 124zM162 39v1356q0 15 12 27t27 12h245q15 0 27 -12t12 -27v-1356q0 -15 -12 -27t-27 -12h-245q-15 0 -27 12t-12 27z" />
<glyph unicode="&#x131;" horiz-adv-x="579" d="M115 45v856q0 20 13 32.5t32 12.5h260q19 0 32 -12.5t13 -32.5v-856q0 -19 -13 -32t-32 -13h-260q-19 0 -32 13t-13 32z" />
<glyph unicode="&#x132;" horiz-adv-x="1581" d="M162 39v1356q0 15 12 27t27 12h245q15 0 27 -12t12 -27v-1356q0 -15 -12 -27t-27 -12h-245q-15 0 -27 12t-12 27zM678 129q-17 27 4 51l139 137q12 11 28 11.5t28 -11.5q43 -43 104 -43q121 0 121 136v985q0 16 11 27.5t28 11.5h250q17 0 28 -11.5t11 -27.5v-987 q0 -103 -34.5 -186.5t-93.5 -135t-134.5 -79t-159.5 -27.5q-209 0 -330 149z" />
<glyph unicode="&#x133;" horiz-adv-x="1103" d="M92 1253q0 74 51.5 127.5t124.5 53.5t125.5 -53.5t52.5 -127.5q0 -72 -52.5 -124t-125.5 -52t-124.5 52t-51.5 124zM115 45v856q0 20 13 32.5t32 12.5h221q19 0 32 -12.5t13 -32.5v-856q0 -19 -13 -32t-32 -13h-221q-19 0 -32 13t-13 32zM479 -317q-18 49 33 69 q164 64 164 215v934q0 20 13 32.5t32 12.5h221q19 0 32 -12.5t13 -32.5v-909q0 -105 -28.5 -192.5t-78 -147t-110 -98t-131.5 -56.5q-43 -10 -65.5 -2t-34.5 37zM655 1253q0 74 51.5 127.5t124.5 53.5t126 -53.5t53 -127.5q0 -72 -53 -124t-126 -52t-124.5 52t-51.5 124z " />
<glyph unicode="&#x134;" horiz-adv-x="921" d="M18 129q-16 26 5 51l139 137q12 11 27.5 11.5t27.5 -11.5q43 -43 105 -43q120 0 120 136v985q0 16 11 27.5t28 11.5h250q17 0 28 -11.5t11 -27.5v-987q0 -103 -34.5 -186.5t-93.5 -135t-134.5 -79t-159.5 -27.5q-209 0 -330 149zM279 1665q-13 19 12 39l276 213 q23 17 49 0l283 -213q23 -18 12 -39l-69 -94q-7 -10 -20 -13t-23 3l-203 118l-205 -118q-28 -15 -45 8z" />
<glyph unicode="&#x135;" horiz-adv-x="544" d="M-80 -317q-18 49 33 69q164 64 164 215v934q0 20 13 32.5t32 12.5h221q19 0 32 -12.5t13 -32.5v-909q0 -105 -28.5 -192.5t-78 -147t-110 -98t-131.5 -56.5q-43 -10 -65.5 -2t-34.5 37zM-51 1153q-13 19 12 39l277 213q23 17 49 0l282 -213q23 -19 13 -39l-70 -94 q-7 -10 -20 -13t-23 3l-203 118l-205 -118q-28 -15 -45 8z" />
<glyph unicode="&#x136;" horiz-adv-x="1357" d="M162 49v1335q0 21 14 35.5t35 14.5h240q20 0 34.5 -15t14.5 -35v-546l454 575q17 21 39 21h258q29 0 41.5 -26.5t-4.5 -49.5l-479 -608l522 -672q17 -23 3.5 -49.5t-42.5 -26.5h-282q-10 0 -22 4.5t-15 9.5l-473 635v-602q0 -20 -14.5 -34.5t-34.5 -14.5h-240 q-21 0 -35 14t-14 35zM557 -295q0 76 49 120t127 44q86 0 141.5 -51.5t55.5 -161.5q0 -96 -29 -167t-78 -138q-21 -21 -47 -2l-61 45q-13 9 -14 23t10 24q22 26 35.5 63.5t13.5 69.5v14q-29 -18 -68 -18q-62 0 -98.5 37.5t-36.5 97.5z" />
<glyph unicode="&#x137;" horiz-adv-x="1099" d="M117 45v1344q0 18 13.5 31.5t31.5 13.5h221q18 0 31.5 -13.5t13.5 -31.5v-801l266 330q28 28 60 28h252q31 0 43.5 -25.5t-7.5 -48.5l-315 -364l334 -436q19 -23 7.5 -47.5t-42.5 -24.5h-283q-18 0 -32 18l-283 412v-385q0 -19 -13 -32t-32 -13h-221q-19 0 -32 13t-13 32 zM381 -295q0 76 49 120t127 44q86 0 141.5 -51.5t55.5 -161.5q0 -96 -29 -167t-78 -138q-21 -21 -47 -2l-61 45q-13 9 -14 23t10 24q22 26 35.5 63.5t13.5 69.5v14q-29 -18 -68 -18q-62 0 -98.5 37.5t-36.5 97.5z" />
<glyph unicode="&#x138;" horiz-adv-x="1126" d="M115 45v854q0 18 13.5 31.5t31.5 13.5h221q18 0 31.5 -13.5t13.5 -31.5v-358l287 377q28 28 59 28h252q31 0 44.5 -25.5t-7.5 -48.5l-336 -407l375 -393q19 -23 7.5 -47.5t-42.5 -24.5h-283q-18 0 -32 18l-324 365v-338q0 -19 -13 -32t-32 -13h-221q-19 0 -32 13t-13 32z " />
<glyph unicode="&#x139;" horiz-adv-x="1044" d="M76 1665q-10 21 12 39l348 213q8 7 27 6.5t26 -12.5l70 -121q21 -40 -12 -61l-373 -168q-35 -21 -55 18zM162 39v1356q0 16 11 27.5t28 11.5h243q15 0 27 -12t12 -27v-1094h488q17 0 28 -11.5t11 -27.5v-223q0 -16 -11 -27.5t-28 -11.5h-770q-17 0 -28 11.5t-11 27.5z " />
<glyph unicode="&#x13a;" horiz-adv-x="544" d="M29 1597q-10 21 12 39l348 213q8 7 27 6.5t26 -12.5l70 -121q21 -40 -12 -61l-373 -168q-35 -21 -55 18zM117 45v1344q0 18 13.5 31.5t31.5 13.5h221q18 0 31.5 -13.5t13.5 -31.5v-1344q0 -19 -13 -32t-32 -13h-221q-19 0 -32 13t-13 32z" />
<glyph unicode="&#x13b;" horiz-adv-x="1044" d="M162 39v1356q0 16 11 27.5t28 11.5h243q15 0 27 -12t12 -27v-1094h488q17 0 28 -11.5t11 -27.5v-223q0 -16 -11 -27.5t-28 -11.5h-770q-17 0 -28 11.5t-11 27.5zM399 -295q0 76 49 120t127 44q86 0 141.5 -51.5t55.5 -161.5q0 -96 -29 -167.5t-77 -137.5q-22 -22 -48 -2 l-61 45q-13 9 -14 23t10 24q22 26 35.5 63.5t13.5 69.5v14q-28 -18 -67 -18q-62 0 -99 38t-37 97z" />
<glyph unicode="&#x13c;" horiz-adv-x="544" d="M86 -295q0 76 49 120t127 44q86 0 141.5 -51.5t55.5 -161.5q0 -96 -29 -167t-78 -138q-21 -21 -47 -2l-61 45q-13 9 -14 23t10 24q22 26 35.5 63.5t13.5 69.5v14q-29 -18 -68 -18q-62 0 -98.5 37.5t-36.5 97.5zM117 45v1344q0 18 13.5 31.5t31.5 13.5h221 q18 0 31.5 -13.5t13.5 -31.5v-1344q0 -19 -13 -32t-32 -13h-221q-19 0 -32 13t-13 32z" />
<glyph unicode="&#x13d;" horiz-adv-x="1058" d="M162 39v1356q0 16 11 27.5t28 11.5h243q15 0 27 -12t12 -27v-1094h488q17 0 28 -11.5t11 -27.5v-223q0 -16 -11 -27.5t-28 -11.5h-770q-17 0 -28 11.5t-11 27.5zM616 1290q0 76 49.5 120t127.5 44q86 0 141 -51.5t55 -161.5q0 -96 -29 -167.5t-77 -137.5q-21 -21 -47 -2 l-62 45q-13 9 -14 23t10 24q22 26 35.5 63.5t13.5 69.5v15q-28 -19 -67 -19q-62 0 -99 38t-37 97z" />
<glyph unicode="&#x13e;" horiz-adv-x="559" d="M117 45v1344q0 18 13.5 31.5t31.5 13.5h221q18 0 31.5 -13.5t13.5 -31.5v-1344q0 -19 -13 -32t-32 -13h-221q-19 0 -32 13t-13 32zM477 1290q0 76 49 120t127 44q86 0 141.5 -51.5t55.5 -161.5q0 -96 -29 -167t-78 -138q-21 -21 -47 -2l-61 45q-13 9 -14 23t10 24 q22 26 35.5 63.5t13.5 69.5v15q-29 -19 -68 -19q-62 0 -98.5 37.5t-36.5 97.5z" />
<glyph unicode="&#x13f;" horiz-adv-x="1118" d="M162 39v1356q0 16 11 27.5t28 11.5h243q15 0 27 -12t12 -27v-1094h488q17 0 28 -11.5t11 -27.5v-223q0 -16 -11 -27.5t-28 -11.5h-770q-17 0 -28 11.5t-11 27.5zM752 791q0 74 51.5 127t124.5 53t125.5 -53t52.5 -127q0 -72 -52.5 -124.5t-125.5 -52.5t-124.5 52.5 t-51.5 124.5z" />
<glyph unicode="&#x140;" horiz-adv-x="931" d="M117 45v1344q0 18 13.5 31.5t31.5 13.5h221q18 0 31.5 -13.5t13.5 -31.5v-1344q0 -19 -13 -32t-32 -13h-221q-19 0 -32 13t-13 32zM553 694q0 74 51.5 127t124.5 53t125.5 -53t52.5 -127q0 -72 -52.5 -124t-125.5 -52t-124.5 52t-51.5 124z" />
<glyph unicode="&#x141;" horiz-adv-x="1044" d="M40.5 669q3.5 16 16.5 23l105 60v643q0 16 11 27.5t28 11.5h243q15 0 27 -12t12 -27v-457l154 90q15 8 30.5 3.5t22.5 -17.5l19 -33q7 -12 3 -27t-18 -24l-211 -123v-506h488q17 0 28 -11.5t11 -27.5v-223q0 -16 -11 -27.5t-28 -11.5h-770q-17 0 -28 11.5t-11 27.5v584 l-47 -27q-13 -8 -30 -3.5t-24 17.5l-16 31q-8 12 -4.5 28z" />
<glyph unicode="&#x142;" horiz-adv-x="604" d="M18.5 669q3.5 16 16.5 23l94 56l12 6v635q0 18 13.5 31.5t31.5 13.5h222q18 0 31.5 -13.5t13.5 -31.5v-453l10 6l88 53q15 8 30.5 3.5t22.5 -17.5l19 -33q7 -12 3 -27t-18 -24l-145 -86l-10 -6v-760q0 -19 -13 -32t-32 -13h-222q-19 0 -32 13t-13 32v578l-12 -7l-37 -20 q-13 -8 -29.5 -3.5t-23.5 17.5l-16 31q-8 12 -4.5 28z" />
<glyph unicode="&#x143;" horiz-adv-x="1554" d="M160 1417q0 15 12 26t27 11h30q21 0 52 -31l786 -755h2v727q0 16 11 27.5t28 11.5h246q15 0 27 -12t12 -27v-1379q0 -18 -11.5 -27t-27.5 -9h-21q-29 0 -51 22l-797 801h-2v-764q0 -16 -11 -27.5t-28 -11.5h-243q-15 0 -27 12t-12 27zM537 1665q-11 21 12 39l348 213 q8 7 27 6.5t26 -12.5l70 -121q21 -40 -12 -61l-373 -168q-35 -21 -55 18z" />
<glyph unicode="&#x144;" horiz-adv-x="1124" d="M115 45v856q0 20 13 32.5t32 12.5h92q27 0 43 -28l35 -95q24 27 34.5 38t41 36t57 37t70 22.5t92.5 10.5q107 0 185.5 -36t123 -101.5t65.5 -147.5t21 -184v-453q0 -19 -13 -32t-30 -13h-223q-20 0 -32.5 13t-12.5 32v457q0 76 -32 125t-106 49q-69 0 -106 -44t-37 -118 v-469q0 -18 -10 -31.5t-33 -13.5h-225q-19 0 -32 13t-13 32zM354 1153q-10 20 13 39l348 213q8 7 27 6.5t26 -12.5l70 -121q21 -40 -13 -61l-372 -168q-36 -21 -56 18z" />
<glyph unicode="&#x145;" horiz-adv-x="1554" d="M160 1417q0 15 12 26t27 11h30q21 0 52 -31l786 -755h2v727q0 16 11 27.5t28 11.5h246q15 0 27 -12t12 -27v-1379q0 -18 -11.5 -27t-27.5 -9h-21q-29 0 -51 22l-797 801h-2v-764q0 -16 -11 -27.5t-28 -11.5h-243q-15 0 -27 12t-12 27zM643 -295q0 76 49 120t127 44 q86 0 141.5 -51.5t55.5 -161.5q0 -96 -29 -167t-78 -138q-21 -21 -47 -2l-61 45q-13 9 -14 23t10 24q22 26 35.5 63.5t13.5 69.5v14q-29 -18 -68 -18q-62 0 -98.5 37.5t-36.5 97.5z" />
<glyph unicode="&#x146;" horiz-adv-x="1124" d="M115 45v856q0 20 13 32.5t32 12.5h92q27 0 43 -28l35 -95q24 27 34.5 38t41 36t57 37t70 22.5t92.5 10.5q107 0 185.5 -36t123 -101.5t65.5 -147.5t21 -184v-453q0 -19 -13 -32t-30 -13h-223q-20 0 -32.5 13t-12.5 32v457q0 76 -32 125t-106 49q-69 0 -106 -44t-37 -118 v-469q0 -18 -10 -31.5t-33 -13.5h-225q-19 0 -32 13t-13 32zM389 -295q0 76 49 120t127 44q86 0 141.5 -51.5t55.5 -161.5q0 -96 -29 -167t-78 -138q-21 -21 -47 -2l-61 45q-13 9 -14 23t10 24q22 26 35.5 63.5t13.5 69.5v14q-29 -18 -68 -18q-62 0 -98.5 37.5t-36.5 97.5z " />
<glyph unicode="&#x147;" horiz-adv-x="1554" d="M160 1417q0 15 12 26t27 11h30q21 0 52 -31l786 -755h2v727q0 16 11 27.5t28 11.5h246q15 0 27 -12t12 -27v-1379q0 -18 -11.5 -27t-27.5 -9h-21q-29 0 -51 22l-797 801h-2v-764q0 -16 -11 -27.5t-28 -11.5h-243q-15 0 -27 12t-12 27zM463 1812l69 95q7 10 20 13t23 -3 l203 -119l205 119q28 15 45 -8l68 -97q13 -18 -13 -38l-276 -213q-23 -17 -49 0l-283 213q-22 18 -12 38z" />
<glyph unicode="&#x148;" horiz-adv-x="1124" d="M115 45v856q0 20 13 32.5t32 12.5h92q27 0 43 -28l35 -95q24 27 34.5 38t41 36t57 37t70 22.5t92.5 10.5q107 0 185.5 -36t123 -101.5t65.5 -147.5t21 -184v-453q0 -19 -13 -32t-30 -13h-223q-20 0 -32.5 13t-12.5 32v457q0 76 -32 125t-106 49q-69 0 -106 -44t-37 -118 v-469q0 -18 -10 -31.5t-33 -13.5h-225q-19 0 -32 13t-13 32zM279 1300l69 95q7 10 20 13t23 -3l203 -119l205 119q28 15 45 -8l67 -97q13 -18 -12 -38l-276 -213q-24 -18 -50 0l-282 213q-22 18 -12 38z" />
<glyph unicode="&#x149;" horiz-adv-x="1175" d="M-195 1290q0 76 49.5 120t127.5 44q86 0 141 -51.5t55 -161.5q0 -96 -29 -167.5t-77 -137.5q-21 -21 -47 -2l-62 45q-13 9 -14 23t10 24q22 26 35.5 63.5t13.5 69.5v15q-28 -19 -67 -19q-62 0 -99 38t-37 97zM166 45v856q0 20 13 32.5t32 12.5h92q27 0 43 -28l35 -95 q24 27 34.5 38t41 36t57 37t70 22.5t92.5 10.5q107 0 185.5 -36t123 -101.5t65.5 -147.5t21 -184v-453q0 -19 -13 -32t-30 -13h-223q-20 0 -32.5 13t-12.5 32v457q0 77 -31.5 125.5t-105.5 48.5q-69 0 -106.5 -44t-37.5 -118v-469q0 -18 -10 -31.5t-33 -13.5h-225 q-19 0 -32 13t-13 32z" />
<glyph unicode="&#x14a;" horiz-adv-x="1554" d="M162 39v1378q0 15 12 26t27 11h30q21 0 35 -14l801 -785h2v740q0 16 11 27.5t28 11.5h246q15 0 27 -12t12 -27l-2 -1403q0 -105 -28 -192.5t-77.5 -147t-110 -98t-131.5 -56.5q-43 -10 -65.5 -2t-34.5 37l-59 150q-20 53 20 69q164 64 164 215v242l-584 594h-2v-764 q0 -16 -11 -27.5t-28 -11.5h-243q-15 0 -27 12t-12 27z" />
<glyph unicode="&#x14b;" horiz-adv-x="1124" d="M115 45v856q0 20 13 32.5t32 12.5h92q27 0 43 -28l35 -95q4 4 21 21.5t24.5 24.5t26.5 23t32 24t36 19.5t44.5 17t50.5 10t60 4.5q107 0 185.5 -36t123 -101.5t65.5 -147.5t21 -184v-455q0 -209 -102 -358.5t-246 -186.5q-43 -10 -66 -2t-35 37l-59 150q-18 49 33 69 q164 64 164 215v535q0 76 -32 125t-106 49q-69 0 -106 -44t-37 -118v-469q0 -18 -10 -31.5t-33 -13.5h-225q-19 0 -32 13t-13 32z" />
<glyph unicode="&#x14c;" horiz-adv-x="1632" d="M80 715q0 101 26 197t73 177t114.5 149t148.5 115.5t176.5 74t196.5 26.5q151 0 287.5 -58t235 -157t156.5 -236t58 -288t-58 -287.5t-156.5 -234.5t-235 -155.5t-287.5 -57.5t-287.5 57.5t-234.5 155.5t-155.5 234.5t-57.5 287.5zM408 715q0 -167 120 -287.5t287 -120.5 q169 0 289.5 120.5t120.5 287.5q0 169 -120.5 290t-289.5 121q-167 0 -287 -121t-120 -290zM514 1677v84q0 17 11 28t28 11h524q17 0 28 -11t11 -28v-84q0 -15 -11 -26t-28 -11h-524q-17 0 -28 11t-11 26z" />
<glyph unicode="&#x14d;" horiz-adv-x="1103" d="M59 475q0 131 66.5 244.5t181 180.5t246.5 67t245.5 -67t179.5 -180.5t66 -244.5q0 -133 -66 -248t-179.5 -182.5t-245.5 -67.5q-99 0 -190.5 40t-158 107.5t-106 159.5t-39.5 191zM252 1190v84q0 17 11 28t28 11h524q17 0 28 -11t11 -28v-84q0 -15 -11 -26t-28 -11h-524 q-17 0 -28 11t-11 26zM354 475q0 -84 58 -144.5t141 -60.5q81 0 139 60.5t58 144.5q0 82 -58 141.5t-139 59.5q-83 0 -141 -59.5t-58 -141.5z" />
<glyph unicode="&#x14e;" horiz-adv-x="1632" d="M80 715q0 101 26 197t73 177t114.5 149t148.5 115.5t176.5 74t196.5 26.5q151 0 287.5 -58t235 -157t156.5 -236t58 -288t-58 -287.5t-156.5 -234.5t-235 -155.5t-287.5 -57.5t-287.5 57.5t-234.5 155.5t-155.5 234.5t-57.5 287.5zM408 715q0 -167 120 -287.5t287 -120.5 q169 0 289.5 120.5t120.5 287.5q0 169 -120.5 290t-289.5 121q-167 0 -287 -121t-120 -290zM524 1808q-3 19 8 32t31 13h92q12 0 22 -7.5t13 -16.5q14 -43 48 -70.5t77 -27.5q38 0 72.5 29.5t48.5 68.5q3 10 13.5 17t21.5 7h96q19 0 30 -13t9 -32q-17 -106 -98.5 -175.5 t-192.5 -69.5q-113 0 -194.5 70t-96.5 175z" />
<glyph unicode="&#x14f;" horiz-adv-x="1103" d="M59 475q0 131 66.5 244.5t181 180.5t246.5 67t245.5 -67t179.5 -180.5t66 -244.5q0 -133 -66 -248t-179.5 -182.5t-245.5 -67.5q-99 0 -190.5 40t-158 107.5t-106 159.5t-39.5 191zM266 1325q-3 19 8 32t31 13h92q12 0 22 -7.5t13 -16.5q14 -43 48 -71t77 -28 q38 0 72.5 30t48.5 69q3 10 13.5 17t21.5 7h96q19 0 30 -13t9 -32q-17 -106 -98.5 -176t-192.5 -70q-113 0 -194.5 70t-96.5 176zM354 475q0 -84 58 -144.5t141 -60.5q81 0 139 60.5t58 144.5q0 82 -58 141.5t-139 59.5q-83 0 -141 -59.5t-58 -141.5z" />
<glyph unicode="&#x150;" horiz-adv-x="1632" d="M80 715q0 101 26 197t73 177t114.5 149t148.5 115.5t176.5 74t196.5 26.5q151 0 287.5 -58t235 -157t156.5 -236t58 -288t-58 -287.5t-156.5 -234.5t-235 -155.5t-287.5 -57.5t-287.5 57.5t-234.5 155.5t-155.5 234.5t-57.5 287.5zM408 715q0 -167 120 -287.5t287 -120.5 q169 0 289.5 120.5t120.5 287.5q0 169 -120.5 290t-289.5 121q-167 0 -287 -121t-120 -290zM582 1612l61 289q11 38 39 38h192q28 0 38 -15.5t-1 -35.5l-159 -284q-16 -31 -37 -31h-94q-16 0 -29.5 12.5t-9.5 26.5zM922 1612l61 289q11 38 39 38h192q28 0 39 -16t-2 -35 l-159 -284q-22 -31 -37 -31h-94q-16 0 -29.5 12.5t-9.5 26.5z" />
<glyph unicode="&#x151;" horiz-adv-x="1103" d="M59 475q0 131 66.5 244.5t181 180.5t246.5 67t245.5 -67t179.5 -180.5t66 -244.5q0 -133 -66 -248t-179.5 -182.5t-245.5 -67.5q-99 0 -190.5 40t-158 107.5t-106 159.5t-39.5 191zM276 1106l62 289q12 39 39 39h192q28 0 38 -16t-1 -36l-160 -284q-16 -31 -36 -31h-95 q-16 0 -29.5 12.5t-9.5 26.5zM354 475q0 -84 58 -144.5t141 -60.5q81 0 139 60.5t58 144.5q0 82 -58 141.5t-139 59.5q-83 0 -141 -59.5t-58 -141.5zM616 1106l62 289q12 39 39 39h192q28 0 39 -16.5t-2 -35.5l-160 -284q-22 -31 -36 -31h-95q-16 0 -29.5 12.5t-9.5 26.5z " />
<glyph unicode="&#x152;" horiz-adv-x="2009" d="M80 715q0 101 26 197t73 177t114.5 149t148.5 115.5t176.5 74t196.5 26.5q47 0 100 -5t82 -10l29 -5h848q17 0 28 -11.5t11 -27.5v-224q0 -15 -11 -26.5t-28 -11.5h-567v-254h467q15 0 26.5 -12t11.5 -27v-224q0 -17 -11 -27.5t-27 -10.5h-467v-277h567q17 0 28 -11.5 t11 -27.5v-223q0 -16 -11 -27.5t-28 -11.5h-848q-109 -20 -211 -20q-151 0 -287.5 57.5t-234.5 155.5t-155.5 234.5t-57.5 287.5zM408 715q0 -110 54.5 -205.5t149 -152t203.5 -56.5q102 0 172 33v764q-68 32 -172 32q-167 0 -287 -123t-120 -292z" />
<glyph unicode="&#x153;" horiz-adv-x="1689" d="M59 477q0 98 39.5 188.5t106 156.5t158 105.5t190.5 39.5q172 0 317 -121q137 121 322 121q120 0 222 -55.5t164 -158t62 -229.5q0 -33 -4 -61q-1 -18 -15 -29.5t-30 -11.5h-583q-2 -57 50.5 -110.5t137.5 -53.5q101 0 188 59q14 10 30 12t28 -10l106 -139 q12 -12 13 -31.5t-11 -31.5q-137 -140 -354 -140q-185 0 -326 121q-141 -121 -317 -121q-99 0 -190.5 40.5t-158 108t-106 160t-39.5 191.5zM356 475q0 -84 58 -144.5t141 -60.5q81 0 139 60.5t58 144.5q0 82 -58 141.5t-139 59.5q-83 0 -141 -59.5t-58 -141.5zM1042 602 h279q-3 49 -41 83t-96 34q-56 0 -94.5 -33.5t-47.5 -83.5z" />
<glyph unicode="&#x154;" horiz-adv-x="1355" d="M162 39v1356q0 16 11 27.5t28 11.5h612q193 0 320 -129t127 -314q0 -140 -80.5 -248.5t-223.5 -162.5l281 -521q11 -20 0.5 -39.5t-35.5 -19.5h-272q-24 0 -33 18l-272 543h-142v-522q0 -15 -12 -27t-27 -12h-243q-17 0 -28 11.5t-11 27.5zM406 1665q-10 21 12 39 l348 213q8 7 27 6.5t26 -12.5l70 -121q21 -40 -12 -61l-373 -168q-35 -21 -55 18zM483 821h303q64 0 110 46.5t46 117.5q0 70 -45.5 113t-110.5 43h-303v-320z" />
<glyph unicode="&#x155;" horiz-adv-x="782" d="M115 45v856q0 20 13 32.5t32 12.5h98q32 0 43 -28l43 -105q83 154 236 154q120 0 184 -49q25 -18 6 -52l-94 -186q-20 -35 -53 -23q-40 15 -72 15q-55 0 -90 -36t-35 -95v-496q0 -45 -51 -45h-215q-19 0 -32 13t-13 32zM158 1153q-10 21 12 39l348 213q8 7 27 6.5 t26 -12.5l70 -121q21 -40 -12 -61l-373 -168q-35 -21 -55 18z" />
<glyph unicode="&#x156;" horiz-adv-x="1355" d="M162 39v1356q0 16 11 27.5t28 11.5h612q193 0 320 -129t127 -314q0 -140 -80.5 -248.5t-223.5 -162.5l281 -521q11 -20 0.5 -39.5t-35.5 -19.5h-272q-24 0 -33 18l-272 543h-142v-522q0 -15 -12 -27t-27 -12h-243q-17 0 -28 11.5t-11 27.5zM483 821h303q64 0 110 46.5 t46 117.5q0 70 -45.5 113t-110.5 43h-303v-320zM510 -295q0 76 49 120t127 44q86 0 141.5 -51.5t55.5 -161.5q0 -96 -29 -167t-78 -138q-21 -21 -47 -2l-61 45q-13 9 -14 23t10 24q22 26 35.5 63.5t13.5 69.5v14q-29 -18 -68 -18q-62 0 -98.5 37.5t-36.5 97.5z" />
<glyph unicode="&#x157;" horiz-adv-x="782" d="M94 -295q0 76 49 120t127 44q86 0 141.5 -51.5t55.5 -161.5q0 -96 -29 -167t-78 -138q-21 -21 -47 -2l-61 45q-13 9 -14 23t10 24q22 26 35.5 63.5t13.5 69.5v14q-29 -18 -68 -18q-62 0 -98.5 37.5t-36.5 97.5zM115 45v856q0 20 13 32.5t32 12.5h98q32 0 43 -28l43 -105 q83 154 236 154q120 0 184 -49q25 -18 6 -52l-94 -186q-20 -35 -53 -23q-40 15 -72 15q-55 0 -90 -36t-35 -95v-496q0 -45 -51 -45h-215q-19 0 -32 13t-13 32z" />
<glyph unicode="&#x158;" horiz-adv-x="1355" d="M162 39v1356q0 16 11 27.5t28 11.5h612q193 0 320 -129t127 -314q0 -140 -80.5 -248.5t-223.5 -162.5l281 -521q11 -20 0.5 -39.5t-35.5 -19.5h-272q-24 0 -33 18l-272 543h-142v-522q0 -15 -12 -27t-27 -12h-243q-17 0 -28 11.5t-11 27.5zM332 1812l69 95q7 10 20 13 t23 -3l203 -119l205 119q28 15 45 -8l68 -97q13 -18 -13 -38l-276 -213q-23 -17 -49 0l-283 213q-22 18 -12 38zM483 821h303q64 0 110 46.5t46 117.5q0 70 -45.5 113t-110.5 43h-303v-320z" />
<glyph unicode="&#x159;" horiz-adv-x="782" d="M88 1300l70 95q7 10 20 13t23 -3l202 -119l205 119q28 15 45 -8l68 -97q13 -18 -12 -38l-277 -213q-23 -17 -49 0l-283 213q-22 18 -12 38zM115 45v856q0 20 13 32.5t32 12.5h98q32 0 43 -28l43 -105q83 154 236 154q120 0 184 -49q25 -18 6 -52l-94 -186 q-20 -35 -53 -23q-40 15 -72 15q-55 0 -90 -36t-35 -95v-496q0 -45 -51 -45h-215q-19 0 -32 13t-13 32z" />
<glyph unicode="&#x15a;" horiz-adv-x="1132" d="M88 1047q0 78 30.5 149.5t87.5 129.5t149 93t206 35q229 0 438 -154q17 -9 19 -32.5t-6 -32.5l-105 -158q-12 -19 -35 -25t-55 11q-158 111 -276 111q-61 0 -93 -32.5t-32 -80.5t53.5 -91t169.5 -100q150 -73 204 -109q174 -114 204 -281q6 -38 6 -77q0 -80 -34 -155.5 t-94.5 -135t-153.5 -96t-202 -36.5q-93 0 -175.5 17t-138.5 44.5t-90 50.5t-56 45q-27 27 -9 62l95 166q11 19 33 21.5t36 -9.5q46 -31 75 -49t93 -41t123 -23q62 0 101.5 34.5t39.5 88.5q0 61 -50.5 107t-160.5 100q-72 35 -119.5 61t-105 68.5t-91.5 86t-57.5 105 t-23.5 132.5zM319 1665q-10 20 13 39l348 213q8 7 27 6.5t26 -12.5l70 -121q21 -40 -12 -61l-373 -168q-36 -21 -56 18z" />
<glyph unicode="&#x15b;" horiz-adv-x="882" d="M72 672q0 134 90 214.5t268 80.5q87 0 176.5 -21t147.5 -51q19 -9 26 -25.5t-2 -35.5l-73 -152q-4 -12 -20.5 -17t-29.5 1q-116 57 -221 57q-38 0 -52.5 -9.5t-14.5 -29.5q0 -18 25.5 -34t80.5 -36q46 -17 79.5 -31t72 -33t65 -37.5t52.5 -43.5t42 -52.5t25.5 -62.5 t9.5 -75q0 -129 -101.5 -215.5t-283.5 -86.5q-107 0 -196.5 23t-141.5 55q-31 19 -16 49l76 156q5 13 20 20.5t29 0.5q123 -60 233 -60q72 0 72 45q0 22 -36.5 43t-125.5 56q-143 56 -209.5 126.5t-66.5 180.5zM213 1153q-11 21 12 39l348 213q8 7 27.5 6.5t26.5 -12.5 l69 -121q21 -40 -12 -61l-373 -168q-35 -21 -55 18z" />
<glyph unicode="&#x15c;" horiz-adv-x="1132" d="M88 1047q0 78 30.5 149.5t87.5 129.5t149 93t206 35q229 0 438 -154q17 -9 19 -32.5t-6 -32.5l-105 -158q-12 -19 -35 -25t-55 11q-158 111 -276 111q-61 0 -93 -32.5t-32 -80.5t53.5 -91t169.5 -100q150 -73 204 -109q174 -114 204 -281q6 -38 6 -77q0 -80 -34 -155.5 t-94.5 -135t-153.5 -96t-202 -36.5q-93 0 -175.5 17t-138.5 44.5t-90 50.5t-56 45q-27 27 -9 62l95 166q11 19 33 21.5t36 -9.5q46 -31 75 -49t93 -41t123 -23q62 0 101.5 34.5t39.5 88.5q0 61 -50.5 107t-160.5 100q-72 35 -119.5 61t-105 68.5t-91.5 86t-57.5 105 t-23.5 132.5zM248 1665q-13 19 12 39l277 213q23 17 49 0l282 -213q23 -19 13 -39l-70 -94q-7 -10 -20 -13t-23 3l-203 118l-205 -118q-28 -15 -45 8z" />
<glyph unicode="&#x15d;" horiz-adv-x="882" d="M72 672q0 134 90 214.5t268 80.5q87 0 176.5 -21t147.5 -51q19 -9 26 -25.5t-2 -35.5l-73 -152q-4 -12 -20.5 -17t-29.5 1q-116 57 -221 57q-38 0 -52.5 -9.5t-14.5 -29.5q0 -18 25.5 -34t80.5 -36q46 -17 79.5 -31t72 -33t65 -37.5t52.5 -43.5t42 -52.5t25.5 -62.5 t9.5 -75q0 -129 -101.5 -215.5t-283.5 -86.5q-107 0 -196.5 23t-141.5 55q-31 19 -16 49l76 156q5 13 20 20.5t29 0.5q123 -60 233 -60q72 0 72 45q0 22 -36.5 43t-125.5 56q-143 56 -209.5 126.5t-66.5 180.5zM129 1153q-13 19 12 39l277 213q23 17 49 0l283 -213 q22 -18 12 -39l-70 -94q-7 -10 -20 -13t-23 3l-203 118l-204 -118q-28 -15 -45 8z" />
<glyph unicode="&#x15e;" horiz-adv-x="1132" d="M88 1047q0 78 30.5 149.5t87.5 129.5t149 93t206 35q229 0 438 -154q17 -9 19 -32.5t-6 -32.5l-105 -158q-12 -19 -35 -25t-55 11q-158 111 -276 111q-61 0 -93 -32.5t-32 -80.5t53.5 -91t169.5 -100q150 -73 204 -109q174 -114 204 -281q6 -38 6 -77q0 -102 -52 -194 t-155 -155t-236 -72l-61 -99q12 2 31 2q77 0 130.5 -44.5t53.5 -135.5q0 -100 -73.5 -157.5t-182.5 -57.5q-113 0 -172 49q-22 19 -2 64l20 47q20 48 62 20q10 -8 33.5 -17t48.5 -9q86 0 86 67q0 68 -86 68q-12 0 -24.5 -2.5t-19 -4.5t-17.5 -6.5t-13 -5.5q-17 -6 -33 9 t-8 30l86 187q-135 15 -224.5 60t-135.5 91q-27 27 -9 62l95 166q11 19 33 21.5t36 -9.5q46 -31 75 -49t93 -41t123 -23q62 0 101.5 34.5t39.5 88.5q0 61 -50.5 107t-160.5 100q-72 35 -119.5 61t-105 68.5t-91.5 86t-57.5 105t-23.5 132.5z" />
<glyph unicode="&#x15f;" horiz-adv-x="882" d="M72 672q0 134 92 214.5t276 80.5q103 0 186.5 -21.5t127.5 -50.5q40 -28 24 -61l-88 -158q-5 -12 -20 -17.5t-29 0.5q-131 64 -205 64q-69 0 -69 -37q0 -19 23 -34.5t83 -37.5q81 -28 137 -54.5t107 -65.5t76.5 -92.5t25.5 -122.5q0 -118 -87 -201t-247 -96l-61 -99 q12 2 31 2q77 0 130.5 -44.5t53.5 -135.5q0 -100 -73.5 -157.5t-182.5 -57.5q-113 0 -172 49q-22 19 -2 64l20 47q20 48 62 20q33 -26 82 -26q86 0 86 67q0 68 -86 68q-12 0 -24.5 -2.5t-19 -4.5t-17.5 -6.5t-13 -5.5q-17 -6 -33 9t-8 30l84 183q-85 7 -149.5 27.5 t-96.5 45.5q-27 27 -16 49l84 164q5 13 20 20.5t29 0.5q130 -68 223 -68q74 0 74 37q0 24 -34.5 48t-127.5 59q-142 55 -209 126t-67 181z" />
<glyph unicode="&#x160;" horiz-adv-x="1132" d="M88 1047q0 78 30.5 149.5t87.5 129.5t149 93t206 35q229 0 438 -154q17 -9 19 -32.5t-6 -32.5l-105 -158q-12 -19 -35 -25t-55 11q-158 111 -276 111q-61 0 -93 -32.5t-32 -80.5t53.5 -91t169.5 -100q150 -73 204 -109q174 -114 204 -281q6 -38 6 -77q0 -80 -34 -155.5 t-94.5 -135t-153.5 -96t-202 -36.5q-93 0 -175.5 17t-138.5 44.5t-90 50.5t-56 45q-27 27 -9 62l95 166q11 19 33 21.5t36 -9.5q46 -31 75 -49t93 -41t123 -23q62 0 101.5 34.5t39.5 88.5q0 61 -50.5 107t-160.5 100q-72 35 -119.5 61t-105 68.5t-91.5 86t-57.5 105 t-23.5 132.5zM246 1812l69 95q7 10 20 13t23 -3l203 -119l205 119q28 15 45 -8l68 -97q13 -18 -13 -38l-276 -213q-23 -17 -49 0l-283 213q-22 18 -12 38z" />
<glyph unicode="&#x161;" horiz-adv-x="882" d="M72 672q0 134 90 214.5t268 80.5q87 0 176.5 -21t147.5 -51q19 -9 26 -25.5t-2 -35.5l-73 -152q-4 -12 -20.5 -17t-29.5 1q-116 57 -221 57q-38 0 -52.5 -9.5t-14.5 -29.5q0 -18 25.5 -34t80.5 -36q46 -17 79.5 -31t72 -33t65 -37.5t52.5 -43.5t42 -52.5t25.5 -62.5 t9.5 -75q0 -129 -101.5 -215.5t-283.5 -86.5q-107 0 -196.5 23t-141.5 55q-31 19 -16 49l76 156q5 13 20 20.5t29 0.5q123 -60 233 -60q72 0 72 45q0 22 -36.5 43t-125.5 56q-143 56 -209.5 126.5t-66.5 180.5zM127 1300l70 95q7 10 20 13t23 -3l202 -119l205 119 q28 15 45 -8l68 -97q13 -18 -12 -38l-277 -213q-23 -17 -49 0l-283 213q-22 18 -12 38z" />
<glyph unicode="&#x162;" horiz-adv-x="1093" d="M53 1171v224q0 16 11 27.5t28 11.5h909q17 0 28 -11.5t11 -27.5v-224q0 -15 -11 -26.5t-28 -11.5h-292v-1094q0 -15 -12 -27t-27 -12h-60l-73 -117q12 2 30 2q77 0 131 -44.5t54 -135.5q0 -100 -73.5 -157.5t-182.5 -57.5q-113 0 -172 49q-22 19 -2 64l20 47q20 47 61 20 q33 -26 82 -26q86 0 86 67q0 68 -86 68q-12 0 -24.5 -2.5t-19 -4.5t-17 -6.5t-12.5 -5.5q-17 -6 -33 9t-8 30l92 201h-39q-15 0 -27 12t-12 27v1094h-293q-17 0 -28 11.5t-11 26.5z" />
<glyph unicode="&#x163;" horiz-adv-x="811" d="M63 711v190q0 20 11.5 32.5t29.5 12.5h78v262q0 19 13 32t32 13h226q17 0 29 -13t12 -32v-262h190q19 0 32 -12.5t13 -32.5v-190q0 -19 -13 -32t-32 -13h-190v-330q0 -66 63 -66q37 0 117 21q19 5 34 -3t19 -26l41 -178q4 -21 -3 -32.5t-28 -20.5q-81 -36 -207 -49 l-61 -99q12 2 31 2q77 0 130.5 -44.5t53.5 -135.5q0 -100 -73.5 -157.5t-182.5 -57.5q-113 0 -172 49q-22 19 -2 64l20 47q20 48 62 20q10 -8 33.5 -17t48.5 -9q86 0 86 67q0 68 -86 68q-12 0 -24.5 -2.5t-19 -4.5t-17.5 -6.5t-13 -5.5q-17 -6 -33 9t-8 30l86 187 q-99 22 -153 104t-54 217v359h-78q-17 0 -29 13t-12 32z" />
<glyph unicode="&#x164;" horiz-adv-x="1093" d="M53 1171v224q0 16 11 27.5t28 11.5h909q17 0 28 -11.5t11 -27.5v-224q0 -15 -11 -26.5t-28 -11.5h-292v-1094q0 -15 -12 -27t-27 -12h-246q-15 0 -27 12t-12 27v1094h-293q-17 0 -28 11.5t-11 26.5zM229 1812l70 95q7 10 20 13t23 -3l203 -119l205 119q28 15 45 -8 l67 -97q13 -18 -12 -38l-277 -213q-23 -17 -49 0l-282 213q-23 18 -13 38z" />
<glyph unicode="&#x165;" horiz-adv-x="860" d="M55 711v190q0 20 11.5 32.5t29.5 12.5h78v262q0 19 13 32t32 13h225q17 0 29 -13t12 -32v-262h191q19 0 32 -12.5t13 -32.5v-190q0 -19 -13 -32t-32 -13h-191v-330q0 -66 64 -66q37 0 117 21q19 5 34 -3t19 -26l41 -178q4 -21 -3 -32.5t-28 -20.5q-126 -54 -270 -54 q-136 0 -210.5 85t-74.5 245v359h-78q-17 0 -29 13t-12 32zM641 1290q0 76 49 120t127 44q86 0 141.5 -51.5t55.5 -161.5q0 -96 -29 -167t-78 -138q-21 -21 -47 -2l-61 45q-13 9 -14 23t10 24q22 26 35.5 63.5t13.5 69.5v15q-29 -19 -68 -19q-62 0 -98.5 37.5t-36.5 97.5z " />
<glyph unicode="&#x166;" horiz-adv-x="1093" d="M53 1171v224q0 16 11 27.5t28 11.5h909q17 0 28 -11.5t11 -27.5v-224q0 -15 -11 -26.5t-28 -11.5h-292v-428h178q17 0 28 -11.5t11 -27.5v-37q0 -15 -11 -26t-28 -11h-178v-553q0 -15 -12 -27t-27 -12h-246q-15 0 -27 12t-12 27v553h-168q-15 0 -26 12t-11 27v35 q0 15 11 27t26 12h168v428h-293q-17 0 -28 11.5t-11 26.5z" />
<glyph unicode="&#x167;" horiz-adv-x="808" d="M57 690v211q0 20 11.5 32.5t29.5 12.5h15h63v262q0 19 13 32t32 13h225q17 0 29 -13t12 -32v-262h191h14q19 0 32 -12.5t13 -32.5v-211q0 -19 -13 -32t-32 -13h-205v-119h205q19 0 32 -13t13 -32v-41q0 -17 -13 -30t-32 -13h-205v-61q0 -66 64 -66q37 0 117 21 q19 5 34 -3t19 -26l41 -178q4 -21 -3 -32.5t-28 -20.5q-126 -54 -270 -54q-136 0 -210.5 85t-74.5 245v90h-63q-17 0 -29 13.5t-12 31.5v39q0 19 12 32t29 13h63v119h-63q-56 0 -56 45z" />
<glyph unicode="&#x168;" horiz-adv-x="1462" d="M147 524v871q0 15 12 27t27 12h252q17 0 28 -11.5t11 -27.5v-854q0 -110 70 -172t182 -62q113 0 184.5 62t71.5 172v854q0 16 11 27.5t28 11.5h252q15 0 27 -12t12 -27v-871q0 -152 -78.5 -277.5t-213 -196t-294.5 -70.5q-159 0 -292.5 70.5t-211.5 195.5t-78 278z M406.5 1687q-3.5 15 1.5 25q10 19 28 43t46.5 55.5t67 52.5t77.5 21q41 0 79.5 -24t73.5 -48t68 -24q40 0 78 63q8 13 21.5 15t29.5 -11l70 -53q27 -20 2 -59q-12 -21 -26.5 -41t-41.5 -50.5t-63 -49.5t-74 -19q-45 0 -86.5 24.5t-76.5 49t-63 24.5q-17 0 -31.5 -11.5 t-31 -34.5t-18.5 -25q-19 -19 -45 -2l-72 57q-10 7 -13.5 22z" />
<glyph unicode="&#x169;" horiz-adv-x="1099" d="M106 428v473q0 20 13 32.5t31 12.5h223q19 0 32 -12.5t13 -32.5v-467q0 -83 29 -123.5t98 -40.5q66 0 97.5 40.5t31.5 107.5v483q0 45 51 45h215q19 0 32 -12.5t13 -32.5v-856q0 -19 -13 -32t-32 -13h-94q-28 0 -45 33l-33 88q-139 -144 -299 -144q-101 0 -172.5 32 t-112.5 93.5t-59.5 141t-18.5 184.5zM232 1216q-4 15 1 25q10 19 28 43.5t47 55.5t67.5 52t77.5 21q41 0 79.5 -24t73.5 -48t68 -24q40 0 78 63q8 13 21.5 15t29.5 -11l69 -53q27 -20 2 -59q-9 -16 -18.5 -30.5t-30.5 -40t-42 -43.5t-51.5 -32t-61.5 -14q-45 0 -86.5 24.5 t-76.5 49t-63 24.5q-17 0 -31.5 -11.5t-32 -35t-18.5 -24.5q-19 -19 -45 -2l-71 57q-10 7 -14 22z" />
<glyph unicode="&#x16a;" horiz-adv-x="1462" d="M147 524v871q0 15 12 27t27 12h252q17 0 28 -11.5t11 -27.5v-854q0 -110 70 -172t182 -62q113 0 184.5 62t71.5 172v854q0 16 11 27.5t28 11.5h252q15 0 27 -12t12 -27v-871q0 -152 -78.5 -277.5t-213 -196t-294.5 -70.5q-159 0 -292.5 70.5t-211.5 195.5t-78 278z M430 1677v84q0 17 11 28t28 11h524q17 0 28 -11t11 -28v-84q0 -15 -11 -26t-28 -11h-524q-17 0 -28 11t-11 26z" />
<glyph unicode="&#x16b;" horiz-adv-x="1099" d="M106 428v473q0 20 13 32.5t31 12.5h223q19 0 32 -12.5t13 -32.5v-467q0 -83 29 -123.5t98 -40.5q66 0 97.5 40.5t31.5 107.5v483q0 45 51 45h215q19 0 32 -12.5t13 -32.5v-856q0 -19 -13 -32t-32 -13h-94q-28 0 -45 33l-33 88q-139 -144 -299 -144q-101 0 -172.5 32 t-112.5 93.5t-59.5 141t-18.5 184.5zM254 1190v84q0 17 11 28t28 11h524q17 0 28 -11t11 -28v-84q0 -15 -11 -26t-28 -11h-524q-17 0 -28 11t-11 26z" />
<glyph unicode="&#x16c;" horiz-adv-x="1462" d="M147 524v871q0 15 12 27t27 12h252q17 0 28 -11.5t11 -27.5v-854q0 -110 70 -172t182 -62q113 0 184.5 62t71.5 172v854q0 16 11 27.5t28 11.5h252q15 0 27 -12t12 -27v-871q0 -152 -78.5 -277.5t-213 -196t-294.5 -70.5q-159 0 -292.5 70.5t-211.5 195.5t-78 278z M440 1808q-3 19 8 32t31 13h92q12 0 22 -7.5t13 -16.5q14 -43 48 -70.5t77 -27.5q38 0 72.5 29.5t48.5 68.5q3 10 13.5 17t21.5 7h96q19 0 30 -13t9 -32q-17 -106 -98.5 -175.5t-192.5 -69.5q-113 0 -194.5 70t-96.5 175z" />
<glyph unicode="&#x16d;" horiz-adv-x="1099" d="M106 428v473q0 20 13 32.5t31 12.5h223q19 0 32 -12.5t13 -32.5v-467q0 -83 29 -123.5t98 -40.5q66 0 97.5 40.5t31.5 107.5v483q0 45 51 45h215q19 0 32 -12.5t13 -32.5v-856q0 -19 -13 -32t-32 -13h-94q-28 0 -45 33l-33 88q-139 -144 -299 -144q-101 0 -172.5 32 t-112.5 93.5t-59.5 141t-18.5 184.5zM270 1325q-3 19 8 32t31 13h92q12 0 22 -7.5t13 -16.5q14 -43 48 -71t77 -28q38 0 72.5 30t48.5 69q3 10 13.5 17t21.5 7h96q19 0 30 -13t9 -32q-17 -106 -98.5 -176t-192.5 -70q-113 0 -194.5 70t-96.5 176z" />
<glyph unicode="&#x16e;" horiz-adv-x="1462" d="M147 524v871q0 15 12 27t27 12h252q17 0 28 -11.5t11 -27.5v-854q0 -110 70 -172t182 -62q113 0 184.5 62t71.5 172v854q0 16 11 27.5t28 11.5h252q15 0 27 -12t12 -27v-871q0 -152 -78.5 -277.5t-213 -196t-294.5 -70.5q-159 0 -292.5 70.5t-211.5 195.5t-78 278z M496 1776q0 98 68.5 166.5t166.5 68.5q97 0 166.5 -68.5t69.5 -166.5t-69.5 -167t-166.5 -69q-98 0 -166.5 69t-68.5 167zM641 1776q0 -35 27.5 -62.5t62.5 -27.5t61.5 27.5t26.5 62.5t-26.5 61.5t-61.5 26.5t-62.5 -26.5t-27.5 -61.5z" />
<glyph unicode="&#x16f;" horiz-adv-x="1099" d="M106 428v473q0 20 13 32.5t31 12.5h223q19 0 32 -12.5t13 -32.5v-467q0 -83 29 -123.5t98 -40.5q66 0 97.5 40.5t31.5 107.5v483q0 45 51 45h215q19 0 32 -12.5t13 -32.5v-856q0 -19 -13 -32t-32 -13h-94q-28 0 -45 33l-33 88q-139 -144 -299 -144q-101 0 -172.5 32 t-112.5 93.5t-59.5 141t-18.5 184.5zM326 1282q0 98 68.5 167t166.5 69q97 0 166.5 -69t69.5 -167t-69.5 -166.5t-166.5 -68.5q-98 0 -166.5 68.5t-68.5 166.5zM471 1282q0 -35 27.5 -62.5t62.5 -27.5t61.5 27.5t26.5 62.5t-26.5 61.5t-61.5 26.5t-62.5 -26.5t-27.5 -61.5z " />
<glyph unicode="&#x170;" horiz-adv-x="1462" d="M147 524v871q0 15 12 27t27 12h252q17 0 28 -11.5t11 -27.5v-854q0 -110 70 -172t182 -62q113 0 184.5 62t71.5 172v854q0 16 11 27.5t28 11.5h252q15 0 27 -12t12 -27v-871q0 -152 -78.5 -277.5t-213 -196t-294.5 -70.5q-159 0 -292.5 70.5t-211.5 195.5t-78 278z M477 1612l62 289q11 38 39 38h192q28 0 38 -15.5t-1 -35.5l-160 -284q-15 -31 -37 -31h-94q-16 0 -29.5 12.5t-9.5 26.5zM817 1612l62 289q11 38 39 38h192q28 0 39 -16t-2 -35l-160 -284q-22 -31 -37 -31h-94q-16 0 -29.5 12.5t-9.5 26.5z" />
<glyph unicode="&#x171;" horiz-adv-x="1097" d="M104 428v473q0 20 12.5 32.5t30.5 12.5h224q19 0 32 -12.5t13 -32.5v-467q0 -83 29 -123.5t98 -40.5q66 0 97.5 40.5t31.5 107.5v483q0 45 51 45h215q19 0 32 -12.5t13 -32.5v-856q0 -19 -13 -32t-32 -13h-94q-28 0 -45 33l-33 88q-139 -144 -299 -144q-101 0 -172.5 32 t-112.5 93.5t-59.5 141t-18.5 184.5zM287 1106l61 289q12 39 39 39h193q28 0 38 -16t-2 -36l-159 -284q-15 -31 -37 -31h-94q-16 0 -29.5 12.5t-9.5 26.5zM627 1106l61 289q12 39 39 39h193q28 0 38.5 -16.5t-2.5 -35.5l-159 -284q-22 -31 -37 -31h-94q-16 0 -29.5 12.5 t-9.5 26.5z" />
<glyph unicode="&#x172;" horiz-adv-x="1462" d="M147 549v846q0 15 12 27t27 12h252q17 0 28 -11.5t11 -27.5v-830q0 -108 72 -183t180 -75q109 0 182.5 75t73.5 183v830q0 16 11 27.5t28 11.5h252q15 0 27 -12t12 -27v-846q0 -195 -124 -349t-314 -202q-66 -48 -123.5 -114.5t-57.5 -125.5q0 -75 70 -75q35 0 69.5 20 t53.5 39q13 14 29 8.5t16 -24.5v-117q0 -48 -33 -70q-75 -49 -188 -49q-106 0 -163.5 62t-57.5 157q0 146 161 277q-142 17 -258 96.5t-182 202.5t-66 264z" />
<glyph unicode="&#x173;" horiz-adv-x="1099" d="M106 444v457q0 20 13 32.5t31 12.5h223q19 0 32 -12.5t13 -32.5v-450q0 -181 127 -181q65 0 97 47.5t32 116.5v467q0 45 51 45h215q19 0 32 -12.5t13 -32.5v-844q0 -36 -31 -55q-62 -41 -124 -111.5t-62 -132.5q0 -75 70 -75q35 0 69.5 20t53.5 39q13 14 29 8.5t16 -24.5 v-117q0 -48 -33 -70q-75 -49 -189 -49q-106 0 -163.5 62t-57.5 157q0 48 24 98t63.5 92.5t76 74t74.5 57.5l-33 90q-4 -5 -24 -26t-28.5 -29t-29.5 -26t-39 -26t-45 -18.5t-59 -14.5t-70 -4q-102 0 -175 34.5t-114 99.5t-59.5 146.5t-18.5 186.5z" />
<glyph unicode="&#x174;" horiz-adv-x="1810" d="M37 1384q-6 22 4.5 36t32.5 14h239q12 0 23 -9t14 -20l176 -694h9l317 721q11 22 35 22h37q27 0 34 -22l318 -721h8l176 694q3 11 14 20t23 9h240q22 0 32.5 -14t4.5 -36l-388 -1376q-3 -12 -13.5 -20t-22.5 -8h-33q-24 0 -35 22l-375 838h-6l-373 -838q-11 -22 -34 -22 h-33q-12 0 -23 8t-14 20zM586 1665q-13 19 12 39l276 213q24 18 50 0l282 -213q23 -19 13 -39l-70 -94q-7 -10 -20 -13t-23 3l-203 118l-205 -118q-28 -15 -45 8z" />
<glyph unicode="&#x175;" horiz-adv-x="1474" d="M31 889q-8 24 4.5 40.5t38.5 16.5h202q12 0 25.5 -8t17.5 -20l138 -394h2l231 424q10 19 37 19h23q28 0 36 -19l234 -424h2l135 394q10 28 47 28h199q25 0 38 -17.5t5 -39.5l-313 -883q-5 -12 -17.5 -20.5t-25.5 -8.5h-11q-8 0 -21 7t-16 14l-305 510h-2l-301 -510 q-4 -7 -16.5 -14t-20.5 -7h-12q-12 0 -24.5 8.5t-16.5 20.5zM428 1153q-13 19 12 39l277 213q23 17 49 0l283 -213q23 -18 12 -39l-70 -94q-7 -10 -20 -13t-23 3l-203 118l-204 -118q-28 -15 -45 8z" />
<glyph unicode="&#x176;" horiz-adv-x="1232" d="M0.5 1414q10.5 20 34.5 20h266q19 0 33 -19l284 -420l285 420q14 19 33 19h266q24 0 34.5 -20t-1.5 -40l-459 -682v-653q0 -15 -12 -27t-27 -12h-243q-17 0 -28 11.5t-11 27.5v651l-453 684q-12 20 -1.5 40zM303 1665q-13 19 12 39l277 213q23 17 49 0l283 -213 q22 -18 12 -39l-70 -94q-7 -10 -20 -13t-23 3l-202 118l-205 -118q-28 -15 -45 8z" />
<glyph unicode="&#x177;" horiz-adv-x="1013" d="M37 885q-8 24 3 42.5t36 18.5h243q13 0 23.5 -7t13.5 -19l129 -502h4l183 502q10 26 41 26h233q28 0 40 -18t1 -43l-559 -1344q-5 -11 -16 -19.5t-23 -8.5h-229q-26 0 -38 19t-1 44l196 496zM203 1153q-13 19 12 39l277 213q23 17 49 0l282 -213q23 -19 13 -39l-70 -94 q-7 -10 -20 -13t-23 3l-203 118l-205 -118q-28 -15 -45 8z" />
<glyph unicode="&#x178;" horiz-adv-x="1232" d="M0.5 1414q10.5 20 34.5 20h266q19 0 33 -19l284 -420l285 420q14 19 33 19h266q24 0 34.5 -20t-1.5 -40l-459 -682v-653q0 -15 -12 -27t-27 -12h-243q-17 0 -28 11.5t-11 27.5v651l-453 684q-12 20 -1.5 40zM193 1718q0 65 44.5 109.5t108.5 44.5q65 0 110.5 -45 t45.5 -109t-45.5 -109.5t-110.5 -45.5q-64 0 -108.5 45t-44.5 110zM735 1718q0 64 44.5 109t109.5 45t110 -45t45 -109t-45 -109.5t-110 -45.5q-64 0 -109 45t-45 110z" />
<glyph unicode="&#x179;" horiz-adv-x="1110" d="M47 39v14q0 27 12 49l533 1026v5h-447q-15 0 -27 11.5t-12 26.5v224q0 15 12 27t27 12h871q15 0 27 -10t12 -25v-17q0 -13 -13 -39l-514 -1038v-4h447q17 0 28 -11.5t11 -27.5v-223q0 -16 -11 -27.5t-28 -11.5h-889q-15 0 -27 12t-12 27zM328 1665q-10 21 12 39l348 213 q8 7 27 6.5t26 -12.5l70 -121q21 -40 -12 -61l-373 -168q-35 -21 -55 18z" />
<glyph unicode="&#x17a;" horiz-adv-x="860" d="M61 45q0 22 15 53l295 559v5h-244q-17 0 -30 13t-13 32v194q0 20 12.5 32.5t30.5 12.5h641q27 0 39.5 -19.5t-0.5 -45.5l-318 -594v-4h232q19 0 32 -12.5t13 -32.5v-193q0 -19 -13 -32t-32 -13h-615q-19 0 -32 13t-13 32zM223 1153q-10 20 13 39l348 213q8 7 27 6.5 t26 -12.5l70 -121q21 -40 -13 -61l-372 -168q-36 -21 -56 18z" />
<glyph unicode="&#x17b;" horiz-adv-x="1110" d="M47 39v14q0 27 12 49l533 1026v5h-447q-15 0 -27 11.5t-12 26.5v224q0 15 12 27t27 12h871q15 0 27 -10t12 -25v-17q0 -13 -13 -39l-514 -1038v-4h447q17 0 28 -11.5t11 -27.5v-223q0 -16 -11 -27.5t-28 -11.5h-889q-15 0 -27 12t-12 27zM395 1745q0 74 51.5 127 t124.5 53t126 -53t53 -127q0 -72 -53 -124t-126 -52t-124.5 52t-51.5 124z" />
<glyph unicode="&#x17c;" horiz-adv-x="860" d="M61 45q0 22 15 53l295 559v5h-244q-17 0 -30 13t-13 32v194q0 20 12.5 32.5t30.5 12.5h641q27 0 39.5 -19.5t-0.5 -45.5l-318 -594v-4h232q19 0 32 -12.5t13 -32.5v-193q0 -19 -13 -32t-32 -13h-615q-19 0 -32 13t-13 32zM268 1253q0 74 51.5 127.5t124.5 53.5t126 -53.5 t53 -127.5q0 -72 -53 -124t-126 -52t-124.5 52t-51.5 124z" />
<glyph unicode="&#x17d;" horiz-adv-x="1110" d="M47 39v14q0 27 12 49l533 1026v5h-447q-15 0 -27 11.5t-12 26.5v224q0 15 12 27t27 12h871q15 0 27 -10t12 -25v-17q0 -13 -13 -39l-514 -1038v-4h447q17 0 28 -11.5t11 -27.5v-223q0 -16 -11 -27.5t-28 -11.5h-889q-15 0 -27 12t-12 27zM254 1812l70 95q7 10 20 13 t23 -3l202 -119l205 119q28 15 45 -8l68 -97q13 -18 -13 -38l-276 -213q-23 -17 -49 0l-283 213q-22 18 -12 38z" />
<glyph unicode="&#x17e;" horiz-adv-x="860" d="M61 45q0 22 15 53l295 559v5h-244q-17 0 -30 13t-13 32v194q0 20 12.5 32.5t30.5 12.5h641q27 0 39.5 -19.5t-0.5 -45.5l-318 -594v-4h232q19 0 32 -12.5t13 -32.5v-193q0 -19 -13 -32t-32 -13h-615q-19 0 -32 13t-13 32zM137 1300l70 95q7 10 20 13t23 -3l203 -119 l204 119q28 15 45 -8l68 -97q13 -18 -12 -38l-277 -213q-23 -17 -49 0l-282 213q-23 18 -13 38z" />
<glyph unicode="&#x192;" horiz-adv-x="827" d="M-119 -408q-3 14 4 27l99 162q7 12 21 16t26 -2q51 -22 86 -22q57 0 93 41.5t36 122.5v622h-166q-17 0 -28 11.5t-11 27.5v182q0 17 11 28t28 11h166v191q0 208 119.5 326t318.5 118q132 0 227 -78q10 -10 13 -24t-4 -27l-99 -162q-7 -12 -21 -16t-26 2q-51 22 -86 22 q-58 0 -93.5 -41t-35.5 -122v-189h189q17 0 27.5 -11t10.5 -28v-182q0 -16 -10.5 -27.5t-27.5 -11.5h-189v-625q0 -206 -123 -325t-315 -119q-132 0 -227 78q-10 10 -13 24z" />
<glyph unicode="&#x1fa;" horiz-adv-x="1376" d="M2 53l596 1282q-65 27 -105 86t-40 133q0 98 68.5 167t166.5 69q97 0 166.5 -69t69.5 -167q0 -74 -41 -133t-107 -86l598 -1282q9 -20 -1.5 -36.5t-33.5 -16.5h-227q-28 0 -43.5 11t-28.5 40l-73 162h-557l-74 -164q-20 -49 -74 -49h-225q-23 0 -33.5 16.5t-1.5 36.5z M444 1896q-10 20 13 39l348 213q8 7 27 6.5t26 -12.5l70 -121q21 -40 -13 -61l-372 -168q-36 -21 -56 18zM532 492h312l-156 337h-2zM598 1554q0 -35 27.5 -62.5t62.5 -27.5t61.5 27.5t26.5 62.5t-26.5 61.5t-61.5 26.5t-62.5 -26.5t-27.5 -61.5z" />
<glyph unicode="&#x1fb;" horiz-adv-x="1001" d="M59 289q0 139 95 227t254 88q47 0 93.5 -10t69.5 -20l23 -11q0 76 -26.5 111t-104.5 35q-50 0 -121.5 -10t-116.5 -23q-50 -16 -57 49l-23 145q-4 28 7.5 44.5t29.5 21.5q22 8 126.5 19.5t189.5 11.5q217 0 306 -93t89 -307v-522q0 -18 -13.5 -31.5t-31.5 -13.5h-100 q-29 0 -43 31l-31 63q-30 -25 -50 -40t-57 -36t-82 -31t-98 -10q-142 0 -235 86.5t-93 225.5zM268 1581q-10 20 13 39l348 172q8 7 28 6.5t27 -12.5l68 -121q21 -40 -13 -61l-372 -127q-36 -21 -56 18zM276 1257q0 96 68 156t168 60q99 0 167.5 -60t68.5 -156t-68.5 -155.5 t-167.5 -59.5q-101 0 -168.5 59.5t-67.5 155.5zM365 311q0 -43 30.5 -73.5t73.5 -30.5t74.5 30.5t31.5 73.5q0 41 -31.5 73t-74.5 32q-42 0 -73 -31.5t-31 -73.5zM422 1257q0 -33 26 -51t64 -18t63 17.5t25 51.5q0 33 -25 50.5t-63 17.5t-64 -17.5t-26 -50.5z" />
<glyph unicode="&#x1fc;" horiz-adv-x="1841" d="M-32 16.5q-7 16.5 5 36.5l822 1317q2 3 7.5 11.5t7 11t6.5 9t7 8.5l7 7t8.5 6.5t9 4.5t10.5 3.5t12 1.5t15 1h821q17 0 28 -11.5t11 -27.5v-224q0 -15 -11 -26.5t-28 -11.5h-567v-254h467q15 0 27 -12t12 -27v-224q0 -17 -11.5 -27.5t-27.5 -10.5h-467v-277h567 q17 0 28 -11.5t11 -27.5v-223q0 -16 -11 -27.5t-28 -11.5h-848q-17 0 -28 11.5t-11 27.5v174h-377l-108 -178q-20 -35 -60 -35h-276q-23 0 -30 16.5zM594 492h225v362zM1004 1667q-10 21 12 39l348 213q8 7 27 6.5t26 -12.5l70 -121q21 -40 -12 -61l-373 -168 q-35 -21 -55 18z" />
<glyph unicode="&#x1fd;" horiz-adv-x="1564" d="M59 293q0 136 94.5 223.5t260.5 87.5q42 0 87 -10t69 -20l24 -11q2 80 -26.5 113t-100.5 33q-49 0 -122.5 -9.5t-117.5 -21.5q-47 -13 -55 39l-27 170q-1 16 11 30t28 17q189 33 316 33q207 0 299 -80q119 80 270 80q184 0 315.5 -126t131.5 -317v-28t-2.5 -26 t-7.5 -25.5t-14.5 -15.5t-23.5 -7h-585q2 -60 55 -111t139 -51q100 0 185 59q11 11 29 12t28 -12l102 -139q14 -12 14.5 -31.5t-12.5 -31.5q-137 -140 -348 -140q-104 0 -197.5 41t-158.5 115q-15 -19 -39.5 -41t-66 -50t-101 -46.5t-123.5 -18.5q-150 0 -240 87t-90 229z M365 311q0 -43 30.5 -73.5t73.5 -30.5t74.5 30.5t31.5 73.5q0 41 -31.5 73t-74.5 32q-42 0 -73 -31.5t-31 -73.5zM614 1153q-10 20 13 39l348 213q8 7 27 6.5t26 -12.5l70 -121q21 -40 -13 -61l-372 -168q-36 -21 -56 18zM918 602h278q-3 49 -41 83t-96 34q-56 0 -94 -33.5 t-47 -83.5z" />
<glyph unicode="&#x1fe;" horiz-adv-x="1634" d="M82 715q0 101 26 197t73 177t114.5 149t148.5 115.5t176.5 74t196.5 26.5q274 0 481 -178l144 141q11 12 26.5 11.5t26.5 -11.5l25 -24q12 -11 12 -26.5t-12 -27.5l-144 -143q178 -207 178 -481q0 -151 -58 -287.5t-156.5 -234.5t-235 -155.5t-287.5 -57.5 q-138 0 -261 46t-220 130l-137 -136q-11 -10 -27 -9t-27 12l-24 24q-11 11 -11.5 26.5t9.5 26.5l137 136q-174 206 -174 479zM410 715q0 -135 82 -244l573 571q-115 84 -248 84q-167 0 -287 -121t-120 -290zM571 391q108 -84 246 -84q169 0 289.5 120.5t120.5 287.5 q0 140 -84 248zM573 1665q-10 20 13 39l348 213q8 7 27 6.5t26 -12.5l70 -121q21 -40 -13 -61l-372 -168q-36 -21 -56 18z" />
<glyph unicode="&#x1ff;" horiz-adv-x="1105" d="M61 475q0 131 66.5 244.5t181 180.5t246.5 67q169 0 299 -105l70 70q12 13 30.5 12.5t30.5 -12.5l29 -29q14 -11 14 -29t-14 -30l-70 -72q103 -134 103 -297q0 -99 -39 -191t-105 -159.5t-157.5 -107.5t-190.5 -40q-164 0 -295 101l-59 -60q-12 -12 -30.5 -11t-29.5 13 l-30 29q-11 14 -11.5 32t9.5 32l57 57q-105 137 -105 305zM309 1153q-10 20 13 39l348 213q8 7 27 6.5t26 -12.5l70 -121q21 -40 -13 -61l-372 -168q-36 -21 -56 18zM356 475q0 -45 21 -92l268 268q-42 25 -90 25q-83 0 -141 -59.5t-58 -141.5zM469 289q40 -19 86 -19 q81 0 139 60.5t58 144.5q0 41 -19 84z" />
<glyph unicode="&#x218;" horiz-adv-x="1132" d="M88 1047q0 78 30.5 149.5t87.5 129.5t149 93t206 35q229 0 438 -154q17 -9 19 -32.5t-6 -32.5l-105 -158q-12 -19 -35 -25t-55 11q-158 111 -276 111q-61 0 -93 -32.5t-32 -80.5t53.5 -91t169.5 -100q150 -73 204 -109q174 -114 204 -281q6 -38 6 -77q0 -80 -34 -155.5 t-94.5 -135t-153.5 -96t-202 -36.5q-93 0 -175.5 17t-138.5 44.5t-90 50.5t-56 45q-27 27 -9 62l95 166q11 19 33 21.5t36 -9.5q46 -31 75 -49t93 -41t123 -23q62 0 101.5 34.5t39.5 88.5q0 61 -50.5 107t-160.5 100q-72 35 -119.5 61t-105 68.5t-91.5 86t-57.5 105 t-23.5 132.5zM381 -295q0 76 49 120t127 44q86 0 141.5 -51.5t55.5 -161.5q0 -96 -29 -167t-78 -138q-21 -21 -47 -2l-61 45q-13 9 -14 23t10 24q22 26 35.5 63.5t13.5 69.5v14q-29 -18 -68 -18q-62 0 -98.5 37.5t-36.5 97.5z" />
<glyph unicode="&#x219;" horiz-adv-x="882" d="M72 672q0 134 90 214.5t268 80.5q87 0 176.5 -21t147.5 -51q19 -9 26 -25.5t-2 -35.5l-73 -152q-4 -12 -20.5 -17t-29.5 1q-116 57 -221 57q-38 0 -52.5 -9.5t-14.5 -29.5q0 -18 25.5 -34t80.5 -36q46 -17 79.5 -31t72 -33t65 -37.5t52.5 -43.5t42 -52.5t25.5 -62.5 t9.5 -75q0 -129 -101.5 -215.5t-283.5 -86.5q-107 0 -196.5 23t-141.5 55q-31 19 -16 49l76 156q5 13 20 20.5t29 0.5q123 -60 233 -60q72 0 72 45q0 22 -36.5 43t-125.5 56q-143 56 -209.5 126.5t-66.5 180.5zM272 -295q0 76 49.5 120t127.5 44q86 0 141 -51.5t55 -161.5 q0 -96 -29 -167.5t-77 -137.5q-21 -21 -47 -2l-62 45q-13 9 -14 23t10 24q22 26 35.5 63.5t13.5 69.5v14q-28 -18 -67 -18q-62 0 -99 38t-37 97z" />
<glyph unicode="&#x21a;" horiz-adv-x="1093" d="M53 1171v224q0 16 11 27.5t28 11.5h909q17 0 28 -11.5t11 -27.5v-224q0 -15 -11 -26.5t-28 -11.5h-292v-1094q0 -15 -12 -27t-27 -12h-246q-15 0 -27 12t-12 27v1094h-293q-17 0 -28 11.5t-11 26.5zM352 -295q0 76 49 120t127 44q86 0 141.5 -51.5t55.5 -161.5 q0 -96 -29 -167t-78 -138q-21 -21 -47 -2l-61 45q-13 9 -14 23t10 24q22 26 35.5 63.5t13.5 69.5v14q-29 -18 -68 -18q-62 0 -98.5 37.5t-36.5 97.5z" />
<glyph unicode="&#x21b;" horiz-adv-x="802" d="M55 711v190q0 20 11.5 32.5t29.5 12.5h78v262q0 19 13 32t32 13h225q17 0 29 -13t12 -32v-262h191q19 0 32 -12.5t13 -32.5v-190q0 -19 -13 -32t-32 -13h-191v-330q0 -66 64 -66q37 0 117 21q19 5 34 -3t19 -26l41 -178q4 -21 -3 -32.5t-28 -20.5q-126 -54 -270 -54 q-136 0 -210.5 85t-74.5 245v359h-78q-17 0 -29 13t-12 32zM272 -295q0 76 49.5 120t127.5 44q86 0 141 -51.5t55 -161.5q0 -96 -29 -167.5t-77 -137.5q-21 -21 -47 -2l-62 45q-13 9 -14 23t10 24q22 26 35.5 63.5t13.5 69.5v14q-28 -18 -67 -18q-62 0 -99 38t-37 97z" />
<glyph unicode="&#x237;" horiz-adv-x="544" d="M-80 -317q-18 49 33 69q164 64 164 215v934q0 20 13 32.5t32 12.5h221q19 0 32 -12.5t13 -32.5v-909q0 -105 -28.5 -192.5t-78 -147t-110 -98t-131.5 -56.5q-43 -10 -65.5 -2t-34.5 37z" />
<glyph unicode="&#x2c6;" horiz-adv-x="763" d="M66 1153q-13 19 12 39l276 213q23 17 49 0l283 -213q23 -18 12 -39l-69 -94q-7 -10 -20 -13t-23 3l-203 118l-205 -118q-28 -15 -45 8z" />
<glyph unicode="&#x2c7;" horiz-adv-x="763" d="M63 1300l70 95q7 10 20 13t23 -3l203 -119l205 119q28 15 45 -8l67 -97q13 -18 -12 -38l-276 -213q-24 -18 -50 0l-282 213q-23 18 -13 38z" />
<glyph unicode="&#x2c9;" horiz-adv-x="847" d="M123 1190v84q0 17 11 28t28 11h524q17 0 28 -11t11 -28v-84q0 -15 -11 -26t-28 -11h-524q-17 0 -28 11t-11 26z" />
<glyph unicode="&#x2d8;" horiz-adv-x="708" d="M63 1325q-3 19 8 32t31 13h93q11 0 21 -7t13 -17q14 -43 48 -71t77 -28q38 0 72.5 30t48.5 69q3 10 13.5 17t21.5 7h96q19 0 30 -13t9 -32q-17 -106 -98.5 -176t-192.5 -70q-113 0 -194.5 70t-96.5 176z" />
<glyph unicode="&#x2d9;" horiz-adv-x="448" d="M47 1227q0 74 51.5 127t124.5 53t125.5 -53t52.5 -127q0 -72 -52.5 -124t-125.5 -52t-124.5 52t-51.5 124z" />
<glyph unicode="&#x2da;" horiz-adv-x="593" d="M61 1219q0 98 69 166.5t167 68.5q97 0 166 -68.5t69 -166.5t-69 -167t-166 -69q-98 0 -167 69t-69 167zM207 1219q0 -35 27.5 -63t62.5 -28t61.5 27.5t26.5 63.5q0 35 -26.5 61.5t-61.5 26.5t-62.5 -26.5t-27.5 -61.5z" />
<glyph unicode="&#x2db;" horiz-adv-x="565" d="M43 -291q0 52 18.5 99.5t52 86t59 61.5t60.5 50h207q-37 -26 -75.5 -60.5t-77.5 -89t-39 -98.5q0 -75 69 -75q35 0 69.5 20t53.5 39q14 14 29.5 8.5t15.5 -24.5v-117q0 -49 -32 -70q-75 -49 -189 -49q-106 0 -163.5 62t-57.5 157z" />
<glyph unicode="&#x2dc;" horiz-adv-x="778" d="M64.5 1216q-3.5 15 1.5 25q10 19 28 43t46.5 55.5t67 52.5t77.5 21q41 0 79.5 -24t73.5 -48t68 -24q40 0 78 63q8 13 21.5 15t29.5 -11l70 -53q27 -20 2 -59q-12 -21 -26.5 -41t-41.5 -50.5t-63 -49.5t-74 -19q-45 0 -86.5 24.5t-76.5 49t-63 24.5q-17 0 -31.5 -11.5 t-31 -34.5t-18.5 -25q-19 -19 -45 -2l-72 57q-10 7 -13.5 22z" />
<glyph unicode="&#x2dd;" horiz-adv-x="802" d="M63 1106l62 289q12 39 39 39h192q28 0 38 -16t-1 -36l-160 -284q-15 -31 -36 -31h-95q-16 0 -29.5 12.5t-9.5 26.5zM403 1106l62 289q12 39 39 39h192q28 0 39 -16.5t-2 -35.5l-160 -284q-22 -31 -36 -31h-95q-16 0 -29.5 12.5t-9.5 26.5z" />
<glyph unicode="&#x394;" horiz-adv-x="1515" d="M88.5 21q-17.5 21 1.5 71l625 1340q11 22 35 22h20q24 0 35 -22l622 -1344q16 -34 4.5 -61t-45.5 -27h-1236q-44 0 -61.5 21zM516 295l488 2l-248 532h-2z" />
<glyph unicode="&#x3a9;" horiz-adv-x="1712" d="M111 39v223q0 16 11 27.5t28 11.5h157q-80 57 -134 184.5t-54 247.5q0 151 58 285t156.5 229.5t234.5 151t288 55.5t288 -55.5t234.5 -151t156.5 -229.5t58 -285q0 -120 -54 -247.5t-134 -184.5h158q17 0 28 -11.5t11 -27.5v-223q0 -16 -11 -27.5t-28 -11.5h-572 q-17 0 -28 11.5t-11 27.5v133q0 11 0.5 19.5t2.5 16.5t3 12.5t5.5 10.5l6 8t8.5 7t8.5 6t11.5 7t12 7q123 73 189.5 196.5t66.5 252.5q0 169 -120.5 290t-289.5 121t-289.5 -121t-120.5 -290q0 -129 66.5 -252.5t189.5 -196.5q3 -2 11 -6.5t10 -6t8.5 -5.5t8 -6t6 -6.5 t5.5 -8.5t3.5 -10t3.5 -12.5t1.5 -14.5t0.5 -18v-133q0 -16 -11 -27.5t-28 -11.5h-571q-17 0 -28 11.5t-11 27.5z" />
<glyph unicode="&#x3bc;" horiz-adv-x="1140" d="M152 -442v1343q0 20 12.5 32.5t30.5 12.5h223q19 0 32 -12.5t13 -32.5v-450q0 -181 127 -181q65 0 97 47.5t32 116.5v467q0 45 51 45h215q19 0 32 -12.5t13 -32.5v-856q0 -19 -13 -32t-32 -13h-94q-29 0 -45 33l-33 88q-4 -5 -24 -26t-28.5 -29t-29.5 -26t-39 -26 t-45 -18.5t-59 -14.5t-70 -4q-15 0 -55 5v-424q0 -19 -13 -32t-32 -13h-221q-19 0 -32 13t-13 32z" />
<glyph unicode="&#x3c0;" horiz-adv-x="1425" d="M37 711v190q0 20 12.5 32.5t32.5 12.5h1261q20 0 33 -12.5t13 -32.5v-190q0 -19 -13 -32t-33 -13h-196v-621q0 -19 -13 -32t-32 -13h-221q-18 0 -31.5 13.5t-13.5 31.5v621h-263v-621q0 -18 -13.5 -31.5t-31.5 -13.5h-223q-18 0 -31.5 13.5t-13.5 31.5v621h-178 q-20 0 -32.5 13t-12.5 32z" />
<glyph unicode="&#x1e80;" horiz-adv-x="1810" d="M37 1384q-6 22 4.5 36t32.5 14h239q12 0 23 -9t14 -20l176 -694h9l317 721q11 22 35 22h37q27 0 34 -22l318 -721h8l176 694q3 11 14 20t23 9h240q22 0 32.5 -14t4.5 -36l-388 -1376q-3 -12 -13.5 -20t-22.5 -8h-33q-24 0 -35 22l-375 838h-6l-373 -838q-11 -22 -34 -22 h-33q-12 0 -23 8t-14 20zM664 1790l69 121q7 12 26 12.5t27 -6.5l349 -213q23 -18 12 -39l-43 -86q-20 -39 -55 -18l-373 168q-33 21 -12 61z" />
<glyph unicode="&#x1e81;" horiz-adv-x="1474" d="M31 889q-8 24 4.5 40.5t38.5 16.5h202q12 0 25.5 -8t17.5 -20l138 -394h2l231 424q10 19 37 19h23q28 0 36 -19l234 -424h2l135 394q10 28 47 28h199q25 0 38 -17.5t5 -39.5l-313 -883q-5 -12 -17.5 -20.5t-25.5 -8.5h-11q-8 0 -21 7t-16 14l-305 510h-2l-301 -510 q-4 -7 -16.5 -14t-20.5 -7h-12q-12 0 -24.5 8.5t-16.5 20.5zM500 1278l69 121q7 12 26.5 12.5t27.5 -6.5l348 -213q23 -18 12 -39l-43 -86q-20 -39 -55 -18l-373 168q-33 21 -12 61z" />
<glyph unicode="&#x1e82;" horiz-adv-x="1810" d="M37 1384q-6 22 4.5 36t32.5 14h239q12 0 23 -9t14 -20l176 -694h9l317 721q11 22 35 22h37q27 0 34 -22l318 -721h8l176 694q3 11 14 20t23 9h240q22 0 32.5 -14t4.5 -36l-388 -1376q-3 -12 -13.5 -20t-22.5 -8h-33q-24 0 -35 22l-375 838h-6l-373 -838q-11 -22 -34 -22 h-33q-12 0 -23 8t-14 20zM657 1665q-10 20 13 39l348 213q8 7 27 6.5t26 -12.5l70 -121q21 -40 -13 -61l-372 -168q-36 -21 -56 18z" />
<glyph unicode="&#x1e83;" horiz-adv-x="1474" d="M31 889q-8 24 4.5 40.5t38.5 16.5h202q12 0 25.5 -8t17.5 -20l138 -394h2l231 424q10 19 37 19h23q28 0 36 -19l234 -424h2l135 394q10 28 47 28h199q25 0 38 -17.5t5 -39.5l-313 -883q-5 -12 -17.5 -20.5t-25.5 -8.5h-11q-8 0 -21 7t-16 14l-305 510h-2l-301 -510 q-4 -7 -16.5 -14t-20.5 -7h-12q-12 0 -24.5 8.5t-16.5 20.5zM498 1153q-10 21 12 39l348 213q8 7 27 6.5t26 -12.5l70 -121q21 -40 -12 -61l-373 -168q-35 -21 -55 18z" />
<glyph unicode="&#x1e84;" horiz-adv-x="1810" d="M37 1384q-6 22 4.5 36t32.5 14h239q12 0 23 -9t14 -20l176 -694h9l317 721q11 22 35 22h37q27 0 34 -22l318 -721h8l176 694q3 11 14 20t23 9h240q22 0 32.5 -14t4.5 -36l-388 -1376q-3 -12 -13.5 -20t-22.5 -8h-33q-24 0 -35 22l-375 838h-6l-373 -838q-11 -22 -34 -22 h-33q-12 0 -23 8t-14 20zM475 1718q0 64 44.5 109t109.5 45t110 -45t45 -109t-45 -109.5t-110 -45.5q-64 0 -109 45t-45 110zM1018 1718q0 65 44.5 109.5t108.5 44.5q65 0 110.5 -45t45.5 -109t-45.5 -109.5t-110.5 -45.5q-64 0 -108.5 45t-44.5 110z" />
<glyph unicode="&#x1e85;" horiz-adv-x="1474" d="M31 889q-8 24 4.5 40.5t38.5 16.5h202q12 0 25.5 -8t17.5 -20l138 -394h2l231 424q10 19 37 19h23q28 0 36 -19l234 -424h2l135 394q10 28 47 28h199q25 0 38 -17.5t5 -39.5l-313 -883q-5 -12 -17.5 -20.5t-25.5 -8.5h-11q-8 0 -21 7t-16 14l-305 510h-2l-301 -510 q-4 -7 -16.5 -14t-20.5 -7h-12q-12 0 -24.5 8.5t-16.5 20.5zM379 1241q0 65 44.5 109.5t108.5 44.5q65 0 110.5 -45t45.5 -109q0 -65 -46 -110.5t-110 -45.5t-108.5 45.5t-44.5 110.5zM799 1241q0 65 44.5 109.5t108.5 44.5q65 0 110.5 -45t45.5 -109q0 -65 -46 -110.5 t-110 -45.5t-108.5 45.5t-44.5 110.5z" />
<glyph unicode="&#x1ef2;" horiz-adv-x="1232" d="M0.5 1414q10.5 20 34.5 20h266q19 0 33 -19l284 -420l285 420q14 19 33 19h266q24 0 34.5 -20t-1.5 -40l-459 -682v-653q0 -15 -12 -27t-27 -12h-243q-17 0 -28 11.5t-11 27.5v651l-453 684q-12 20 -1.5 40zM379 1790l70 121q7 12 26 12.5t27 -6.5l348 -213 q22 -18 12 -39l-43 -86q-20 -39 -55 -18l-373 168q-33 21 -12 61z" />
<glyph unicode="&#x1ef3;" horiz-adv-x="1013" d="M37 885q-8 24 3 42.5t36 18.5h243q13 0 23.5 -7t13.5 -19l129 -502h4l183 502q10 26 41 26h233q28 0 40 -18t1 -43l-559 -1344q-5 -11 -16 -19.5t-23 -8.5h-229q-26 0 -38 19t-1 44l196 496zM285 1278l69 121q7 12 26.5 12.5t27.5 -6.5l348 -213q23 -18 12 -39l-43 -86 q-20 -39 -55 -18l-373 168q-33 21 -12 61z" />
<glyph unicode="&#x2000;" horiz-adv-x="1077" />
<glyph unicode="&#x2001;" horiz-adv-x="2154" />
<glyph unicode="&#x2002;" horiz-adv-x="1077" />
<glyph unicode="&#x2003;" horiz-adv-x="2154" />
<glyph unicode="&#x2004;" horiz-adv-x="718" />
<glyph unicode="&#x2005;" horiz-adv-x="538" />
<glyph unicode="&#x2006;" horiz-adv-x="359" />
<glyph unicode="&#x2007;" horiz-adv-x="359" />
<glyph unicode="&#x2008;" horiz-adv-x="269" />
<glyph unicode="&#x2009;" horiz-adv-x="430" />
<glyph unicode="&#x200a;" horiz-adv-x="119" />
<glyph unicode="&#x2010;" horiz-adv-x="747" d="M100 401v187q0 17 11 28t28 11h469q17 0 28 -11t11 -28v-187q0 -15 -11 -25.5t-28 -10.5h-469q-17 0 -28 10.5t-11 25.5z" />
<glyph unicode="&#x2011;" horiz-adv-x="747" d="M100 401v187q0 17 11 28t28 11h469q17 0 28 -11t11 -28v-187q0 -15 -11 -25.5t-28 -10.5h-469q-17 0 -28 10.5t-11 25.5z" />
<glyph unicode="&#x2012;" horiz-adv-x="747" d="M100 401v187q0 17 11 28t28 11h469q17 0 28 -11t11 -28v-187q0 -15 -11 -25.5t-28 -10.5h-469q-17 0 -28 10.5t-11 25.5z" />
<glyph unicode="&#x2013;" horiz-adv-x="1122" d="M102 453v104q0 17 11 28t28 11h838q17 0 28 -11t11 -28v-104q0 -15 -11 -26t-28 -11h-838q-17 0 -28 11t-11 26z" />
<glyph unicode="&#x2014;" horiz-adv-x="1572" d="M102 453v104q0 17 11 28t28 11h1289q17 0 27.5 -11t10.5 -28v-104q0 -15 -10.5 -26t-27.5 -11h-1289q-17 0 -28 11t-11 26z" />
<glyph unicode="&#x2018;" horiz-adv-x="489" d="M66 1014q0 214 147 422q17 22 47 2l66 -45q24 -15 0 -50q-101 -141 -101 -249q0 -9 2 -17q28 21 72 21q66 0 102.5 -46t36.5 -114q0 -71 -50.5 -118.5t-125.5 -47.5q-84 0 -140 61.5t-56 180.5z" />
<glyph unicode="&#x2019;" horiz-adv-x="481" d="M47 1288q0 71 50.5 118.5t125.5 47.5q84 0 140.5 -61.5t56.5 -180.5q0 -211 -148 -421q-17 -23 -47 -3l-65 46q-23 14 0 49q100 149 100 250q0 8 -2 16q-28 -21 -72 -21q-66 0 -102.5 46t-36.5 114z" />
<glyph unicode="&#x201a;" horiz-adv-x="514" d="M70 160q0 71 50.5 118.5t125.5 47.5q84 0 140 -61.5t56 -180.5q0 -214 -147 -422q-17 -22 -47 -2l-66 45q-23 14 0 49q101 151 101 250q0 8 -2 16q-27 -20 -72 -20q-66 0 -102.5 46t-36.5 114z" />
<glyph unicode="&#x201c;" horiz-adv-x="950" d="M66 1014q0 214 147 422q17 22 47 2l66 -45q24 -15 0 -50q-101 -141 -101 -249q0 -9 2 -17q28 21 72 21q66 0 102.5 -46t36.5 -114q0 -71 -50.5 -118.5t-125.5 -47.5q-84 0 -140 61.5t-56 180.5zM526 1014q0 212 148 422q17 22 47 2l65 -45q24 -15 0 -50 q-100 -140 -100 -249q0 -9 2 -17q28 21 72 21q66 0 102.5 -46t36.5 -114q0 -71 -50.5 -118.5t-125.5 -47.5q-84 0 -140.5 61.5t-56.5 180.5z" />
<glyph unicode="&#x201d;" horiz-adv-x="942" d="M47 1288q0 71 50.5 118.5t125.5 47.5q84 0 140.5 -61.5t56.5 -180.5q0 -211 -148 -421q-17 -23 -47 -3l-65 46q-23 14 0 49q100 149 100 250q0 8 -2 16q-28 -21 -72 -21q-66 0 -102.5 46t-36.5 114zM508 1288q0 71 50.5 118.5t125.5 47.5q84 0 140.5 -61.5t56.5 -180.5 q0 -211 -148 -421q-17 -23 -47 -3l-65 46q-23 14 0 49q100 149 100 250q0 8 -2 16q-28 -21 -72 -21q-66 0 -102.5 46t-36.5 114z" />
<glyph unicode="&#x201e;" horiz-adv-x="972" d="M70 160q0 71 50.5 118.5t125.5 47.5q84 0 140 -61.5t56 -180.5q0 -214 -147 -422q-17 -22 -47 -2l-66 45q-23 14 0 49q101 151 101 250q0 8 -2 16q-27 -20 -72 -20q-66 0 -102.5 46t-36.5 114zM528 160q0 70 51 118t126 48q84 0 140 -61.5t56 -180.5q0 -214 -147 -422 q-17 -22 -47 -2l-66 45q-23 14 0 49q100 149 100 250q0 8 -2 16q-27 -20 -71 -20q-66 0 -103 46t-37 114z" />
<glyph unicode="&#x2020;" horiz-adv-x="1232" d="M86 575v205q0 15 12 27t27 12h321v576q0 15 12 27t27 12h246q15 0 27 -12t12 -27v-576h340q15 0 26 -12t11 -27v-205q0 -15 -11 -26.5t-26 -11.5h-360l-80 -992q-4 -32 -39 -32h-45q-16 0 -26.5 9.5t-12.5 22.5l-80 992h-342q-15 0 -27 11.5t-12 26.5z" />
<glyph unicode="&#x2021;" horiz-adv-x="1265" d="M102 856v205q0 15 12 27t27 12h322v295q0 15 12 27t27 12h246q15 0 26.5 -12t11.5 -27v-295h340q15 0 26 -12t11 -27v-205q0 -15 -11 -27t-26 -12h-340l-38 -532h317q15 0 26 -12t11 -27v-205q0 -15 -11 -27t-26 -12h-338l-41 -457q-2 -13 -12.5 -22.5t-26.5 -9.5h-45 q-16 0 -26.5 9.5t-12.5 22.5l-43 457h-317q-15 0 -27 12t-12 27v205q0 15 12 27t27 12h297l-37 530v2h-322q-15 0 -27 12t-12 27z" />
<glyph unicode="&#x2022;" horiz-adv-x="815" d="M115 520q0 121 85.5 209t202.5 88q121 0 209 -87.5t88 -209.5q0 -117 -88 -203t-209 -86q-117 0 -202.5 86t-85.5 203z" />
<glyph unicode="&#x2026;" horiz-adv-x="1386" d="M70 143q0 68 47 115t114 47q68 0 116 -47.5t48 -114.5t-48 -115t-116 -48q-67 0 -114 47.5t-47 115.5zM532 143q0 67 47 114.5t115 47.5t116 -47.5t48 -114.5t-48 -115t-116 -48q-67 0 -114.5 47.5t-47.5 115.5zM993 143q0 67 47.5 114.5t114.5 47.5q68 0 116 -47.5 t48 -114.5t-48 -115t-116 -48q-67 0 -114.5 47.5t-47.5 115.5z" />
<glyph unicode="&#x202f;" horiz-adv-x="430" />
<glyph unicode="&#x2030;" horiz-adv-x="2043" d="M102 1180q0 115 80.5 195.5t196.5 80.5q114 0 195 -80.5t81 -195.5t-81 -196t-195 -81q-115 0 -196 80.5t-81 196.5zM254 55l702 1358q12 21 35 21h156q23 0 34.5 -18t0.5 -38l-707 -1358q-5 -6 -16.5 -13t-18.5 -7h-151q-23 0 -34 17.5t-1 37.5zM307 1180 q0 -29 21.5 -50.5t50.5 -21.5q28 0 49 21.5t21 50.5q0 28 -21 48.5t-49 20.5q-29 0 -50.5 -20.5t-21.5 -48.5zM788 256q0 115 81.5 195.5t195.5 80.5q116 0 197 -80.5t81 -195.5q0 -114 -81.5 -195t-196.5 -81q-114 0 -195.5 81t-81.5 195zM995 256q0 -28 21 -49t49 -21 q29 0 50.5 21t21.5 49q0 29 -21.5 50.5t-50.5 21.5q-28 0 -49 -21.5t-21 -50.5zM1403 256q0 115 81 195.5t195 80.5q116 0 197.5 -80.5t81.5 -195.5q0 -114 -82 -195t-197 -81q-114 0 -195 81t-81 195zM1610 256q0 -28 20.5 -49t48.5 -21q29 0 50.5 21t21.5 49 q0 29 -21.5 50.5t-50.5 21.5q-28 0 -48.5 -21.5t-20.5 -50.5z" />
<glyph unicode="&#x2039;" horiz-adv-x="608" d="M68 459q-17 23 0 49l223 303q15 25 37 25h161q26 0 35 -19.5t-4 -44.5l-133 -285l127 -301q11 -25 3 -43t-34 -18h-172q-18 0 -30 16z" />
<glyph unicode="&#x203a;" horiz-adv-x="608" d="M82 816.5q9 19.5 35 19.5h162q21 0 36 -25l224 -303q17 -26 0 -49l-213 -318q-4 -6 -14.5 -11t-16.5 -5h-172q-26 0 -34 18t3 43l127 301l-133 285q-13 25 -4 44.5z" />
<glyph unicode="&#x2044;" horiz-adv-x="245" d="M-322 55l705 1358q11 21 35 21h114q23 0 34.5 -18t0.5 -38l-706 -1358q-10 -20 -35 -20h-113q-23 0 -34 17.5t-1 37.5z" />
<glyph unicode="&#x205f;" horiz-adv-x="538" />
<glyph unicode="&#x2070;" horiz-adv-x="667" d="M66 1335q0 153 70 238.5t198 85.5t198 -85.5t70 -238.5q0 -152 -70 -237.5t-198 -85.5t-198 85.5t-70 237.5zM270 1335q0 -159 64 -159q63 0 63 159q0 160 -63 160q-64 0 -64 -160z" />
<glyph unicode="&#x2074;" horiz-adv-x="665" d="M45 1163v127l285 342q3 6 14 6h145q8 0 13.5 -5.5t5.5 -12.5v-334h80q7 0 12.5 -5t5.5 -11v-105q0 -7 -5 -12.5t-13 -5.5h-80v-96q0 -7 -6 -13t-13 -6h-139q-8 0 -14 6t-6 13v96h-267q-7 0 -12.5 5t-5.5 11zM213 1282h119v133z" />
<glyph unicode="&#x2075;" horiz-adv-x="591" d="M72 1120l61 80q17 26 35 8q38 -37 104 -37q27 0 49.5 16t22.5 42q0 27 -22 43t-56 16h-147q-14 0 -23.5 10t-9.5 21v301q0 18 20 18h330q9 0 15 -5t6 -13v-109q0 -8 -6 -13t-15 -5h-196v-59h59q110 0 171.5 -53t61.5 -150q0 -98 -71.5 -158.5t-190.5 -60.5 q-68 0 -119.5 24.5t-76.5 53.5q-13 13 -2 30z" />
<glyph unicode="&#x2076;" horiz-adv-x="606" d="M59 1255q0 79 30 147.5t70 111.5t93.5 78t88 50.5t65.5 24.5q30 9 40 -18l31 -82q9 -27 -18 -35q-53 -15 -116 -51t-83 -82q34 24 102 24q74 0 130.5 -52t56.5 -146q0 -87 -70.5 -150t-167.5 -63q-115 0 -183.5 68t-68.5 175zM250 1235q0 -26 18 -42.5t43 -16.5 t42.5 16.5t17.5 42.5t-17.5 43.5t-42.5 17.5t-43 -17.5t-18 -43.5z" />
<glyph unicode="&#x2077;" horiz-adv-x="548" d="M59 1051v10l222 426h-189q-8 0 -14 5t-6 11v117q0 7 6 12.5t14 5.5h406q8 0 14 -5.5t6 -12.5v-33l-260 -536q-11 -19 -33 -19h-139q-27 0 -27 19z" />
<glyph unicode="&#x2078;" horiz-adv-x="645" d="M63 1188q0 35 18 66t42 49.5t41.5 28t23.5 11.5v3q-39 14 -72.5 50.5t-33.5 92.5q0 76 69.5 123t167.5 47q102 0 172 -47t70 -123q0 -56 -34 -94t-72 -49v-3q48 -11 87.5 -50t39.5 -105q0 -76 -73 -126t-190 -50q-114 0 -185 50t-71 126zM258 1212q0 -26 20.5 -43.5 t45.5 -17.5q24 0 43.5 16t19.5 45q0 26 -17.5 45t-45.5 19q-25 0 -45.5 -19.5t-20.5 -44.5zM268 1460q0 -21 16.5 -36t37.5 -15t36 15t15 36q0 22 -15.5 37.5t-35.5 15.5q-21 0 -37.5 -16t-16.5 -37z" />
<glyph unicode="&#x2079;" horiz-adv-x="606" d="M57 1446q0 87 70.5 150t167.5 63q115 0 183.5 -68t68.5 -176q0 -79 -29.5 -147.5t-70 -111.5t-93.5 -77.5t-87.5 -49.5t-65.5 -25q-31 -9 -41 18l-31 82q-9 27 18 35q53 15 116 51t83 82q-34 -25 -110 -25q-68 0 -123.5 54t-55.5 145zM236 1436q0 -26 17 -44t42 -18 t43 18t18 44t-18 42.5t-43 16.5t-42 -16.5t-17 -42.5z" />
<glyph unicode="&#x2080;" horiz-adv-x="667" d="M66 -4q0 153 70 238t198 85t198 -85t70 -238q0 -152 -70 -238t-198 -86t-198 86t-70 238zM270 -4q0 -160 64 -160q63 0 63 160t-63 160q-64 0 -64 -160z" />
<glyph unicode="&#x2081;" horiz-adv-x="450" d="M45 111v77q0 13 16 23l156 88h129q8 0 13.5 -5.5t5.5 -12.5v-570q0 -7 -5.5 -12.5t-13.5 -5.5h-153q-9 0 -15 5t-6 13v377h-111q-16 0 -16 23z" />
<glyph unicode="&#x2082;" horiz-adv-x="569" d="M51 -252l209 252q41 52 41 96q0 29 -18 44.5t-45 15.5q-41 0 -72 -31q-24 -16 -37 8l-45 74q-1 2 -5 8.5t-4.5 7.5t-2.5 6t-1 6.5t1.5 5.5t3 6.5l6.5 6.5t10 8q23 18 74.5 37.5t116.5 19.5q92 0 152.5 -52.5t60.5 -139.5q0 -85 -62 -172l-82 -109h119q8 0 14.5 -5.5 t6.5 -12.5v-117q0 -7 -6.5 -12.5t-14.5 -5.5h-399q-9 0 -15 5t-6 13v37z" />
<glyph unicode="&#x2083;" horiz-adv-x="561" d="M63 -223l48 69q16 23 41 9q28 -23 73 -23q68 0 68 49q0 23 -17.5 37t-50.5 14h-67q-14 2 -20.5 8t-6.5 25v70q0 35 37 35h57q24 0 41 13.5t17 35.5q0 20 -16 32.5t-44 12.5q-30 0 -61 -23q-20 -13 -35 9l-53 71q-18 23 2 43q7 6 20.5 15t60 24.5t97.5 15.5 q103 0 164 -45.5t61 -123.5q0 -91 -104 -144q48 -19 85.5 -56.5t37.5 -101.5q0 -83 -71 -129.5t-173 -46.5q-104 0 -184 60q-25 18 -7 45z" />
<glyph unicode="&#x2084;" horiz-adv-x="667" d="M47 -49l285 342q3 6 14 6h146q8 0 13 -5.5t5 -12.5v-334h80q7 0 12.5 -5.5t5.5 -11.5v-104q0 -8 -5.5 -13.5t-12.5 -5.5h-80v-96q0 -7 -5 -12.5t-13 -5.5h-140q-8 0 -14 5.5t-6 12.5v96h-266q-7 0 -13 5.5t-6 11.5v127zM215 -57h119v133z" />
<glyph unicode="&#x2085;" horiz-adv-x="591" d="M72 -219l61 80q17 26 35 8q38 -37 104 -37q27 0 49.5 15.5t22.5 41.5q0 27 -22 43.5t-56 16.5h-147q-14 0 -23.5 10t-9.5 21v301q0 18 20 18h330q9 0 15 -5t6 -13v-109q0 -8 -6 -13t-15 -5h-196v-60h59q110 0 171.5 -53t61.5 -150q0 -98 -71.5 -158.5t-190.5 -60.5 q-68 0 -119.5 24.5t-76.5 53.5q-14 14 -2 31z" />
<glyph unicode="&#x2086;" horiz-adv-x="606" d="M59 -84q0 79 30 147.5t70 111.5t93.5 78t88 50.5t65.5 24.5q30 9 40 -19l31 -82q9 -26 -18 -34q-53 -15 -116 -51.5t-83 -82.5q34 25 102 25q74 0 130.5 -52.5t56.5 -146.5q0 -87 -70.5 -150t-167.5 -63q-115 0 -183.5 68t-68.5 176zM250 -104q0 -26 18 -43t43 -17 t42.5 17t17.5 43t-17.5 43.5t-42.5 17.5t-43 -17.5t-18 -43.5z" />
<glyph unicode="&#x2087;" horiz-adv-x="548" d="M59 -279l222 426h-189q-7 0 -13.5 5.5t-6.5 11.5v117q0 7 6 12.5t14 5.5h406q8 0 14 -5.5t6 -12.5v-33l-260 -537q-10 -18 -33 -18h-139q-27 0 -27 18v10z" />
<glyph unicode="&#x2088;" horiz-adv-x="645" d="M63 -152q0 35 18 66.5t42 50t41.5 28t23.5 11.5v2q-39 14 -72.5 51t-33.5 93q0 76 69 122.5t168 46.5q103 0 172.5 -46.5t69.5 -122.5q0 -56 -34 -94.5t-72 -49.5v-2q48 -11 87.5 -50.5t39.5 -105.5q0 -76 -73 -126t-190 -50q-114 0 -185 50t-71 126zM258 -127 q0 -26 20.5 -43.5t45.5 -17.5q24 0 43.5 16t19.5 45q0 26 -17.5 45t-45.5 19q-25 0 -45.5 -19.5t-20.5 -44.5zM268 121q0 -21 16.5 -36t37.5 -15t36 15t15 36q0 22 -15.5 37.5t-35.5 15.5q-21 0 -37.5 -16t-16.5 -37z" />
<glyph unicode="&#x2089;" horiz-adv-x="606" d="M57 106q0 87 70.5 150t167.5 63q115 0 183.5 -68t68.5 -175q0 -79 -29.5 -147.5t-70 -111.5t-93.5 -78t-88 -50.5t-65 -24.5t-41 19l-31 81q-9 27 18 35q53 15 116 51t83 82q-34 -24 -110 -24q-68 0 -123.5 53.5t-55.5 144.5zM236 96q0 -26 17 -43.5t42 -17.5t43 17.5 t18 43.5t-18 43t-43 17t-42 -17t-17 -43z" />
<glyph unicode="&#x20ac;" d="M45 547v35q0 15 11 27t26 12h84q-4 62 -4 94v39h-80q-15 0 -26 12t-11 27v34q0 15 11 27t26 12h90q17 123 62.5 227t119 186t182.5 128.5t242 46.5q125 0 213.5 -35.5t171.5 -122.5q28 -31 2 -57l-127 -190q-10 -11 -25 -11t-26 11q-50 53 -96 74.5t-103 21.5 q-92 0 -165.5 -72.5t-100.5 -206.5h420q17 0 28 -11.5t11 -27.5v-36q0 -15 -11 -26t-28 -11h-432v-31q0 -69 2 -102h348q17 0 28 -11.5t11 -27.5v-37q0 -15 -11 -26t-28 -11h-330q52 -201 252 -201q58 0 102 21.5t91 64.5q10 9 27 8.5t26 -10.5l139 -184q10 -11 9.5 -27.5 t-11.5 -27.5q-87 -92 -182 -132t-213 -40q-223 0 -381 140t-209 388h-98q-15 0 -26 12t-11 27z" />
<glyph unicode="&#x2113;" horiz-adv-x="978" d="M74.5 531.5q-1.5 7.5 7 15.5t27.5 12q73 14 124 31q20 113 31 166q63 345 167 521.5t261 176.5q115 0 179.5 -76.5t64.5 -208.5q0 -129 -47 -242t-129 -197.5t-180.5 -147t-214.5 -107.5q-17 -87 -17 -151q0 -79 35.5 -134t105.5 -55q147 0 293 88q26 15 38 13.5 t22 -23.5l32 -49q14 -24 14 -33.5t-18 -28.5q-197 -122 -381 -122q-75 0 -133 28t-92 76t-51.5 107.5t-17.5 127.5q0 51 6 101q-9 -2 -27 -7.5t-33 -9t-24 -4.5q-28 -6 -31 25l-10 92q0 8 -1.5 15.5zM399 635q176 79 279.5 214.5t103.5 319.5q0 61 -24 95t-66 34 q-177 0 -276 -569z" />
<glyph unicode="&#x2117;" horiz-adv-x="1693" d="M111 717q0 200 98.5 369.5t267.5 268.5t369 99t369.5 -99t268.5 -268.5t99 -369.5t-99 -369.5t-268.5 -268.5t-369.5 -99t-369 99t-267.5 268.5t-98.5 369.5zM289 717q0 -113 44 -216.5t119 -178.5t178 -119.5t216 -44.5q114 0 217 44.5t177.5 119.5t118.5 178.5 t44 216.5q0 152 -74.5 280t-202.5 202.5t-280 74.5q-113 0 -216 -44t-178 -118.5t-119 -177.5t-44 -217zM584 383v672q0 16 11 27.5t28 11.5h331q100 0 176 -74.5t76 -192.5q0 -105 -72 -178.5t-214 -73.5h-136v-192q0 -16 -11 -27.5t-28 -11.5h-122q-17 0 -28 11.5 t-11 27.5zM778 756h142q31 0 48 19t17 48q0 30 -17 49t-48 19h-142v-135z" />
<glyph unicode="&#x2122;" horiz-adv-x="1599" d="M150 1294v101q0 15 11.5 27t26.5 12h433q17 0 27.5 -11.5t10.5 -27.5v-101q0 -17 -10.5 -28t-27.5 -11h-123v-442q0 -15 -12 -27t-27 -12h-109q-17 0 -28 11.5t-11 27.5v442h-123q-15 0 -26.5 11t-11.5 28zM707 821l106 592q2 13 12.5 22t26.5 9h8q22 0 35 -23l186 -352 l189 352q12 23 35 23h8q14 0 26 -9.5t13 -21.5l108 -594q3 -19 -8.5 -32t-30.5 -13h-106q-14 0 -26 11t-13 24l-35 215l-121 -238q-11 -18 -33 -18h-12q-25 0 -35 20l-116 236l-37 -217q-1 -12 -14 -22.5t-25 -10.5h-103q-20 0 -30.5 14t-7.5 33z" />
<glyph unicode="&#x2126;" horiz-adv-x="1712" d="M111 39v223q0 16 11 27.5t28 11.5h157q-80 57 -134 184.5t-54 247.5q0 151 58 285t156.5 229.5t234.5 151t288 55.5t288 -55.5t234.5 -151t156.5 -229.5t58 -285q0 -120 -54 -247.5t-134 -184.5h158q17 0 28 -11.5t11 -27.5v-223q0 -16 -11 -27.5t-28 -11.5h-572 q-17 0 -28 11.5t-11 27.5v133q0 11 0.5 19.5t2.5 16.5t3 12.5t5.5 10.5l6 8t8.5 7t8.5 6t11.5 7t12 7q123 73 189.5 196.5t66.5 252.5q0 169 -120.5 290t-289.5 121t-289.5 -121t-120.5 -290q0 -129 66.5 -252.5t189.5 -196.5q3 -2 11 -6.5t10 -6t8.5 -5.5t8 -6t6 -6.5 t5.5 -8.5t3.5 -10t3.5 -12.5t1.5 -14.5t0.5 -18v-133q0 -16 -11 -27.5t-28 -11.5h-571q-17 0 -28 11.5t-11 27.5z" />
<glyph unicode="&#x212e;" horiz-adv-x="1708" d="M125 715q0 205 98.5 374.5t269 267t375.5 97.5q152 0 289 -58.5t236.5 -158.5t158.5 -238.5t60 -291.5q0 -38 -11 -52t-42 -14h-1162v-289q74 -103 202 -163t269 -60q102 0 207.5 43t194.5 119q14 12 21.5 16.5t18.5 3t23 -13.5l49 -53q25 -27 -14 -66 q-210 -198 -500 -198q-154 0 -291.5 57t-236.5 154.5t-157 234t-58 289.5zM397 786h944v291q-83 105 -207 165.5t-266 60.5q-148 0 -269.5 -57.5t-201.5 -164.5v-295z" />
<glyph unicode="&#x2153;" horiz-adv-x="1376" d="M96 1245v78q0 13 17 23l155 88h129q7 0 13 -6t6 -13v-569q0 -8 -6 -13.5t-13 -5.5h-153q-9 0 -15 5.5t-6 13.5v377h-110q-17 0 -17 22zM205 55l704 1358q11 21 35 21h115q23 0 34.5 -18t0.5 -38l-707 -1358q-10 -20 -35 -20h-112q-23 0 -34 17.5t-1 37.5zM838 84l47 70 q16 22 41 8q28 -23 73 -23q68 0 68 49q0 23 -17.5 37.5t-50.5 14.5h-67q-10 1 -14.5 3t-8.5 9t-4 20v70q0 35 37 35h57q24 0 41 13.5t17 35.5q0 20 -16 32.5t-44 12.5q-32 0 -61 -22q-8 -7 -16.5 -6.5t-18.5 14.5l-53 71q-18 23 2 43q7 6 20.5 15.5t60 25t97.5 15.5 q103 0 164 -46t61 -124q0 -91 -104 -144q123 -47 123 -157q0 -83 -71 -129.5t-173 -46.5q-105 0 -184 59q-24 18 -6 45z" />
<glyph unicode="&#x2154;" horiz-adv-x="1476" d="M100 846v37l209 252q41 52 41 96q0 29 -18 44t-45 15q-21 0 -41.5 -10t-30.5 -20q-24 -16 -37 8l-45 73q-14 25 -12 33q4 11 20 23q23 18 74.5 37.5t116.5 19.5q92 0 152.5 -52.5t60.5 -139.5q0 -85 -62 -172l-82 -109h119q8 0 14.5 -5.5t6.5 -12.5v-117q0 -7 -6.5 -13 t-14.5 -6h-399q-9 0 -15 5.5t-6 13.5zM309 55l705 1358q10 21 35 21h114q23 0 34.5 -18t0.5 -38l-706 -1358q-10 -20 -35 -20h-113q-23 0 -34 17.5t-1 37.5zM942 84l47 70q16 22 41 8q29 -23 74 -23q67 0 67 49q0 23 -17.5 37.5t-49.5 14.5h-68q-14 2 -20 7.5t-6 24.5v70 q0 35 37 35h57q24 0 40.5 13t16.5 36q0 20 -16 32.5t-43 12.5q-33 0 -62 -22q-8 -7 -16 -6.5t-18 14.5l-54 71q-18 23 2 43q7 6 21 15.5t60.5 25t97.5 15.5q103 0 164 -46t61 -124q0 -90 -105 -144q123 -47 123 -157q0 -84 -70.5 -130t-172.5 -46q-106 0 -185 59 q-24 18 -6 45z" />
<glyph unicode="&#x215b;" horiz-adv-x="1406" d="M96 1245v78q0 13 17 23l155 88h129q7 0 13 -6t6 -13v-569q0 -8 -6 -13.5t-13 -5.5h-153q-9 0 -15 5.5t-6 13.5v377h-110q-17 0 -17 22zM205 55l704 1358q11 21 35 21h115q23 0 34.5 -18t0.5 -38l-707 -1358q-10 -20 -35 -20h-112q-23 0 -34 17.5t-1 37.5zM788 158 q0 35 18 66t42 49.5t41.5 28t23.5 11.5v2q-39 14 -72.5 51t-33.5 93q0 76 69.5 123t167.5 47q102 0 172 -47t70 -123q0 -56 -34 -94.5t-72 -49.5v-2q48 -11 87.5 -50t39.5 -105q0 -76 -73 -126t-190 -50q-114 0 -185 50t-71 126zM989 182q0 -24 18.5 -39.5t41.5 -15.5 q22 0 39.5 14.5t17.5 40.5q0 24 -16 41t-41 17q-23 0 -41.5 -17.5t-18.5 -40.5zM997 430q0 -20 15.5 -33.5t34.5 -13.5t33 13.5t14 33.5t-14 34.5t-33 14.5t-34.5 -14.5t-15.5 -34.5z" />
<glyph unicode="&#x215c;" horiz-adv-x="1454" d="M113 911l47 70q16 22 41 8q28 -22 73 -22q68 0 68 49q0 23 -17.5 37t-50.5 14h-67q-14 2 -20.5 8t-6.5 25v69q0 35 37 35h57q24 0 41 13.5t17 35.5q0 20 -16 32.5t-44 12.5q-32 0 -61 -22q-8 -7 -16.5 -6.5t-18.5 14.5l-53 72q-18 23 2 43q7 6 20.5 15t60 24.5t97.5 15.5 q103 0 164 -46t61 -124q0 -90 -104 -143q48 -19 85.5 -56.5t37.5 -101.5q0 -83 -71 -129.5t-173 -46.5q-105 0 -184 59q-24 18 -6 45zM256 55l705 1358q11 21 34 21h115q23 0 34.5 -18t0.5 -38l-707 -1358q-10 -20 -35 -20h-112q-23 0 -34 17.5t-1 37.5zM838 158q0 35 18 66 t42 49.5t41.5 28t23.5 11.5v2q-39 14 -73 51t-34 93q0 76 69.5 123t168.5 47q102 0 171.5 -47t69.5 -123q0 -56 -34 -94.5t-72 -49.5v-2q48 -11 87.5 -50t39.5 -105q0 -76 -72.5 -126t-189.5 -50q-114 0 -185 50t-71 126zM1038 182q0 -24 18.5 -39.5t41.5 -15.5 q22 0 39.5 14.5t17.5 40.5q0 24 -16 41t-41 17q-23 0 -41.5 -17.5t-18.5 -40.5zM1047 430q0 -20 15 -33.5t34 -13.5t33 13.5t14 33.5t-14 34.5t-33 14.5t-34 -14.5t-15 -34.5z" />
<glyph unicode="&#x215d;" horiz-adv-x="1478" d="M113 915l61 80q18 26 35 9q38 -37 104 -37q27 0 49.5 15.5t22.5 41.5q0 27 -22 43t-56 16h-147q-14 0 -23.5 10t-9.5 21v301q0 8 5.5 13.5t14.5 5.5h330q9 0 15 -5.5t6 -13.5v-108q0 -8 -6 -13.5t-15 -5.5h-196v-59h59q110 0 171.5 -53t61.5 -150q0 -98 -71.5 -158.5 t-190.5 -60.5q-68 0 -119.5 24.5t-76.5 53.5q-13 13 -2 30zM281 17.5q-11 17.5 0 37.5l704 1358q11 21 35 21h115q23 0 34 -18t0 -38l-706 -1358q-10 -20 -35 -20h-113q-23 0 -34 17.5zM862 158q0 35 18 66t42 49.5t41.5 28t23.5 11.5v2q-39 14 -72.5 51t-33.5 93 q0 76 69.5 123t167.5 47q102 0 172 -47t70 -123q0 -55 -34.5 -94t-72.5 -50v-2q48 -11 87.5 -50t39.5 -105q0 -76 -72.5 -126t-189.5 -50q-114 0 -185 50t-71 126zM1063 182q0 -24 18 -39.5t41 -15.5t40.5 14.5t17.5 40.5q0 24 -16 41t-42 17q-23 0 -41 -17.5t-18 -40.5z M1071 430q0 -20 15 -33.5t34 -13.5t33 13.5t14 33.5t-14 34.5t-33 14.5t-34 -14.5t-15 -34.5z" />
<glyph unicode="&#x215e;" horiz-adv-x="1413" d="M115 846v10l221 426h-189q-7 0 -13.5 5t-6.5 11v117q0 7 6 13t14 6h406q8 0 14 -6t6 -13v-33l-260 -536q-11 -19 -32 -19h-140q-26 0 -26 19zM215 55l705 1358q10 21 34 21h115q23 0 34.5 -18t0.5 -38l-707 -1358q-10 -20 -35 -20h-112q-23 0 -34 17.5t-1 37.5zM797 158 q0 35 18 66t42 49.5t41.5 28t23.5 11.5v2q-39 14 -73 51t-34 93q0 76 69.5 123t168.5 47q102 0 171.5 -47t69.5 -123q0 -56 -34 -94.5t-72 -49.5v-2q48 -11 87.5 -50t39.5 -105q0 -76 -72.5 -126t-189.5 -50q-114 0 -185 50t-71 126zM997 182q0 -24 18.5 -39.5t41.5 -15.5 q22 0 39.5 14.5t17.5 40.5q0 24 -16 41t-41 17q-23 0 -41.5 -17.5t-18.5 -40.5zM1006 430q0 -20 15 -33.5t34 -13.5t33 13.5t14 33.5t-14 34.5t-33 14.5t-34 -14.5t-15 -34.5z" />
<glyph unicode="&#x2202;" horiz-adv-x="1214" d="M109 463q0 112 37.5 202t98.5 144t134 82.5t149 28.5q44 0 103 -12.5t98 -30.5q-10 52 -38.5 99t-69.5 82t-82 62t-90.5 48.5t-79.5 32.5t-64 22q-53 18 -39 61l62 164q16 48 65 33q45 -14 96.5 -36.5t122.5 -64t136 -93t131 -127t114 -161.5t78.5 -202t30.5 -244 q0 -166 -58 -294.5t-175 -203.5t-277 -75q-97 0 -186 38.5t-154 103t-104 154t-39 187.5zM395 473q0 -83 59 -143t142 -60q84 0 143.5 59.5t59.5 143.5t-59.5 144.5t-143.5 60.5q-83 0 -142 -60.5t-59 -144.5z" />
<glyph unicode="&#x2206;" horiz-adv-x="1515" d="M88.5 21q-17.5 21 1.5 71l625 1340q11 22 35 22h20q24 0 35 -22l622 -1344q16 -34 4.5 -61t-45.5 -27h-1236q-44 0 -61.5 21zM516 295l488 2l-248 532h-2z" />
<glyph unicode="&#x220f;" horiz-adv-x="1593" d="M182 39v1356q0 15 12 27t27 12h1151q15 0 27 -12t12 -27v-1356q0 -15 -12 -27t-27 -12h-244q-17 0 -27.5 11.5t-10.5 27.5v1094h-586v-1094q0 -16 -11 -27.5t-28 -11.5h-244q-15 0 -27 12t-12 27z" />
<glyph unicode="&#x2211;" horiz-adv-x="1167" d="M106 39v100l543 584l-543 588v84q0 16 11 27.5t28 11.5h848q17 0 28 -11.5t11 -27.5v-224q0 -15 -11 -26.5t-28 -11.5h-377l277 -254q39 -39 39 -84v-142q0 -36 -39 -75l-277 -277h377q17 0 28 -11.5t11 -27.5v-223q0 -16 -11 -27.5t-28 -11.5h-848q-17 0 -28 11.5 t-11 27.5z" />
<glyph unicode="&#x2212;" d="M166 639v143q0 15 12 27t27 12h821q15 0 26 -12t11 -27v-143q0 -15 -11 -27t-26 -12h-821q-15 0 -27 12t-12 27z" />
<glyph unicode="&#x2215;" horiz-adv-x="245" d="M-322 55l705 1358q11 21 35 21h114q23 0 34.5 -18t0.5 -38l-706 -1358q-10 -20 -35 -20h-113q-23 0 -34 17.5t-1 37.5z" />
<glyph unicode="&#x2219;" horiz-adv-x="577" d="M70 520q0 92 63.5 157.5t151.5 65.5q92 0 157.5 -65.5t65.5 -157.5q0 -88 -65.5 -151.5t-157.5 -63.5q-88 0 -151.5 63.5t-63.5 151.5z" />
<glyph unicode="&#x221a;" horiz-adv-x="1349" d="M41 766q-9 20 1.5 36.5t33.5 16.5h231q11 0 21.5 -7t13.5 -15l96 -217h13l378 831q3 8 13.5 15.5t21.5 7.5h420q17 0 28 -11t11 -28v-183q0 -15 -11 -26.5t-28 -11.5h-250l-547 -1172q-4 -9 -15 -15.5t-19 -6.5h-21q-8 0 -19.5 6.5t-15.5 15.5z" />
<glyph unicode="&#x221e;" horiz-adv-x="1224" d="M115 606q0 120 83.5 203.5t202.5 83.5q114 0 209 -102q98 102 211 102q120 0 204.5 -83.5t84.5 -203.5q0 -119 -84.5 -203t-204.5 -84q-115 0 -211 103q-41 -46 -95.5 -74.5t-113.5 -28.5q-118 0 -202 84t-84 203zM334 606q0 -32 23 -55t55 -23q34 0 57 23t23 55 q0 34 -23 57t-57 23q-32 0 -55 -23t-23 -57zM733 606q0 -32 23 -55t55 -23q34 0 57 23t23 55q0 34 -23 57t-57 23q-32 0 -55 -23t-23 -57z" />
<glyph unicode="&#x222b;" horiz-adv-x="1030" d="M-6.5 -408q-2.5 14 4.5 27l98 162q7 12 21 16t26 -2q51 -22 86 -22q57 0 93 41.5t36 122.5v1073q0 208 120 326t319 118q132 0 227 -78q10 -10 12.5 -24t-4.5 -27l-98 -162q-7 -12 -21 -16t-26 2q-51 22 -86 22q-58 0 -93.5 -41t-35.5 -122v-1074q0 -206 -123 -325 t-316 -119q-132 0 -227 78q-10 10 -12.5 24z" />
<glyph unicode="&#x2248;" d="M217 354q5 7 13 18.5t35.5 40.5t56.5 51.5t72 41t85 18.5q14 0 27 -1.5t27 -7t21.5 -8t23 -12t19 -11.5t21.5 -15t19 -14q6 -4 26.5 -17.5t31 -19.5t28.5 -12.5t35 -6.5q47 0 110 90q23 26 50 3l90 -82q7 -8 8 -19.5t-6 -21.5q-4 -7 -12.5 -18t-35 -40t-55 -51.5 t-70.5 -40.5t-83 -18q-29 0 -56.5 9t-39 15.5t-42.5 29.5t-36 26q-4 3 -18.5 12t-21 12.5t-18 9t-22 7.5t-21.5 2q-30 0 -62 -27.5t-55 -60.5q-9 -13 -23.5 -14.5t-23.5 9.5l-96 84q-16 25 -2 39zM217 756q5 7 13 18.5t35.5 40.5t56.5 51.5t72 41t85 18.5q14 0 27 -2 t26.5 -6.5t22 -8t22.5 -12.5t19.5 -12.5t21 -14.5t19.5 -14q5 -3 26.5 -17.5t31.5 -19.5t28 -11.5t35 -6.5q47 0 110 90q23 26 50 2l90 -82q7 -8 8 -19.5t-6 -21.5q-4 -7 -12.5 -18t-35 -40t-55 -51.5t-70.5 -40.5t-83 -18q-29 0 -56.5 9t-39 15.5t-42.5 29.5t-36 26 q-4 3 -18.5 12t-21 12.5t-18 9t-22 7.5t-21.5 2q-30 0 -62 -27.5t-55 -60.5q-9 -13 -23.5 -14t-23.5 10l-96 84q-16 25 -2 39z" />
<glyph unicode="&#x2260;" d="M225 285v145q0 16 11 27.5t28 11.5h242l96 209h-338q-17 0 -28 11.5t-11 27.5v143q0 16 11 27.5t28 11.5h441l71 152q6 14 22 19.5t29 -1.5l31 -16q15 -5 20.5 -19.5t-1.5 -29.5l-50 -105h131q17 0 28 -11.5t11 -27.5v-143q0 -16 -11 -27.5t-28 -11.5h-233l-96 -209h329 q17 0 28 -11.5t11 -27.5v-145q0 -16 -11 -27.5t-28 -11.5h-432l-67 -148q-6 -13 -22 -17.5t-29 1.5l-31 16q-14 6 -20.5 21t-0.5 28l45 99h-137q-17 0 -28 11.5t-11 27.5z" />
<glyph unicode="&#x2264;" d="M170 819v31q0 23 20 35l773 372q22 11 39.5 1.5t17.5 -33.5v-178q0 -21 -16 -29l-426 -180l426 -172q16 -8 16 -29v-178q0 -25 -18.5 -35t-38.5 2l-773 358q-20 12 -20 35zM178 119v143q0 15 12 27t27 12h766q15 0 26 -12t11 -27v-143q0 -15 -11 -27t-26 -12h-766 q-15 0 -27 12t-12 27z" />
<glyph unicode="&#x2265;" d="M209 119v143q0 15 11 27t26 12h766q15 0 27 -12t12 -27v-143q0 -15 -12 -27t-27 -12h-766q-15 0 -26 12t-11 27zM209 459v178q0 21 16 29l426 172l-426 180q-16 8 -16 29v178q0 24 17.5 33.5t39.5 -1.5l772 -372q21 -13 21 -35v-31q0 -22 -21 -35l-772 -358 q-20 -12 -38.5 -2t-18.5 35z" />
<glyph unicode="&#x25ca;" horiz-adv-x="1357" d="M100.5 726q2.5 50 38.5 93l494 613q11 22 35 22h20q24 0 35 -22l496 -613q75 -91 -2 -186l-494 -631q-11 -22 -35 -22h-20q-24 0 -35 22l-506 641q-29 33 -26.5 83zM422 727l254 -321h2l254 321l-254 322h-2z" />
<glyph unicode="&#x25fc;" horiz-adv-x="942" d="M0 0v942h942v-942h-942z" />
<glyph unicode="&#xf6c3;" horiz-adv-x="598" d="M137 -295q0 76 49 120t127 44q86 0 141.5 -51.5t55.5 -161.5q0 -96 -29 -167t-78 -138q-21 -21 -47 -2l-61 45q-13 9 -14 23t10 24q22 26 35.5 63.5t13.5 69.5v14q-29 -18 -68 -18q-62 0 -98.5 37.5t-36.5 97.5z" />
<glyph unicode="&#xf8ff;" horiz-adv-x="1226" d="M102 61v1311q0 62 62 62h899q32 0 46.5 -15t14.5 -47v-1311q0 -32 -14.5 -46.5t-46.5 -14.5h-899q-32 0 -47 14.5t-15 46.5zM362 1071l46 -45q17 -11 34 0q1 1 15 14.5t20.5 19t23.5 17.5t31.5 17.5t36.5 10.5t45 5q59 0 92 -31t33 -75q0 -35 -21 -65t-50.5 -53 t-59 -47.5t-50.5 -59.5t-21 -77v-59q0 -10 8.5 -17.5t19.5 -7.5h74q31 0 31 27v53q0 23 16 44.5t40 39t51.5 40.5t51.5 46.5t40 59.5t16 78q0 99 -73 163t-183 64q-50 0 -96 -13t-75.5 -31.5t-52.5 -36.5t-33 -31l-10 -13q-16 -24 0 -37zM502 319q0 -40 29 -69t69 -29 q41 0 70.5 29t29.5 69t-29.5 69.5t-70.5 29.5q-40 0 -69 -29.5t-29 -69.5z" />
<glyph unicode="&#xfb00;" horiz-adv-x="1464" d="M55 711v190q0 20 12.5 32.5t32.5 12.5h103v39q0 193 118.5 321t325.5 128q105 0 171.5 -31t119.5 -86q58 75 128.5 106t176.5 31q86 0 170.5 -28t118.5 -60q11 -8 14 -23.5t-4 -29.5l-100 -174q-10 -19 -27.5 -22.5t-30.5 5.5q-64 37 -118 37q-39 0 -64 -12.5 t-36.5 -38.5t-15 -52.5t-3.5 -68.5v-41h237q19 0 32.5 -12.5t13.5 -32.5v-190q0 -19 -13.5 -32t-32.5 -13h-237v-621q0 -18 -13.5 -31.5t-31.5 -13.5h-221q-18 0 -31.5 13.5t-13.5 31.5v621h-322v-621q0 -19 -14 -32t-33 -13h-219q-18 0 -31.5 13.5t-13.5 31.5v621h-103 q-20 0 -32.5 13t-12.5 32zM514 946h322v41q0 30 4 70q-65 88 -185 88q-51 0 -84.5 -27.5t-45 -61t-11.5 -71.5v-39z" />
<glyph unicode="&#xfb03;" horiz-adv-x="1892" d="M55 711v190q0 20 12.5 32.5t32.5 12.5h103v39q0 193 118.5 321t325.5 128q182 0 295 -117q64 74 138.5 105.5t181.5 31.5q201 0 374 -96q18 -9 23.5 -28t-2.5 -36l-78 -166q-13 -29 -28 -35t-38 7q-111 59 -217 59q-70 0 -108.5 -42t-38.5 -113v-58h586q20 0 32.5 -12.5 t12.5 -32.5v-856q0 -19 -12.5 -32t-32.5 -13h-219q-19 0 -32.5 13t-13.5 32v621h-321l-2 -621q0 -18 -13.5 -31.5t-31.5 -13.5h-221q-18 0 -31.5 13.5t-13.5 31.5v621h-322v-621q0 -19 -14 -32t-33 -13h-219q-18 0 -31.5 13.5t-13.5 31.5v621h-103q-20 0 -32.5 13t-12.5 32z M514 946h322v41q0 30 4 70q-65 88 -185 88q-51 0 -84.5 -27.5t-45 -61t-11.5 -71.5v-39z" />
<glyph unicode="&#xfb04;" horiz-adv-x="1953" d="M55 711v190q0 20 12.5 32.5t32.5 12.5h103v39q0 193 118.5 321t325.5 128q105 0 171.5 -31t119.5 -86q117 137 332 137q125 0 201 -34t137 -97l28 66q20 45 62 45h94q17 0 31 -14t14 -31v-1344q0 -18 -13.5 -31.5t-31.5 -13.5h-221q-18 0 -31.5 13.5t-13.5 31.5v975 q-74 139 -205 139q-34 0 -62.5 -7.5t-55 -24.5t-41.5 -50.5t-15 -81.5v-49h156q19 0 32 -12.5t13 -32.5v-190q0 -19 -13 -32t-32 -13h-156v-621q0 -18 -13.5 -31.5t-31.5 -13.5h-221q-18 0 -31.5 13.5t-13.5 31.5v621h-322v-621q0 -19 -14 -32t-33 -13h-219 q-18 0 -31.5 13.5t-13.5 31.5v621h-103q-20 0 -32.5 13t-12.5 32zM514 946h322v41q0 30 4 70q-65 88 -185 88q-51 0 -84.5 -27.5t-45 -61t-11.5 -71.5v-39z" />
<glyph horiz-adv-x="1107" d="M31 170q0 53 19.5 95.5t47 66t55 39.5t47.5 21l19 5q-3 3 -7.5 9t-16.5 26t-21 41.5t-16.5 54.5t-7.5 66q0 162 121 267.5t296 105.5h447q20 0 33.5 -12.5t13.5 -32.5v-97q0 -23 -27 -41l-137 -49q4 -2 10 -5.5t21.5 -18t27.5 -34.5t21.5 -56t9.5 -80q0 -134 -114 -227 t-298 -93h-178q-75 0 -75 -47t73 -47h293q188 0 297 -78t109 -239q0 -320 -531 -320q-495 0 -495 244q0 29 6 54t18.5 44t24 33t28.5 25.5t27 17.5t25 13t16 7v6q-20 6 -32.5 10.5t-44.5 23.5t-51.5 41.5t-36.5 65.5t-17 95zM350 -190q0 -40 52.5 -55t160.5 -15t158.5 15 t50.5 55q0 57 -117 57h-188q-117 0 -117 -57zM444 571q0 -104 131 -104q132 0 132 104q0 105 -132 105q-60 0 -95.5 -25.5t-35.5 -79.5z" />
<glyph horiz-adv-x="618" d="M70 1790l69 121q7 12 26.5 12.5t27.5 -6.5l348 -213q23 -18 12 -39l-43 -86q-20 -39 -55 -18l-373 168q-33 21 -12 61z" />
<glyph horiz-adv-x="618" d="M66 1665q-10 21 12 39l348 213q8 7 27 6.5t26 -12.5l70 -121q21 -40 -12 -61l-373 -168q-35 -21 -55 18z" />
<glyph horiz-adv-x="763" d="M66 1665q-13 19 12 39l276 213q23 17 49 0l283 -213q23 -18 12 -39l-69 -94q-7 -10 -20 -13t-23 3l-203 118l-205 -118q-28 -15 -45 8z" />
<glyph horiz-adv-x="763" d="M63 1812l70 95q7 10 20 13t23 -3l203 -119l205 119q28 15 45 -8l67 -97q13 -18 -12 -38l-276 -213q-24 -18 -50 0l-282 213q-23 18 -13 38z" />
<glyph horiz-adv-x="763" d="M137 1290q0 76 49 120t127 44q86 0 141.5 -51.5t55.5 -161.5q0 -96 -29 -167t-78 -138q-21 -21 -47 -2l-61 45q-13 9 -14 23t10 24q22 26 35.5 63.5t13.5 69.5v15q-29 -19 -68 -19q-62 0 -98.5 37.5t-36.5 97.5z" />
<glyph horiz-adv-x="778" d="M64.5 1687q-3.5 15 1.5 25q10 19 28 43t46.5 55.5t67 52.5t77.5 21q41 0 79.5 -24t73.5 -48t68 -24q40 0 78 63q8 13 21.5 15t29.5 -11l70 -53q27 -20 2 -59q-12 -21 -26.5 -41t-41.5 -50.5t-63 -49.5t-74 -19q-45 0 -86.5 24.5t-76.5 49t-63 24.5q-17 0 -31.5 -11.5 t-31 -34.5t-18.5 -25q-19 -19 -45 -2l-72 57q-10 7 -13.5 22z" />
<glyph horiz-adv-x="970" d="M59 1718q0 64 44.5 109t109.5 45t110.5 -45t45.5 -109t-45.5 -109.5t-110.5 -45.5q-64 0 -109 45t-45 110zM602 1718q0 64 45 109t109 45q65 0 110 -45t45 -109t-45.5 -109.5t-109.5 -45.5t-109 45t-45 110z" />
<glyph horiz-adv-x="847" d="M123 1677v84q0 17 11 28t28 11h524q17 0 28 -11t11 -28v-84q0 -15 -11 -26t-28 -11h-524q-17 0 -28 11t-11 26z" />
<glyph horiz-adv-x="708" d="M63 1808q-3 19 8 32t31 13h93q11 0 21 -7.5t13 -16.5q14 -43 48 -70.5t77 -27.5q38 0 72.5 29.5t48.5 68.5q3 10 13.5 17t21.5 7h96q19 0 30 -13t9 -32q-17 -106 -98.5 -175.5t-192.5 -69.5q-113 0 -194.5 70t-96.5 175z" />
<glyph horiz-adv-x="593" d="M61 1776q0 98 69 166.5t167 68.5q97 0 166 -68.5t69 -166.5t-69 -167t-166 -69q-98 0 -167 69t-69 167zM207 1776q0 -35 27.5 -62.5t62.5 -27.5t61.5 27.5t26.5 62.5t-26.5 61.5t-61.5 26.5t-62.5 -26.5t-27.5 -61.5z" />
<glyph horiz-adv-x="802" d="M63 1612l62 289q11 38 39 38h192q28 0 38 -15.5t-1 -35.5l-160 -284q-15 -31 -36 -31h-95q-16 0 -29.5 12.5t-9.5 26.5zM403 1612l62 289q11 38 39 38h192q28 0 39 -16t-2 -35l-160 -284q-22 -31 -36 -31h-95q-16 0 -29.5 12.5t-9.5 26.5z" />
<glyph horiz-adv-x="448" d="M47 1745q0 74 51.5 127t124.5 53t125.5 -53t52.5 -127q0 -72 -52.5 -124t-125.5 -52t-124.5 52t-51.5 124z" />
<glyph horiz-adv-x="505" d="M70 -397l20 47q20 48 62 20q33 -26 81 -26q86 0 86 67q0 68 -86 68q-12 0 -24.5 -2.5t-19 -4.5t-17 -6.5t-12.5 -5.5q-17 -6 -33 9t-8 30l96 207h147l-77 -123q12 2 30 2q77 0 131 -44.5t54 -135.5q0 -100 -73.5 -157.5t-182.5 -57.5q-113 0 -172 49q-22 19 -2 64z" />
<glyph horiz-adv-x="565" d="M43 -291q0 52 18.5 99.5t52 86t59 61.5t60.5 50h207q-37 -26 -75.5 -60.5t-77.5 -89t-39 -98.5q0 -75 69 -75q35 0 69.5 20t53.5 39q14 14 29.5 8.5t15.5 -24.5v-117q0 -49 -32 -70q-75 -49 -189 -49q-106 0 -163.5 62t-57.5 157z" />
<glyph horiz-adv-x="598" d="M137 1262q0 96 29 167t78 138q20 20 47 2l61 -45q13 -9 14 -23.5t-10 -23.5q-22 -27 -36.5 -64.5t-14.5 -69.5v-14q31 19 68 19q63 0 100 -38t37 -98q0 -76 -49 -119.5t-127 -43.5q-86 0 -141.5 51.5t-55.5 161.5z" />
<glyph horiz-adv-x="598" d="M137 -295q0 76 49 120t127 44q86 0 141.5 -51.5t55.5 -161.5q0 -96 -29 -167t-78 -138q-21 -21 -47 -2l-61 45q-13 9 -14 23t10 24q22 26 35.5 63.5t13.5 69.5v14q-29 -18 -68 -18q-62 0 -98.5 37.5t-36.5 97.5z" />
<glyph horiz-adv-x="360" d="M125 -307v678q0 17 11.5 28t27.5 11h35q15 0 26 -11t11 -28v-678q0 -15 -12 -26t-27 -11h-33q-15 0 -27 11t-12 26zM125 983v678q0 17 11.5 28t27.5 11h35q15 0 26 -11t11 -28v-678q0 -15 -12 -26t-27 -11h-33q-15 0 -27 11t-12 26z" />
<glyph d="M100 717q0 353 129.5 545t382.5 192q254 0 384 -192t130 -545q0 -352 -130 -544.5t-384 -192.5q-253 0 -382.5 192.5t-129.5 544.5zM422 717q0 -212 48 -326.5t142 -114.5q95 0 144 114.5t49 326.5q0 210 -49 324t-144 114q-94 0 -142 -114t-48 -324z" />
<glyph d="M164 39v190q0 19 11 30t28 11h317v817l-284 -83q-14 -3 -24 8t-13 30l-23 125q-7 36 14 47l408 201q43 19 78 19h119q15 0 25.5 -12t10.5 -27v-1125h252q18 0 29.5 -11.5t11.5 -29.5v-190q0 -17 -12 -28t-29 -11h-880q-17 0 -28 11t-11 28z" />
<glyph d="M102 41v20q0 23 23 52q20 26 123.5 159.5t167 216t144.5 192.5t122 173q55 82 55 160q0 64 -50 108.5t-136 44.5q-58 0 -112.5 -32.5t-90.5 -73.5q-14 -12 -30.5 -12t-28.5 12l-129 131q-11 9 -11.5 26t9.5 29q7 8 20 22t56 50t89 63t116 49.5t141 22.5q219 0 349 -122.5 t130 -303.5q0 -54 -12 -102.5t-25.5 -77.5t-46.5 -92q-38 -70 -185 -258.5t-174 -227.5h412q16 0 28.5 -12t12.5 -29v-188q0 -17 -12.5 -29t-28.5 -12h-885q-17 0 -29 12t-12 29z" />
<glyph d="M121.5 189q0.5 15 11.5 26l127 137q10 12 25.5 12.5t27.5 -8.5q5 -4 13.5 -10.5t35.5 -23t54 -29t64.5 -23t70.5 -10.5q92 0 140 47.5t48 120.5q0 77 -69 124.5t-185 47.5h-125q-15 0 -28 12t-13 27v176q0 17 12.5 28t28.5 11h125q107 0 168.5 45t61.5 115t-47 115 t-127 45q-62 0 -111 -25.5t-78 -58.5q-11 -14 -28.5 -15.5t-28.5 10.5l-123 132q-10 12 -10 28.5t10 26.5q7 7 20 19.5t55.5 44t87 55.5t110.5 43.5t130 19.5q205 0 332 -105t127 -282q0 -113 -64.5 -200t-152.5 -124v-8q52 -19 95.5 -47.5t81 -70.5t58.5 -102.5t21 -133.5 q0 -173 -139 -287t-356 -114q-93 0 -174 20t-135 51.5t-86 58t-52 52.5q-10 12 -9.5 27z" />
<glyph d="M68 338v182q0 40 24 74l621 848q12 12 32 12h162q15 0 27 -12t12 -29v-854h144q17 0 27.5 -11t10.5 -28v-182q0 -16 -10.5 -28.5t-27.5 -12.5h-144v-256q0 -17 -12.5 -29t-28.5 -12h-219q-17 0 -29 12t-12 29v256h-539q-17 0 -27.5 11.5t-10.5 29.5zM367 559h286v389h-2 l-284 -383v-6z" />
<glyph d="M142.5 192.5q-1.5 13.5 17.5 32.5l129 135q10 10 27.5 10.5t27.5 -8.5q63 -52 120.5 -76t131.5 -24q85 0 143 57t58 144q0 96 -58 149.5t-161 53.5h-324q-30 0 -48 23t-18 52v654q0 16 11 27.5t28 11.5h680q17 0 29 -12t12 -27v-187q0 -15 -12 -27t-29 -12h-434v-227h150 q218 0 349.5 -127.5t131.5 -339.5q0 -136 -68 -249.5t-188 -179.5t-266 -66q-77 0 -149 18t-123.5 46t-86.5 55.5t-57 54.5q-22 25 -23.5 38.5z" />
<glyph d="M121 551q0 128 29 243.5t76.5 202.5t111.5 162t130 126.5t135.5 91t125 61t102.5 32.5q50 10 64 -32l61 -164q14 -44 -38 -62q-39 -12 -78.5 -27t-98.5 -46t-105.5 -65.5t-87 -87.5t-54.5 -112q39 18 98 31t102 13q76 0 149 -28.5t134.5 -82.5t99 -144t37.5 -202 q0 -131 -65.5 -242.5t-177 -176.5t-240.5 -65q-160 0 -277 75t-175 204t-58 295zM424 471q0 -84 59.5 -143.5t143.5 -59.5q83 0 141.5 59.5t58.5 143.5t-58.5 144.5t-141.5 60.5q-84 0 -143.5 -60.5t-59.5 -144.5z" />
<glyph d="M135 1204v191q0 15 12 27t29 12h926q17 0 29 -12t12 -27q0 -14 -10 -37l-541 -1297q-26 -61 -88 -61h-211q-18 0 -30.5 11.5t-12.5 29.5v4q0 19 6 35l455 1081v4h-535q-17 0 -29 12t-12 27z" />
<glyph d="M100 381q0 66 25 127t65.5 105t83 74.5t84.5 47.5v8q-217 121 -217 324q0 116 63.5 205t169 135.5t234.5 46.5q134 0 242.5 -46.5t172.5 -135.5t64 -205q0 -110 -63 -192t-154 -130v-10q48 -20 92 -52t82 -75.5t61 -102.5t23 -124q0 -187 -140.5 -294t-379.5 -107 q-231 0 -369.5 107.5t-138.5 293.5zM442 397q0 -72 46.5 -115.5t127.5 -43.5q77 0 123.5 44.5t46.5 114.5q0 61 -45.5 113.5t-128.5 79.5q-80 -27 -125 -80t-45 -113zM465 1055q0 -117 147 -172q74 26 113 71.5t39 100.5q0 56 -42 96.5t-110 40.5q-64 0 -105.5 -40.5 t-41.5 -96.5z" />
<glyph d="M115 971q0 199 142.5 341t340.5 142q239 0 373.5 -159.5t134.5 -413.5q0 -131 -28.5 -248t-74.5 -203t-110 -160t-128 -123t-136 -89t-126 -61t-106 -36q-23 -7 -40 2t-25 31l-62 172q-14 46 41 61l52.5 18t63.5 25t75.5 35t72 44t70.5 56.5t53.5 67.5t36.5 82 q-42 -18 -100 -30.5t-100 -12.5q-77 0 -150 29t-134 83.5t-98.5 144.5t-37.5 202zM399 961q0 -85 60 -145t143 -60q85 0 144 60t59 145q0 82 -59.5 142t-143.5 60q-83 0 -143 -60t-60 -142z" />
<glyph horiz-adv-x="671" d="M68 303q0 153 70 238.5t198 85.5t198 -85.5t70 -238.5q0 -152 -70 -237.5t-198 -85.5t-198 85.5t-70 237.5zM272 303q0 -160 64 -160q63 0 63 160t-63 160q-64 0 -64 -160z" />
<glyph horiz-adv-x="475" d="M53 418v78q0 12 17 22l155 88h129q8 0 13.5 -5.5t5.5 -12.5v-570q0 -7 -5.5 -12.5t-13.5 -5.5h-153q-9 0 -15 5t-6 13v377h-110q-7 0 -12 7t-5 16z" />
<glyph horiz-adv-x="589" d="M63 18v37l209 252q41 52 41 96q0 29 -18 44.5t-45 15.5q-41 0 -72 -31q-24 -16 -37 8l-45 74q-1 2 -5 8.5t-4.5 7.5t-2.5 6t-1 6.5t1.5 5.5t3 6.5l6.5 6.5t10 8q13 10 35 21.5t66.5 24t89.5 12.5q91 0 152 -53t61 -140q0 -85 -62 -172l-81 -108h118q8 0 14.5 -6t6.5 -13 v-117q0 -7 -6.5 -12.5t-14.5 -5.5h-399q-9 0 -15 5t-6 13z" />
<glyph horiz-adv-x="583" d="M78 84l47 70q16 22 41 8q29 -23 74 -23q67 0 67 49q0 23 -17.5 37.5t-49.5 14.5h-68q-10 1 -14.5 3t-8.5 9t-4 20v70q0 35 37 35h58q24 0 40.5 13t16.5 36q0 20 -16 32.5t-43 12.5q-33 0 -62 -22q-8 -7 -16.5 -6.5t-18.5 14.5l-53 71q-18 23 2 43q7 6 20.5 15.5t60 25 t97.5 15.5q103 0 164.5 -46t61.5 -124q0 -90 -105 -144q123 -47 123 -157q0 -83 -71 -129.5t-173 -46.5q-105 0 -184 59q-24 18 -6 45z" />
<glyph horiz-adv-x="665" d="M45 131v127l285 342q3 6 14 6h145q8 0 13.5 -5.5t5.5 -12.5v-334h80q7 0 12.5 -5t5.5 -11v-105q0 -7 -5 -12.5t-13 -5.5h-80v-97q0 -7 -5.5 -12.5t-13.5 -5.5h-139q-8 0 -14 5.5t-6 12.5v97h-267q-7 0 -12.5 5t-5.5 11zM213 250h119v133z" />
<glyph horiz-adv-x="612" d="M88 88l62 80q17 25 34 8q39 -37 105 -37q27 0 49 16t22 42q0 27 -21.5 43t-55.5 16h-148q-14 0 -23.5 10t-9.5 21v301q0 8 6 13t15 5h330q20 0 20 -18v-109q0 -18 -20 -18h-197v-60h59q110 0 172 -52.5t62 -149.5q0 -98 -71.5 -158.5t-190.5 -60.5q-68 0 -120.5 24.5 t-76.5 52.5q-14 14 -2 31z" />
<glyph horiz-adv-x="647" d="M80 223q0 79 29.5 147.5t70 111.5t93.5 78t88 50.5t65 24.5t41 -19l31 -81q3 -10 -1 -20.5t-18 -14.5q-53 -15 -115.5 -51t-82.5 -82q34 24 102 24q74 0 130 -52t56 -146q0 -88 -70 -150.5t-167 -62.5q-115 0 -183.5 68t-68.5 175zM270 203q0 -26 18.5 -43t43.5 -17 t42 17t17 43t-17 43.5t-42 17.5t-43.5 -17.5t-18.5 -43.5z" />
<glyph horiz-adv-x="583" d="M78 18v11l221 426h-188q-8 0 -14.5 5t-6.5 11v117q0 7 6.5 12.5t14.5 5.5h405q8 0 14.5 -5.5t6.5 -12.5v-33l-261 -537q-10 -18 -32 -18h-140q-26 0 -26 18z" />
<glyph horiz-adv-x="657" d="M70 156q0 35 18 66t42 49.5t41.5 28t23.5 11.5v2q-39 14 -73 51t-34 93q0 76 69.5 123t168.5 47q102 0 171.5 -47t69.5 -123q0 -56 -34 -94.5t-72 -49.5v-2q48 -11 87.5 -50t39.5 -105q0 -76 -72.5 -126t-189.5 -50q-114 0 -185 50t-71 126zM264 180q0 -26 20.5 -43.5 t45.5 -17.5q24 0 43.5 16t19.5 45q0 26 -17.5 45t-45.5 19q-25 0 -45.5 -19.5t-20.5 -44.5zM274 428q0 -21 16.5 -36t37.5 -15t36 15t15 36q0 22 -15.5 37.5t-35.5 15.5q-21 0 -37.5 -16t-16.5 -37z" />
<glyph horiz-adv-x="608" d="M57 414q0 87 70.5 150t167.5 63q115 0 183.5 -68t68.5 -176q0 -79 -29.5 -147.5t-70 -111.5t-93.5 -78t-88 -50.5t-65 -24.5t-41 19l-31 82q-9 26 18 34q53 15 116 51.5t83 82.5q-34 -25 -110 -25q-68 0 -123.5 54t-55.5 145zM236 403q0 -26 17 -43.5t42 -17.5t43 17.5 t18 43.5t-18 43t-43 17t-42 -17t-17 -43z" />
<glyph horiz-adv-x="667" d="M66 1130q0 153 70 238.5t198 85.5t198 -85.5t70 -238.5q0 -152 -70 -237.5t-198 -85.5t-198 85.5t-70 237.5zM270 1130q0 -159 64 -159q63 0 63 159q0 160 -63 160q-64 0 -64 -160z" />
<glyph horiz-adv-x="448" d="M43 1245v78q0 13 16 23l156 88h129q7 0 12.5 -5.5t5.5 -13.5v-569q0 -8 -5.5 -13.5t-12.5 -5.5h-154q-9 0 -14.5 5.5t-5.5 13.5v377h-111q-16 0 -16 22z" />
<glyph horiz-adv-x="565" d="M49 846v37l209 252q41 52 41 96q0 29 -18 44t-45 15q-21 0 -41.5 -10t-30.5 -20q-24 -16 -37 8l-45 73q-14 25 -12 33q2 10 20 23q23 18 74.5 37.5t116.5 19.5q92 0 152.5 -52.5t60.5 -139.5q0 -85 -62 -172l-82 -109h119q8 0 14 -5.5t6 -12.5v-117q0 -7 -6 -13t-14 -6 h-399q-9 0 -15 5.5t-6 13.5z" />
<glyph horiz-adv-x="559" d="M61 911l48 70q16 22 41 8q28 -22 73 -22q68 0 68 49q0 23 -17.5 37t-50.5 14h-67q-14 2 -20.5 8t-6.5 25v69q0 35 37 35h57q24 0 41 13.5t17 35.5q0 20 -16 32.5t-44 12.5q-32 0 -61 -22q-8 -7 -16.5 -6.5t-18.5 14.5l-53 72q-18 23 2 43q7 6 20.5 15t60 24.5t97.5 15.5 q103 0 164 -46t61 -124q0 -90 -104 -143q48 -19 85.5 -56.5t37.5 -101.5q0 -83 -71 -129.5t-173 -46.5q-105 0 -184 59q-25 18 -7 45z" />
<glyph horiz-adv-x="665" d="M45 958v127l285 342q4 7 14 7h145q7 0 13 -6t6 -13v-334h80q7 0 12.5 -5t5.5 -11v-104q0 -8 -5.5 -13.5t-12.5 -5.5h-80v-96q0 -8 -6 -13.5t-13 -5.5h-139q-8 0 -14 6t-6 13v96h-267q-7 0 -12.5 5t-5.5 11zM213 1077h119v133z" />
<glyph horiz-adv-x="591" d="M72 915l61 80q18 26 35 9q38 -37 104 -37q27 0 49.5 15.5t22.5 41.5q0 27 -22 43t-56 16h-147q-14 0 -23.5 10t-9.5 21v301q0 8 5.5 13.5t14.5 5.5h330q9 0 15 -5.5t6 -13.5v-108q0 -8 -6 -13.5t-15 -5.5h-196v-59h59q110 0 171.5 -53t61.5 -150q0 -98 -71.5 -158.5 t-190.5 -60.5q-68 0 -119.5 24.5t-76.5 53.5q-13 13 -2 30z" />
<glyph horiz-adv-x="606" d="M59 1051q0 79 30 147.5t70 111.5t93.5 77.5t88 49.5t65.5 25q30 9 40 -18l31 -82q9 -27 -18 -35q-53 -15 -116 -51t-83 -82q34 25 102 25q74 0 130.5 -52.5t56.5 -146.5q0 -87 -70.5 -150t-167.5 -63q-115 0 -183.5 68t-68.5 176zM250 1030q0 -26 18 -42.5t43 -16.5 t42.5 16.5t17.5 42.5t-17.5 44t-42.5 18t-43 -18t-18 -44z" />
<glyph horiz-adv-x="548" d="M59 846v10l222 426h-189q-8 0 -14 5t-6 11v117q0 7 6 13t14 6h406q8 0 14 -6t6 -13v-33l-260 -536q-11 -19 -33 -19h-139q-27 0 -27 19z" />
<glyph horiz-adv-x="645" d="M63 983q0 35 18 66.5t42 50t41.5 28t23.5 11.5v2q-39 14 -72.5 50.5t-33.5 92.5q0 76 69.5 123t167.5 47q102 0 172 -47t70 -123q0 -56 -34 -94t-72 -49v-2q48 -11 87.5 -50.5t39.5 -105.5q0 -76 -73 -126t-190 -50q-114 0 -185 50t-71 126zM258 1008q0 -26 20.5 -44 t45.5 -18q24 0 43.5 16.5t19.5 45.5q0 26 -17.5 44.5t-45.5 18.5q-25 0 -45.5 -19.5t-20.5 -43.5zM268 1255q0 -21 16.5 -36t37.5 -15t36 15t15 36q0 22 -15.5 38t-35.5 16q-21 0 -37.5 -16.5t-16.5 -37.5z" />
<glyph horiz-adv-x="606" d="M57 1241q0 87 70.5 150t167.5 63q115 0 183.5 -68t68.5 -176q0 -79 -29.5 -147.5t-70 -111.5t-93.5 -77.5t-87.5 -49.5t-65.5 -25q-31 -9 -41 18l-31 82q-9 27 18 35q53 15 116 51t83 82q-34 -25 -110 -25q-68 0 -123.5 54t-55.5 145zM236 1231q0 -26 17 -44t42 -18 t43 18t18 44t-18 42.5t-43 16.5t-42 -16.5t-17 -42.5z" />
<glyph horiz-adv-x="1193" d="M61 473q0 205 134 349.5t331 144.5q59 0 113 -15t90 -36.5t64 -43t41 -36.5l12 -15l26 78q6 20 20 33.5t30 13.5h112q18 0 31.5 -13.5t13.5 -31.5v-856q0 -19 -13 -32t-32 -13h-112q-17 0 -30.5 13t-19.5 34l-26 78q-4 -6 -13 -16t-39 -35.5t-64 -45t-88.5 -35.5 t-113.5 -16q-200 0 -333.5 142.5t-133.5 353.5zM373 471q0 -86 57.5 -143.5t142.5 -57.5q87 0 144 57t57 144q0 86 -57 145.5t-144 59.5q-84 0 -142 -60t-58 -145z" />
</font>
</defs>
</svg>
