<?xml version="1.0" standalone="no"?>
<!DOCTYPE svg PUBLIC "-//W3C//DTD SVG 1.1//EN" "http://www.w3.org/Graphics/SVG/1.1/DTD/svg11.dtd" >
<svg xmlns="http://www.w3.org/2000/svg">
<metadata></metadata>
<defs>
<font id="futura_bold_trbold" horiz-adv-x="1404" >
<font-face units-per-em="2048" ascent="1638" descent="-410" />
<missing-glyph horiz-adv-x="702" />
<glyph unicode="fi" horiz-adv-x="1413" d="M29 743v308h131v133q0 68 2 105t11.5 87.5t32 92t60.5 83.5q68 81 164 124.5t203 43.5q90 0 160 -37v-321q-84 35 -131 35q-71 0 -100.5 -41.5t-29.5 -134.5v-170h261v-308h-261v-743h-372v743h-131zM895 1454q0 86 61.5 147.5t147.5 61.5t147.5 -61.5t61.5 -147.5 t-61.5 -147.5t-147.5 -61.5t-147.5 61.5t-61.5 147.5zM918 0v1051h372v-1051h-372z" />
<glyph unicode="fl" horiz-adv-x="1413" d="M29 743v308h131v133q0 68 2 105t11.5 87.5t32 92t60.5 83.5q68 81 164 124.5t203 43.5q90 0 160 -37v-321q-84 35 -131 35q-71 0 -100.5 -41.5t-29.5 -134.5v-170h261v-308h-261v-743h-372v743h-131zM918 0v1700h372v-1700h-372z" />
<glyph unicode=" "  horiz-adv-x="702" />
<glyph unicode="&#x09;" horiz-adv-x="702" />
<glyph unicode="&#xa0;" horiz-adv-x="702" />
<glyph unicode="!" horiz-adv-x="786" d="M154 199q0 100 69.5 169.5t169.5 69.5t170 -69.5t70 -169.5q0 -99 -70.5 -169.5t-169.5 -70.5t-169 70.5t-70 169.5zM201 524v1020h387v-1020h-387z" />
<glyph unicode="&#x22;" horiz-adv-x="1024" d="M96 1544h348l-55 -678h-237zM580 1544h348l-56 -678h-237z" />
<glyph unicode="#" d="M139 354v232h232l49 254h-197v231h240l80 416h217l-80 -416h207l80 416h215l-80 -416h164v-231h-201l-49 -254h192v-232h-241l-68 -354h-217l68 354h-207l-68 -354h-217l68 354h-187zM588 586h209l53 254h-213z" />
<glyph unicode="$" d="M139 178l168 309q75 -72 176.5 -122t194.5 -50q72 0 132 40t60 110q0 28 -13.5 50.5t-33 37.5t-54.5 30t-64 24.5t-77 25t-79 26.5q-55 21 -96 41.5t-86 54.5t-73.5 74t-47.5 100t-19 132q0 187 117 328t301 153v248h191v-248q223 -24 372 -119l-151 -297 q-127 101 -262 101q-74 0 -124 -28.5t-50 -86.5q0 -17 6.5 -33.5t14 -28t24.5 -24.5t27 -20t33.5 -17t32 -13.5t34 -13t28.5 -10.5q58 -19 99 -34t90.5 -38.5t84 -47t69 -57.5t55.5 -72t34 -89t13 -110q0 -208 -110 -328t-320 -172v-256h-191v244q-128 0 -264 51 q-162 61 -242 135z" />
<glyph unicode="%" horiz-adv-x="1996" d="M39 1190q0 119 58.5 205.5t152.5 128t211 41.5t211 -41.5t152.5 -128t58.5 -205.5q0 -181 -118.5 -281t-303.5 -100t-303.5 100t-118.5 281zM287 1186q0 -72 51 -122t123 -50t123 50t51 122t-51 123t-123 51t-123 -51t-51 -123zM449 0l897 1544h200l-897 -1544h-200z M1114 360q0 119 58.5 205.5t152.5 128t211 41.5t211 -41.5t152.5 -128t58.5 -205.5q0 -181 -118.5 -280.5t-303.5 -99.5t-303.5 99.5t-118.5 280.5zM1362 356q0 -72 51 -122t123 -50t123 50t51 122t-51 123t-123 51t-123 -51t-51 -123z" />
<glyph unicode="&#x26;" horiz-adv-x="1736" d="M78 401q0 84 23.5 151.5t70 118.5t103.5 88t135 72l36 17l-32 45q-60 81 -79 122q-32 68 -32 146q0 129 68.5 227.5t176.5 147.5t234 49q93 0 179.5 -29t154.5 -81.5t109 -133t41 -176.5q0 -70 -21.5 -127t-64 -101.5t-88.5 -75.5t-113 -66l195 -205q132 118 202 219 l228 -217l-195 -209l-18 -18l346 -365h-502l-133 143q-276 -184 -529 -184q-136 0 -247 50.5t-179.5 152.5t-68.5 239zM494 461q0 -65 53.5 -103.5t120.5 -38.5q112 0 215 64l-244 262q-145 -86 -145 -184zM684 1186q0 -12 2 -24.5t8 -26.5t10 -23.5t15 -25t15 -22 t18.5 -23.5t17 -20t18.5 -21l17 -19q61 33 102 81.5t41 106.5q0 61 -37.5 102.5t-97.5 41.5q-55 0 -92 -35.5t-37 -91.5z" />
<glyph unicode="'" horiz-adv-x="512" d="M82 1544h348l-55 -678h-238z" />
<glyph unicode="(" horiz-adv-x="720" d="M100 586q0 269 76.5 551.5t220.5 480.5l224 -127q-120 -190 -178 -434.5t-58 -495.5q0 -239 60 -496t176 -430l-224 -127q-102 134 -171.5 327.5t-97.5 380t-28 370.5z" />
<glyph unicode=")" horiz-adv-x="720" d="M100 -365q116 173 176 430t60 496q0 251 -58 495.5t-178 434.5l224 127q144 -198 220.5 -480.5t76.5 -551.5q0 -184 -28 -370.5t-97.5 -380t-171.5 -327.5z" />
<glyph unicode="*" horiz-adv-x="989" d="M139 1288l94 156l179 -113l-11 213h185l-11 -219l183 115l92 -156l-195 -102l193 -107l-92 -153l-181 116l9 -207h-185l13 205l-174 -110l-93 155l185 103z" />
<glyph unicode="+" d="M178 373v307h371v371h307v-371h371v-307h-371v-373h-307v373h-371z" />
<glyph unicode="," horiz-adv-x="702" d="M45 -289l266 680h351l-377 -680h-240z" />
<glyph unicode="-" horiz-adv-x="802" d="M109 504v307h585v-307h-585z" />
<glyph unicode="." horiz-adv-x="702" d="M113 199q0 100 69.5 169.5t169.5 69.5t170 -69.5t70 -169.5q0 -99 -70.5 -169.5t-169.5 -70.5t-169 70.5t-70 169.5z" />
<glyph unicode="/" horiz-adv-x="1185" d="M55 -190l783 1890h292l-782 -1890h-293z" />
<glyph unicode="0" d="M47 772q0 123 23.5 240.5t75.5 226t126.5 189.5t185.5 129.5t244 48.5t244 -48.5t186 -129.5t127 -189.5t75.5 -226t23.5 -240.5t-23.5 -240.5t-75.5 -225.5t-127 -189t-186 -129.5t-244 -48.5t-244 48.5t-185.5 129.5t-126.5 189t-75.5 225.5t-23.5 240.5zM446 774 q0 -50 6.5 -108t25 -126t45.5 -121.5t74 -89.5t105 -36t105 36t74 89.5t45.5 121.5t25 126t6.5 108q0 65 -12 139t-38.5 154t-80 132t-125.5 52t-125.5 -52t-80 -132t-38.5 -154t-12 -139z" />
<glyph unicode="1" d="M330 1204v340h622v-1544h-401v1204h-221z" />
<glyph unicode="2" d="M68 0l630 686q76 83 126 182t50 197q0 78 -50 139.5t-126 61.5q-79 0 -123.5 -54t-44.5 -135q0 -25 7 -65h-443q8 268 169.5 431t432.5 163q121 0 229.5 -39t190 -109t129 -174t47.5 -227q0 -156 -61 -268t-189 -226l-239 -223h506v-340h-1241z" />
<glyph unicode="3" d="M70 502h409q0 -94 60 -156.5t155 -62.5q94 0 154.5 57t60.5 149q0 85 -63.5 146t-149.5 61q-23 0 -69 -12v268h41q79 0 127.5 45.5t48.5 124.5q0 71 -44.5 113.5t-113.5 42.5q-76 0 -121 -50.5t-43 -127.5h-372q23 232 180 373q148 133 393 133q141 0 251.5 -51 t176.5 -154t66 -244q0 -99 -41 -185.5t-121 -131.5q116 -31 184 -145.5t68 -243.5q0 -122 -50.5 -221t-135 -161.5t-191 -96t-223.5 -33.5q-292 0 -461 174q-75 75 -127.5 184t-48.5 205z" />
<glyph unicode="4" d="M33 319v256l596 969h526v-917h186v-308h-186v-319h-373v319h-749zM418 627h364v594h-4z" />
<glyph unicode="5" horiz-adv-x="1411" d="M117 78l59 379q203 -178 430 -178q99 0 172.5 64t73.5 163q0 54 -20 98.5t-53.5 75t-77.5 51t-91 30t-96 9.5q-160 0 -295 -63l135 837h803v-340h-534l-27 -176l127 10q154 13 281 -60t196.5 -204t69.5 -289q0 -123 -51.5 -231t-147.5 -186q-162 -129 -450 -129 q-287 0 -504 139z" />
<glyph unicode="6" d="M47 496q0 285 248 614l332 434h454l-438 -522l4 -4q109 47 215 47q110 0 204.5 -45t157.5 -120t98.5 -173t35.5 -205q0 -111 -35 -206t-97 -163.5t-146 -117t-182 -72.5t-204 -24q-122 0 -238 32.5t-202 100.5q-94 80 -150.5 192.5t-56.5 231.5zM438 510q0 -104 75 -180 t179 -76q105 0 176.5 75.5t71.5 180.5t-71.5 178.5t-176.5 73.5q-104 0 -179 -74t-75 -178z" />
<glyph unicode="7" d="M86 0l705 1204h-646v340h1268l-887 -1544h-440z" />
<glyph unicode="8" d="M113 406q0 150 81.5 253t225.5 152v4q-108 37 -176 133t-68 217q0 86 29.5 159t79.5 124t117.5 87.5t143.5 53.5t156 17q101 0 194 -28t168 -81t120 -139t45 -193q0 -121 -68 -217t-176 -133v-4q144 -49 225.5 -152t81.5 -253q0 -92 -35.5 -170.5t-95 -132t-136.5 -91.5 t-159 -55.5t-164 -17.5t-164 17.5t-159 55.5t-136 91.5t-94.5 132t-35.5 170.5zM518 457q0 -80 53 -134.5t131 -54.5t131.5 54.5t53.5 134.5t-53.5 136t-131.5 56t-131 -56t-53 -136zM532 1153q0 -73 50 -123.5t120 -50.5q71 0 120.5 50.5t49.5 123.5t-49.5 123.5 t-120.5 50.5q-70 0 -120 -50.5t-50 -123.5z" />
<glyph unicode="9" d="M47 1022q0 111 35 206t97 163.5t146 117.5t182 73t204 24q122 0 238 -32.5t202 -100.5q95 -76 151 -190t56 -236q0 -286 -248 -615l-330 -432h-456l440 520l-4 4q-109 -47 -217 -47q-110 0 -204.5 45t-157.5 120.5t-98.5 174t-35.5 205.5zM465 1034q0 -106 71.5 -180 t176.5 -74t180.5 74.5t75.5 179.5t-75.5 179.5t-180.5 74.5t-176.5 -74t-71.5 -180z" />
<glyph unicode=":" horiz-adv-x="702" d="M113 199q0 100 69.5 169.5t169.5 69.5t170 -69.5t70 -169.5q0 -99 -70.5 -169.5t-169.5 -70.5t-169 70.5t-70 169.5zM113 889q0 100 69.5 169.5t169.5 69.5t170 -69.5t70 -169.5q0 -99 -70.5 -169.5t-169.5 -70.5t-169 70.5t-70 169.5z" />
<glyph unicode=";" horiz-adv-x="702" d="M16 -289l267 680h350l-377 -680h-240zM207 889q0 100 69.5 169.5t169.5 69.5t170 -69.5t70 -169.5q0 -99 -70.5 -169.5t-169.5 -70.5t-169 70.5t-70 169.5z" />
<glyph unicode="&#x3c;" d="M203 403v246l1001 373v-307l-561 -187v-4l561 -186v-307z" />
<glyph unicode="=" d="M178 127v307h1049v-307h-1049zM178 618v308h1049v-308h-1049z" />
<glyph unicode="&#x3e;" d="M203 31v307l561 186v4l-561 187v307l1001 -373v-246z" />
<glyph unicode="?" horiz-adv-x="1218" d="M31 1104q0 91 30.5 169t84 135t125 97t153 60t168.5 20q214 0 358 -127q81 -68 128.5 -161t47.5 -193q0 -163 -102 -276t-268 -166v-146h-375v397q52 -10 86 -10q62 0 120.5 21t101 69t42.5 113q0 64 -42 109t-107 45q-69 0 -106.5 -43.5t-37.5 -112.5h-407zM336 199 q0 100 69.5 169.5t169.5 69.5t170 -69.5t70 -169.5q0 -99 -70.5 -169.5t-169.5 -70.5t-169 70.5t-70 169.5z" />
<glyph unicode="@" horiz-adv-x="1515" d="M10 772q0 171 61.5 322.5t166 259t249.5 169.5t306 62q283 0 481 -178q229 -203 229 -479q0 -267 -127 -436q-71 -94 -154.5 -140t-160.5 -41q-43 1 -79 35t-48 84q-104 -119 -262 -119q-137 0 -240.5 112.5t-103.5 268.5q0 127 50 239t147.5 183.5t219.5 71.5 q161 0 252 -127l21 108h194l-102 -532q-14 -58 -14 -90q0 -22 8.5 -34t30.5 -11q38 5 82 55t78.5 133t39.5 168q8 168 -65 291.5t-198.5 184.5t-285.5 61q-169 0 -302.5 -80t-207 -221.5t-73.5 -319.5q0 -185 81 -327t221 -217.5t316 -75.5q120 0 216 23.5t151 57.5 l168 -135q-272 -139 -551 -139q-163 0 -309.5 62t-253.5 169t-169.5 258.5t-62.5 323.5zM573 725q0 -79 42 -133.5t114 -54.5q86 0 135 67.5t58 157.5q10 88 -31.5 143.5t-116.5 55.5q-83 0 -142 -73t-59 -163z" />
<glyph unicode="A" horiz-adv-x="1599" d="M-8 0l594 1544h438l582 -1544h-428l-101 268h-553l-106 -268h-426zM635 575h334l-164 492h-4z" />
<glyph unicode="B" horiz-adv-x="1386" d="M131 0v1544h574q458 0 458 -401q0 -230 -170 -316v-4q161 -23 238.5 -124.5t77.5 -268.5q0 -94 -31 -168.5t-83.5 -123t-125 -80t-151.5 -45t-168 -13.5h-619zM532 307h52q138 0 196 16q123 33 123 148q0 168 -223 168h-107h-41v-332zM532 938h46q47 0 81 5t67.5 20 t51 46t17.5 78q0 41 -15 70t-36 44t-55.5 23.5t-61.5 10.5t-66 2h-29v-299z" />
<glyph unicode="C" horiz-adv-x="1351" d="M53 770q0 159 58.5 304t169.5 261q116 118 270 184t317 66q174 0 367 -78v-481q-60 83 -152.5 126.5t-199.5 43.5q-182 0 -297 -122.5t-115 -305.5q0 -185 115.5 -302.5t302.5 -117.5q98 0 190.5 44t155.5 120v-481q-89 -28 -128 -39t-103 -22t-123 -11 q-161 0 -309.5 58.5t-270.5 168.5q-248 225 -248 584z" />
<glyph unicode="D" horiz-adv-x="1540" d="M131 0v1544h569q159 0 303.5 -60t250.5 -162.5t168.5 -246t62.5 -303.5q0 -159 -63 -303t-168.5 -246.5t-250.5 -162.5t-303 -60h-569zM532 340h91q92 0 171 25.5t141 77t97 136t35 193.5q0 203 -121.5 317.5t-318.5 114.5h-95v-864z" />
<glyph unicode="E" horiz-adv-x="1126" d="M131 0v1544h879v-340h-478v-256h453v-340h-453v-268h478v-340h-879z" />
<glyph unicode="F" horiz-adv-x="1110" d="M131 0v1544h887v-340h-486v-256h441v-340h-441v-608h-401z" />
<glyph unicode="G" horiz-adv-x="1724" d="M53 764q0 248 105 437t295 291.5t438 102.5q242 0 419.5 -108.5t276.5 -323.5l-381 -159q-43 114 -128.5 179.5t-205.5 65.5q-77 0 -143 -28t-112.5 -75.5t-80 -110t-49.5 -132t-16 -141.5q0 -73 17 -142.5t51 -131t82 -108.5t114.5 -74t143.5 -27q136 0 223.5 68.5 t99.5 199.5h-328v315h797q-5 -204 -35 -341.5t-123 -268.5q-219 -303 -636 -303q-240 0 -427.5 102.5t-292 288t-104.5 424.5z" />
<glyph unicode="H" horiz-adv-x="1644" d="M131 0v1544h401v-596h580v596h401v-1544h-401v633h-580v-633h-401z" />
<glyph unicode="I" horiz-adv-x="663" d="M131 0v1544h401v-1544h-401z" />
<glyph unicode="J" horiz-adv-x="1001" d="M-31 186l232 244q98 -131 161 -131q24 0 43 8t30.5 19t20 31.5t12.5 35.5t6.5 41.5t2.5 40v39.5v12v1018h402v-1042q0 -251 -131 -397t-381 -146t-398 227z" />
<glyph unicode="K" horiz-adv-x="1552" d="M131 0v1544h401v-637h5l485 637h498l-615 -731l670 -813h-520l-518 670h-5v-670h-401z" />
<glyph unicode="L" horiz-adv-x="1013" d="M131 0v1544h401v-1204h482v-340h-883z" />
<glyph unicode="M" horiz-adv-x="2013" d="M39 0l262 1544h395l314 -825l331 825h400l233 -1544h-401l-113 889h-4l-371 -889h-159l-355 889h-4l-129 -889h-399z" />
<glyph unicode="N" horiz-adv-x="1804" d="M131 0v1544h401l736 -944h4v944h401v-1544h-401l-735 946h-5v-946h-401z" />
<glyph unicode="O" horiz-adv-x="1816" d="M53 801q0 137 46 261.5t127 220t188 167t234 108.5t259 37t259 -37t234 -108.5t188 -167t127 -220t46 -261.5q0 -185 -64 -343.5t-176 -270.5t-271 -175t-343 -63t-343 63t-271 175t-176 270.5t-64 343.5zM471 799q0 -197 127.5 -329t308.5 -132t308.5 132t127.5 329 q0 79 -35 153.5t-93.5 130t-139.5 89.5t-168 34t-168 -34t-139.5 -89.5t-93.5 -130t-35 -153.5z" />
<glyph unicode="P" horiz-adv-x="1353" d="M131 0v1544h614q127 0 229 -30t177 -91t115.5 -159t40.5 -228q0 -270 -138.5 -397t-408.5 -127h-228v-512h-401zM532 836h68q36 0 54.5 0.5t51 2.5t50 7t42.5 13.5t38.5 22.5t27 33t19.5 47t6 62q0 32 -5.5 58.5t-12.5 46t-22.5 34t-28 24.5t-36.5 16.5t-39.5 10 t-45.5 5.5t-47.5 2h-51.5h-68v-385z" />
<glyph unicode="Q" horiz-adv-x="1816" d="M53 801q0 137 46 261.5t127 220t188 167t234 108.5t259 37q179 0 336 -59.5t271.5 -165.5t180.5 -262t66 -340q0 -298 -198 -543l260 -264l-369 -57l-123 145q-168 -100 -424 -100q-184 0 -343 63t-271 175t-176 270.5t-64 343.5zM471 799q0 -197 128 -329t310 -132 q67 0 123 20l-248 246l379 47l109 -112q71 100 71 227q0 114 -57.5 215.5t-158 163t-218.5 61.5q-178 0 -308 -123t-130 -284z" />
<glyph unicode="R" horiz-adv-x="1392" d="M131 0v1544h600q117 0 213 -28.5t169.5 -85t114 -148.5t40.5 -213q0 -108 -37.5 -198.5t-115.5 -154.5t-185 -83l485 -633h-500l-378 594h-5v-594h-401zM532 852h39q45 0 80.5 3.5t74.5 15.5t64.5 32t42.5 56t17 85t-17 85t-42.5 56.5t-64.5 32.5t-74.5 15.5t-80.5 3.5 h-39v-385z" />
<glyph unicode="S" horiz-adv-x="1261" d="M61 135l172 324q182 -160 357 -160q77 0 135.5 40t58.5 116q0 32 -18 59t-41 44t-61.5 33t-62 23t-60.5 17q-62 18 -103 31.5t-89.5 34t-78.5 42t-61 53.5t-48 70.5t-27.5 90t-10.5 114.5q0 233 149 375.5t383 142.5q119 0 250.5 -34.5t233.5 -92.5l-160 -311 q-120 102 -266 102q-63 0 -117.5 -34.5t-54.5 -94.5q0 -96 178 -147l102 -31q69 -21 122 -45t103.5 -59.5t83.5 -79t52.5 -104t19.5 -134.5q0 -281 -160 -416q-171 -145 -438 -145q-297 0 -543 176z" />
<glyph unicode="T" horiz-adv-x="1091" d="M12 1204v340h1065v-340h-332v-1204h-401v1204h-332z" />
<glyph unicode="U" horiz-adv-x="1593" d="M123 676v868h401v-813q0 -51 1.5 -87t7.5 -83.5t17 -80t31.5 -67t48.5 -55t70.5 -34t96.5 -13.5t96.5 13.5t70.5 34t48 55t31 67t17 80t7.5 83.5t1.5 87v813h401v-868q0 -92 -4 -151t-18.5 -136.5t-49 -141t-89.5 -116.5q-93 -88 -228.5 -130t-283.5 -42t-283.5 42 t-228.5 130q-45 43 -76 96t-47.5 101.5t-25.5 114.5t-11 113.5t-2 119.5z" />
<glyph unicode="V" horiz-adv-x="1558" d="M-31 1544h437l372 -938l375 938h436l-659 -1544h-312z" />
<glyph unicode="W" horiz-adv-x="2287" d="M-31 1544h418l268 -997h4l324 997h320l303 -997h4l291 997h417l-493 -1544h-410l-270 895h-4l-303 -895h-408z" />
<glyph unicode="X" horiz-adv-x="1615" d="M-16 0l604 825l-494 719h494l235 -399l236 399h493l-493 -719l571 -825h-483l-324 504l-354 -504h-485z" />
<glyph unicode="Y" horiz-adv-x="1462" d="M-39 1544h481l289 -420l289 420h481l-569 -803v-741h-402v741z" />
<glyph unicode="Z" horiz-adv-x="1447" d="M23 0l731 1204h-607v340h1278l-727 -1204h648v-340h-1323z" />
<glyph unicode="[" horiz-adv-x="716" d="M106 -492v2110h504v-217h-219v-1675h219v-218h-504z" />
<glyph unicode="\" horiz-adv-x="1185" d="M55 1700h295l780 -1700h-290z" />
<glyph unicode="]" horiz-adv-x="716" d="M106 -274h220v1675h-220v217h504v-2110h-504v218z" />
<glyph unicode="^" d="M211 834l369 772h245l369 -772l-233 -138l-259 551l-258 -551z" />
<glyph unicode="_" horiz-adv-x="1024" d="M0 -231h1024v-154h-1024v154z" />
<glyph unicode="`" horiz-adv-x="823" d="M154 1516l227 163l289 -352l-166 -121z" />
<glyph unicode="a" horiz-adv-x="1396" d="M47 526q0 150 65.5 277.5t187.5 204.5t273 77q95 0 181.5 -35t144.5 -102v103h373v-1051h-373v117h-4q-47 -75 -133 -113.5t-184 -38.5q-152 0 -274.5 77t-189.5 205t-67 279zM432 524q0 -103 64 -169t176 -66t175.5 66t63.5 169q0 101 -64.5 169.5t-174.5 68.5 t-175 -68.5t-65 -169.5z" />
<glyph unicode="b" horiz-adv-x="1396" d="M111 0v1700h372v-752q58 67 144.5 102t181.5 35q151 0 273 -77t187.5 -204.5t65.5 -277.5q0 -151 -66.5 -279t-189 -205t-274.5 -77q-97 0 -183 38.5t-135 113.5h-4v-117h-372zM471 524q0 -103 64 -169t176 -66t175.5 66t63.5 169q0 101 -64.5 169.5t-174.5 68.5 t-175 -68.5t-65 -169.5z" />
<glyph unicode="c" horiz-adv-x="989" d="M47 514q0 166 78 297t212 202.5t298 71.5q136 0 246 -61v-315q-98 73 -193 73q-108 0 -182 -74t-74 -182q0 -115 72.5 -186.5t189.5 -71.5q112 0 187 72v-315q-120 -60 -263 -60q-154 0 -285 70.5t-208.5 197t-77.5 281.5z" />
<glyph unicode="d" horiz-adv-x="1396" d="M61 526q0 150 66 277.5t188 204.5t273 77q95 0 181 -35t144 -102v752h373v-1700h-373v117h-4q-47 -75 -133 -113.5t-184 -38.5q-152 0 -274.5 77t-189.5 205t-67 279zM446 524q0 -103 64 -169t176 -66t176 66t64 169q0 101 -65 169.5t-175 68.5t-175 -68.5t-65 -169.5z " />
<glyph unicode="e" horiz-adv-x="1249" d="M45 524q0 259 161 410t421 151q272 0 423.5 -156t151.5 -427v-39h-784q0 -234 233 -234q62 0 105 22.5t73 74.5h359q-29 -119 -112.5 -202.5t-191 -121t-231.5 -37.5q-176 0 -312 63.5t-216 191.5t-80 304zM424 678h432q-13 74 -73.5 120t-137.5 46q-84 0 -144 -43 t-77 -123z" />
<glyph unicode="f" horiz-adv-x="794" d="M29 743v308h131v133q0 68 2 105t11.5 87.5t32 92t60.5 83.5q68 81 164 124.5t203 43.5q90 0 160 -37v-321q-84 35 -131 35q-71 0 -100.5 -41.5t-29.5 -134.5v-170h261v-308h-261v-743h-372v743h-131z" />
<glyph unicode="g" horiz-adv-x="1386" d="M51 516q0 114 39.5 217.5t109 181.5t171 124t219.5 46q206 0 309 -145h4v111h373v-949q0 -327 -154.5 -476.5t-453.5 -149.5q-94 0 -191 24t-185 71t-149 126.5t-73 179.5h417q13 -53 70 -80q49 -24 107 -24q59 0 102.5 15.5t69.5 41t41.5 65.5t20.5 82t5 97v49 q-74 -74 -153 -108.5t-181 -34.5q-150 0 -268.5 70.5t-184 193t-65.5 272.5zM436 532q0 -103 64 -169t176 -66t175.5 66t63.5 169q0 101 -64.5 169.5t-174.5 68.5t-175 -68.5t-65 -169.5z" />
<glyph unicode="h" horiz-adv-x="1353" d="M123 0v1700h373v-782h4q66 87 146 127t190 40q194 0 294.5 -118.5t100.5 -323.5v-643h-373v539q0 42 -3 73.5t-13 66.5t-28 57.5t-49.5 37t-74.5 14.5q-53 0 -92 -21t-60.5 -57.5t-31.5 -79t-10 -91.5v-539h-373z" />
<glyph unicode="i" horiz-adv-x="618" d="M100 1454q0 86 61.5 147.5t147.5 61.5t147.5 -61.5t61.5 -147.5t-61.5 -147.5t-147.5 -61.5t-147.5 61.5t-61.5 147.5zM123 0v1051h373v-1051h-373z" />
<glyph unicode="j" horiz-adv-x="618" d="M100 1454q0 86 61.5 147.5t147.5 61.5t147.5 -61.5t61.5 -147.5t-61.5 -147.5t-147.5 -61.5t-147.5 61.5t-61.5 147.5zM123 -524v1575h373v-1575h-373z" />
<glyph unicode="k" horiz-adv-x="1409" d="M123 0v1700h373v-1028l387 379h510l-527 -486l559 -565h-522l-407 428v-428h-373z" />
<glyph unicode="l" horiz-adv-x="618" d="M123 0v1700h373v-1700h-373z" />
<glyph unicode="m" horiz-adv-x="2025" d="M123 0v1051h373v-131h4q124 165 331 165q250 0 359 -200q53 96 148.5 148t207.5 52q359 0 359 -415v-670h-373v502v39t-1 40t-3.5 44t-7.5 40t-12.5 40t-19.5 32t-27 28t-36 16t-47 7q-36 0 -64 -10t-46.5 -25t-31.5 -39.5t-20 -46.5t-10.5 -55t-4.5 -55t-1 -55v-502 h-373v502q0 34 -0.5 54t-3.5 55t-9 57t-18 49t-29.5 42.5t-44 26.5t-60.5 11t-61 -11t-44 -26.5t-29 -42.5t-18 -49t-9.5 -57t-4 -55.5t-0.5 -53.5v-502h-373z" />
<glyph unicode="n" horiz-adv-x="1353" d="M123 0v1051h373v-136h4q64 94 143 132t193 38q105 0 182 -31.5t123 -90.5t68 -137t22 -177v-649h-373v512v84q0 38 -7.5 70t-25.5 60.5t-52.5 45t-82.5 16.5q-194 0 -194 -243v-545h-373z" />
<glyph unicode="o" horiz-adv-x="1355" d="M45 524q0 105 33.5 196t92.5 157.5t138.5 113.5t173 70.5t195.5 23.5t195.5 -23.5t173 -70.5t138.5 -113.5t92.5 -157.5t33.5 -196q0 -130 -51 -237t-138.5 -176.5t-201.5 -107.5t-242 -38q-127 0 -241 37.5t-201.5 107t-139 177t-51.5 237.5zM438 524q0 -103 64 -169 t176 -66t176 66t64 169q0 101 -65 169.5t-175 68.5t-175 -68.5t-65 -169.5z" />
<glyph unicode="p" horiz-adv-x="1396" d="M111 -524v1575h372v-119h4q49 75 135 114t183 39q114 0 214 -46t168.5 -122.5t108 -179.5t39.5 -215q0 -113 -39 -215t-107 -177.5t-167 -120t-213 -44.5q-96 0 -182 34t-144 101v-624h-372zM471 524q0 -103 64 -169t176 -66t175.5 66t63.5 169q0 101 -64.5 169.5 t-174.5 68.5t-175 -68.5t-65 -169.5z" />
<glyph unicode="q" horiz-adv-x="1396" d="M61 522q0 149 67 277.5t190 207t274 78.5q97 0 183.5 -39t133.5 -114h4v119h373v-1575h-373v624q-58 -67 -143.5 -101t-181.5 -34q-153 0 -274.5 76t-187 203t-65.5 278zM446 524q0 -103 64 -169t176 -66t176 66t64 169q0 101 -65 169.5t-175 68.5t-175 -68.5t-65 -169.5 z" />
<glyph unicode="r" horiz-adv-x="927" d="M123 0v1051h373v-172h4q102 186 340 186h71v-358q-56 34 -157 34q-75 0 -127 -23.5t-80 -68.5t-39.5 -99t-11.5 -126v-424h-373z" />
<glyph unicode="s" horiz-adv-x="1050" d="M53 86l135 260q61 -43 145 -74.5t150 -31.5q44 0 80.5 20t36.5 59q0 20 -10 35t-24.5 24.5t-39.5 17.5t-47 13t-55.5 12.5t-56.5 14.5q-40 11 -69 23t-62.5 34t-54 50t-34.5 71.5t-14 98.5q0 75 26 137.5t70.5 105t104.5 72.5t126 43.5t136 13.5q197 0 346 -67l-125 -238 q-94 51 -201 51q-41 0 -78.5 -17.5t-37.5 -53.5q0 -15 6.5 -27t19 -21t25 -15.5t31 -11t31 -7.5t31 -6t24.5 -4q305 -59 305 -312q0 -99 -42.5 -176.5t-114.5 -123t-158 -68.5t-181 -23q-229 0 -424 121z" />
<glyph unicode="t" horiz-adv-x="737" d="M37 743v308h121v315h372v-315h211v-308h-211v-743h-372v743h-121z" />
<glyph unicode="u" horiz-adv-x="1349" d="M117 418v633h372v-562q0 -54 7.5 -92t27 -70.5t57.5 -48.5t95 -16t94.5 16t57 48.5t27 70.5t7.5 92v562h373v-633q0 -453 -559 -453t-559 453z" />
<glyph unicode="v" horiz-adv-x="1275" d="M-31 1051h418l252 -539l250 539h418l-549 -1051h-238z" />
<glyph unicode="w" horiz-adv-x="2039" d="M-31 1051h414l262 -570l264 570h221l265 -570l264 570h412l-549 -1051h-242l-260 575l-260 -575h-242z" />
<glyph unicode="x" horiz-adv-x="1458" d="M-31 0l525 569l-426 482h473l188 -217l189 217h481l-434 -482l524 -569h-490l-270 311l-270 -311h-490z" />
<glyph unicode="y" horiz-adv-x="1339" d="M-31 1051h430l281 -539l274 539h424l-841 -1575h-418l358 667z" />
<glyph unicode="z" horiz-adv-x="1144" d="M16 0l494 741h-428v310h1048l-491 -742h442v-309h-1065z" />
<glyph unicode="{" horiz-adv-x="720" d="M74 465v213q68 0 96 15q46 27 47 93v519q0 77 25.5 140.5t63 99t75.5 54.5t68 19h198v-246h-51q-27 0 -45.5 -8t-28 -17.5t-14.5 -29t-5.5 -31.5t-0.5 -35v-460q0 -188 -197 -218v-4q27 -2 46.5 -6t50.5 -19t50.5 -38.5t34.5 -69t15 -106.5v-455q0 -24 0.5 -36t5.5 -31.5 t14.5 -29t28 -17t45.5 -7.5h51v-246h-198q-30 0 -68 19.5t-75.5 55t-63 98t-25.5 137.5v518q0 72 -30.5 100.5t-73.5 28.5h-39z" />
<glyph unicode="|" horiz-adv-x="1185" d="M440 0v1700h308v-1700h-308z" />
<glyph unicode="}" horiz-adv-x="720" d="M74 -246h51q27 0 45.5 7.5t28 17t14.5 29t5.5 31.5t0.5 36v455q0 61 15 106.5t34.5 69t50.5 38.5t50.5 19t46.5 6v4q-197 30 -197 218v460q0 23 -0.5 35t-5.5 31.5t-14.5 29t-28 17.5t-45.5 8h-51v246h198q30 0 68 -19t75.5 -54.5t63 -99t25.5 -140.5v-519 q0 -31 10.5 -53t23.5 -32.5t35.5 -16t34.5 -6t32 -0.5h7v-213h-39q-43 0 -73.5 -28.5t-30.5 -100.5v-518q0 -75 -25.5 -137.5t-63 -98t-75.5 -55t-68 -19.5h-198v246z" />
<glyph unicode="~" d="M100 487q18 22 53 73t64 87.5t68 77t83.5 62.5t92.5 22q106 0 262 -115q55 -42 116 -72t105 -30q55 0 127 172l234 -199q-26 -43 -41 -67t-45.5 -68.5t-57 -71t-61.5 -55.5t-74 -43t-80 -14q-29 0 -55.5 5t-58 19t-45 20.5t-51.5 29t-42 24.5q-24 15 -64 41t-62.5 40 t-51.5 26t-51 12q-35 0 -70.5 -52.5t-62.5 -119.5z" />
<glyph unicode="&#xa1;" horiz-adv-x="786" d="M154 848q0 100 69.5 169.5t169.5 69.5t170 -69.5t70 -169.5q0 -99 -70.5 -169.5t-169.5 -70.5t-169 70.5t-70 169.5zM201 -498v1020h387v-1020h-387z" />
<glyph unicode="&#xa2;" d="M289 772q0 229 144.5 384t373.5 175v191h190v-203l119 -35v-334q-81 78 -180 78q-111 0 -184.5 -70.5t-73.5 -179.5q0 -105 70.5 -178.5t175.5 -73.5q125 0 192 78v-334q-69 -25 -119 -32v-218h-190v203q-141 5 -260.5 81.5t-188.5 201t-69 266.5z" />
<glyph unicode="&#xa3;" d="M39 614v156h221q-74 120 -74 262q0 110 43 211.5t123 179.5q158 150 432 150q301 0 433 -138.5t137 -443.5h-398v72q0 78 -54.5 136t-131.5 58q-90 0 -142.5 -62.5t-52.5 -154.5q0 -148 84 -270h320v-156h-291q19 -45 19 -135q0 -91 -19 -139l23 -8q207 -70 303 -70 q48 0 76 26.5t28 73.5h250q-13 -178 -108 -286.5t-269 -108.5q-29 0 -56.5 3t-60 10.5t-51.5 12t-59.5 16.5t-54.5 16q-160 51 -260 51q-44 0 -82 -19t-48 -57h-266q13 66 43 129.5t74 116t106 84.5t130 32q53 113 -37 252h-330z" />
<glyph unicode="&#xa4;" horiz-adv-x="1386" d="M51 516q0 114 39.5 217.5t109 181.5t171 124t219.5 46q206 0 309 -145h4v111h373v-949q0 -327 -154.5 -476.5t-453.5 -149.5q-94 0 -191 24t-185 71t-149 126.5t-73 179.5h417q13 -53 70 -80q49 -24 107 -24q59 0 102.5 15.5t69.5 41t41.5 65.5t20.5 82t5 97v49 q-74 -74 -153 -108.5t-181 -34.5q-150 0 -268.5 70.5t-184 193t-65.5 272.5zM301 1618h229q10 -65 55.5 -101t112.5 -36q68 0 114 36t56 101h228q-10 -166 -118.5 -256t-279.5 -90q-170 0 -278.5 90t-118.5 256zM436 532q0 -103 64 -169t176 -66t175.5 66t63.5 169 q0 101 -64.5 169.5t-174.5 68.5t-175 -68.5t-65 -169.5z" />
<glyph unicode="&#xa5;" d="M-23 1544h455l270 -420l271 420h454l-317 -475h186v-156h-290l-115 -172h405v-155h-405v-586h-377v586h-410v155h408l-117 172h-291v156h189z" />
<glyph unicode="&#xa7;" d="M117 621q0 95 48.5 181t127.5 152q-42 41 -67 109t-25 131q0 94 39.5 170t106 123.5t149 72.5t172.5 25q95 0 178 -21.5t151.5 -65.5t110 -119t45.5 -173h-322q-12 55 -50.5 89t-94.5 34q-49 0 -82 -28t-33 -76q0 -25 10 -47.5t21 -36.5t36.5 -31t38 -24t45.5 -22.5 t40 -19.5l227 -114q59 -29 97.5 -50.5t81 -55t66.5 -69t40 -86t16 -112.5q0 -183 -172 -321q52 -45 78.5 -117.5t26.5 -149.5q0 -107 -45.5 -193t-122 -139t-170.5 -80.5t-197 -27.5q-87 0 -170 18.5t-157 58t-129 94.5t-85.5 134t-25.5 172h375q-4 -76 59.5 -131t140.5 -55 q66 0 111 36.5t45 100.5q0 33 -14.5 59.5t-40 45.5t-50.5 32t-57 27q-7 3 -10 4l-324 158q-114 58 -176.5 139t-62.5 199zM430 707q0 -18 4 -34t16 -30t19 -22.5t28 -21t26.5 -16t32 -16.5t28.5 -14l342 -170q23 19 38 50.5t15 60.5q0 20 -6 37t-20 32.5t-24.5 25.5 t-33.5 23.5t-32 18t-34 16.5l-335 170q-64 -38 -64 -110z" />
<glyph unicode="&#xa8;" horiz-adv-x="1236" d="M154 1438q0 85 58 142.5t144 57.5q85 0 143 -57.5t58 -142.5q0 -86 -58 -143.5t-143 -57.5q-86 0 -144 57.5t-58 143.5zM678 1438q0 85 58.5 142.5t144.5 57.5q85 0 142.5 -57.5t57.5 -142.5q0 -86 -57.5 -143.5t-142.5 -57.5q-86 0 -144.5 57.5t-58.5 143.5z" />
<glyph unicode="&#xa9;" horiz-adv-x="1638" d="M8 770q0 167 64 318t172 260t258.5 173t316.5 64t316.5 -64t258.5 -173t172 -260t64 -318q0 -221 -108 -407.5t-294.5 -295t-408.5 -108.5t-408.5 108.5t-294.5 295t-108 407.5zM201 770q0 -177 80.5 -318.5t222 -220.5t315.5 -79q172 0 313.5 78.5t223.5 220.5t82 319 q0 179 -82 322t-223 222t-314 79q-174 0 -315 -79t-222 -222t-81 -322zM403 778q0 207 121 338t326 131q149 0 254 -82t129 -225h-184q-12 72 -67.5 111t-133.5 39q-117 0 -184.5 -90t-67.5 -218q0 -122 73 -217.5t185 -95.5q75 0 133 43.5t62 114.5h184q-17 -144 -125 -230 t-254 -86q-200 0 -325.5 134t-125.5 333z" />
<glyph unicode="&#xaa;" horiz-adv-x="837" d="M23 643v154h794v-154h-794zM23 1249q0 140 96 238t246 98q134 0 210 -82v62h242v-631h-242v70h-4q-29 -45 -84.5 -68t-119.5 -23q-149 0 -246.5 99.5t-97.5 236.5zM272 1249q0 -60 45 -101.5t111 -41.5t111 41.5t45 101.5t-45 102t-111 42t-111 -42t-45 -102z" />
<glyph unicode="&#xab;" horiz-adv-x="1234" d="M53 655l353 504l204 -141l-258 -363l264 -356l-210 -147zM563 655l352 504l205 -141l-258 -363l264 -356l-211 -147z" />
<glyph unicode="&#xac;" d="M178 618v308h1049v-637h-307v329h-742z" />
<glyph unicode="&#xad;" horiz-adv-x="802" d="M109 504v307h585v-307h-585z" />
<glyph unicode="&#xae;" horiz-adv-x="1638" d="M8 770q0 167 64 318t172 260t258.5 173t316.5 64t316.5 -64t258.5 -173t172 -260t64 -318q0 -221 -108 -407.5t-294.5 -295t-408.5 -108.5t-408.5 108.5t-294.5 295t-108 407.5zM201 770q0 -177 80.5 -318.5t222 -220.5t315.5 -79q172 0 313.5 78.5t223.5 220.5t82 319 q0 179 -82 322t-223 222t-314 79q-174 0 -315 -79t-222 -222t-81 -322zM496 358v844h409q81 0 135.5 -9.5t101 -36t69 -79t22.5 -133.5q0 -114 -56.5 -167.5t-172.5 -61.5l204 -357h-204l-189 357h-131v-357h-188zM684 842h225q78 0 113 26t35 101q0 16 -4 29t-14.5 21.5 t-19.5 15t-27.5 10.5t-28.5 6t-33 3t-31.5 1h-32.5h-182v-213z" />
<glyph unicode="&#xaf;" horiz-adv-x="1234" d="M154 1321v219h925v-219h-925z" />
<glyph unicode="&#xb0;" horiz-adv-x="819" d="M102 1276q-4 127 87 218t219 91t218.5 -90.5t90.5 -218.5q0 -126 -90.5 -215.5t-218.5 -89.5t-217 89t-89 216zM276 1278q0 -55 39 -94t95 -39t94.5 38.5t38.5 94.5q0 54 -39.5 93.5t-95.5 39.5q-54 0 -93.5 -39.5t-38.5 -93.5z" />
<glyph unicode="&#xb1;" d="M178 0v307h1049v-307h-1049zM178 743v308h371v290h307v-290h371v-308h-371v-292h-307v292h-371z" />
<glyph unicode="&#xb4;" horiz-adv-x="823" d="M154 1327l288 352l228 -163l-351 -310z" />
<glyph unicode="&#xb6;" d="M96 1034q-13 121 47.5 240.5t168.5 194.5t225 75h772v-186h-135v-1706h-207v1704h-191v-1704h-207v942q-95 9 -170 34.5t-141.5 74.5t-108 132.5t-53.5 198.5z" />
<glyph unicode="&#xb7;" horiz-adv-x="702" d="M113 524q0 100 69.5 170t169.5 70t170 -70t70 -170q0 -98 -70 -168.5t-170 -70.5q-99 0 -169 70t-70 169z" />
<glyph unicode="&#xb8;" horiz-adv-x="778" d="M154 -385l266 324l203 -132l-310 -292z" />
<glyph unicode="&#xba;" horiz-adv-x="839" d="M10 643v154h821v-154h-821zM10 1249q0 154 118.5 245t291.5 91q111 0 203.5 -38.5t150 -116.5t57.5 -181t-57.5 -181t-150 -116.5t-203.5 -38.5q-173 0 -291.5 91t-118.5 245zM266 1249q0 -60 44 -100.5t110 -40.5t110.5 40.5t44.5 100.5t-44.5 101t-110.5 41t-110 -41 t-44 -101z" />
<glyph unicode="&#xbb;" horiz-adv-x="1234" d="M109 299l264 356l-258 363l204 141l353 -504l-353 -503zM618 299l265 356l-258 363l204 141l353 -504l-353 -503z" />
<glyph unicode="&#xbf;" horiz-adv-x="1218" d="M92 -59q0 163 102.5 276t268.5 166v145h375v-397q-52 10 -86 10q-62 0 -120.5 -21t-101.5 -68.5t-43 -112.5q0 -64 42.5 -109t107.5 -45q69 0 106 43.5t37 112.5h408q0 -91 -30.5 -169.5t-84 -135t-125 -97t-153 -60.5t-168.5 -20q-215 0 -359 127q-80 68 -128 161.5 t-48 193.5zM403 848q0 100 70 169.5t170 69.5t170 -69.5t70 -169.5q0 -99 -70.5 -169.5t-169.5 -70.5t-169.5 70.5t-70.5 169.5z" />
<glyph unicode="&#xc0;" horiz-adv-x="1599" d="M-8 0l594 1544h438l582 -1544h-428l-101 268h-553l-106 -268h-426zM543 2009l227 164l289 -352l-166 -121zM635 575h334l-164 492h-4z" />
<glyph unicode="&#xc1;" horiz-adv-x="1599" d="M-8 0l594 1544h438l582 -1544h-428l-101 268h-553l-106 -268h-426zM543 1821l288 352l228 -164l-350 -309zM635 575h334l-164 492h-4z" />
<glyph unicode="&#xc2;" horiz-adv-x="1599" d="M-8 0l594 1544h438l582 -1544h-428l-101 268h-553l-106 -268h-426zM350 1858l447 335l452 -335l-157 -172l-295 227l-295 -227zM635 575h334l-164 492h-4z" />
<glyph unicode="&#xc3;" horiz-adv-x="1599" d="M-8 0l594 1544h438l582 -1544h-428l-101 268h-553l-106 -268h-426zM391 1778q0 107 45 182q31 50 79.5 82.5t102.5 32.5q55 0 175.5 -35t158.5 -35q35 0 51.5 18t30.5 56h174q-4 -58 -22 -113t-49 -103.5t-82 -78t-113 -29.5q-53 0 -158.5 38t-152.5 38q-10 0 -18.5 -1.5 t-15 -7t-10 -8.5t-8.5 -13.5t-6.5 -13t-6 -16.5t-5.5 -16h-168zM635 575h334l-164 492h-4z" />
<glyph unicode="&#xc4;" horiz-adv-x="1599" d="M-8 0l594 1544h438l582 -1544h-428l-101 268h-553l-106 -268h-426zM336 1931q0 85 58.5 143t144.5 58q85 0 142.5 -58t57.5 -143q0 -86 -57.5 -143t-142.5 -57q-87 0 -145 57t-58 143zM635 575h334l-164 492h-4zM860 1931q0 85 58.5 143t144.5 58q85 0 143 -58t58 -143 q0 -86 -58 -143t-143 -57q-87 0 -145 57t-58 143z" />
<glyph unicode="&#xc5;" horiz-adv-x="1599" d="M-8 0l594 1544h438l582 -1544h-428l-101 268h-553l-106 -268h-426zM485 1925q0 63 26.5 111t71.5 74.5t99 39.5t115 13q62 0 116 -12t100.5 -38t73.5 -73.5t27 -112.5q0 -50 -18 -91t-47.5 -67t-70.5 -44t-84.5 -25.5t-90.5 -7.5q-61 0 -114.5 12t-101 37.5t-75 72.5 t-27.5 111zM635 575h334l-164 492h-4zM680 1927q0 -45 36 -66.5t85 -21.5q48 0 83.5 21.5t35.5 66.5t-35.5 66.5t-83.5 21.5q-49 0 -85 -21.5t-36 -66.5z" />
<glyph unicode="&#xc6;" horiz-adv-x="2101" d="M-8 0l596 1544h946l125 -340h-508l94 -256h506l129 -340h-510l100 -268h508l123 -340h-930l-100 268h-559l-96 -268h-424zM623 575h340l-166 459z" />
<glyph unicode="&#xc7;" horiz-adv-x="1351" d="M53 770q0 159 58.5 304t169.5 261q116 118 270 184t317 66q174 0 367 -78v-481q-60 83 -152.5 126.5t-199.5 43.5q-182 0 -297 -122.5t-115 -305.5q0 -185 115.5 -302.5t302.5 -117.5q98 0 190.5 44t155.5 120v-481q-89 -28 -128 -39t-103 -22t-123 -11 q-161 0 -309.5 58.5t-270.5 168.5q-248 225 -248 584zM616 -397l267 323l202 -121l-309 -303z" />
<glyph unicode="&#xc8;" horiz-adv-x="1126" d="M131 0v1544h879v-340h-478v-256h453v-340h-453v-268h478v-340h-879zM305 2009l227 164l289 -352l-166 -121z" />
<glyph unicode="&#xc9;" horiz-adv-x="1126" d="M131 0v1544h879v-340h-478v-256h453v-340h-453v-268h478v-340h-879zM305 1821l289 352l227 -164l-350 -309z" />
<glyph unicode="&#xca;" horiz-adv-x="1126" d="M113 1858l446 335l453 -335l-158 -172l-295 227l-295 -227zM131 0v1544h879v-340h-478v-256h453v-340h-453v-268h478v-340h-879z" />
<glyph unicode="&#xcb;" horiz-adv-x="1126" d="M98 1931q0 85 58.5 143t144.5 58q85 0 143 -58t58 -143q0 -86 -58 -143t-143 -57q-87 0 -145 57t-58 143zM131 0v1544h879v-340h-478v-256h453v-340h-453v-268h478v-340h-879zM623 1931q0 85 58 143t144 58q85 0 143 -58t58 -143q0 -86 -58 -143t-143 -57q-86 0 -144 57 t-58 143z" />
<glyph unicode="&#xcc;" horiz-adv-x="663" d="M74 2009l227 164l289 -352l-166 -121zM131 0v1544h401v-1544h-401z" />
<glyph unicode="&#xcd;" horiz-adv-x="663" d="M74 1821l288 352l228 -164l-350 -309zM131 0v1544h401v-1544h-401z" />
<glyph unicode="&#xce;" horiz-adv-x="663" d="M-119 1858l447 335l452 -335l-157 -172l-295 227l-295 -227zM131 0v1544h401v-1544h-401z" />
<glyph unicode="&#xcf;" horiz-adv-x="663" d="M-133 1931q0 85 58.5 143t144.5 58q85 0 142.5 -58t57.5 -143q0 -86 -57.5 -143t-142.5 -57q-87 0 -145 57t-58 143zM131 0v1544h401v-1544h-401zM391 1931q0 85 58.5 143t144.5 58q85 0 143 -58t58 -143q0 -86 -58 -143t-143 -57q-87 0 -145 57t-58 143z" />
<glyph unicode="&#xd1;" horiz-adv-x="1804" d="M131 0v1544h401l736 -944h4v944h401v-1544h-401l-735 946h-5v-946h-401zM494 1778q0 107 45 182q31 50 79.5 82.5t102.5 32.5q55 0 175.5 -35t158.5 -35q35 0 51.5 18t30.5 56h174q-4 -58 -22 -113t-49.5 -103.5t-82.5 -78t-113 -29.5q-53 0 -158.5 38t-152.5 38 q-10 0 -18.5 -2t-14.5 -7t-10 -8.5t-8.5 -12.5t-6 -13.5t-6 -16.5t-5.5 -16h-168z" />
<glyph unicode="&#xd2;" horiz-adv-x="1816" d="M53 801q0 137 46 261.5t127 220t188 167t234 108.5t259 37t259 -37t234 -108.5t188 -167t127 -220t46 -261.5q0 -185 -64 -343.5t-176 -270.5t-271 -175t-343 -63t-343 63t-271 175t-176 270.5t-64 343.5zM471 799q0 -197 127.5 -329t308.5 -132t308.5 132t127.5 329 q0 79 -35 153.5t-93.5 130t-139.5 89.5t-168 34t-168 -34t-139.5 -89.5t-93.5 -130t-35 -153.5zM651 2009l228 164l288 -352l-166 -121z" />
<glyph unicode="&#xd3;" horiz-adv-x="1816" d="M53 801q0 137 46 261.5t127 220t188 167t234 108.5t259 37t259 -37t234 -108.5t188 -167t127 -220t46 -261.5q0 -185 -64 -343.5t-176 -270.5t-271 -175t-343 -63t-343 63t-271 175t-176 270.5t-64 343.5zM471 799q0 -197 127.5 -329t308.5 -132t308.5 132t127.5 329 q0 79 -35 153.5t-93.5 130t-139.5 89.5t-168 34t-168 -34t-139.5 -89.5t-93.5 -130t-35 -153.5zM651 1821l289 352l227 -164l-350 -309z" />
<glyph unicode="&#xd4;" horiz-adv-x="1816" d="M53 801q0 137 46 261.5t127 220t188 167t234 108.5t259 37t259 -37t234 -108.5t188 -167t127 -220t46 -261.5q0 -185 -64 -343.5t-176 -270.5t-271 -175t-343 -63t-343 63t-271 175t-176 270.5t-64 343.5zM459 1858l446 335l453 -335l-158 -172l-295 227l-295 -227z M471 799q0 -197 127.5 -329t308.5 -132t308.5 132t127.5 329q0 79 -35 153.5t-93.5 130t-139.5 89.5t-168 34t-168 -34t-139.5 -89.5t-93.5 -130t-35 -153.5z" />
<glyph unicode="&#xd5;" horiz-adv-x="1816" d="M53 801q0 137 46 261.5t127 220t188 167t234 108.5t259 37t259 -37t234 -108.5t188 -167t127 -220t46 -261.5q0 -185 -64 -343.5t-176 -270.5t-271 -175t-343 -63t-343 63t-271 175t-176 270.5t-64 343.5zM471 799q0 -197 127.5 -329t308.5 -132t308.5 132t127.5 329 q0 79 -35 153.5t-93.5 130t-139.5 89.5t-168 34t-168 -34t-139.5 -89.5t-93.5 -130t-35 -153.5zM500 1778q0 107 45 182q31 50 79.5 82.5t102.5 32.5q55 0 175.5 -35t158.5 -35q35 0 51.5 18t30.5 56h174q-4 -58 -22 -113t-49 -103.5t-82 -78t-113 -29.5q-53 0 -159 38 t-153 38q-10 0 -18.5 -2t-14.5 -7t-10 -8.5t-8.5 -12.5t-6 -13.5t-6 -16.5t-5.5 -16h-168z" />
<glyph unicode="&#xd6;" horiz-adv-x="1816" d="M53 801q0 137 46 261.5t127 220t188 167t234 108.5t259 37t259 -37t234 -108.5t188 -167t127 -220t46 -261.5q0 -185 -64 -343.5t-176 -270.5t-271 -175t-343 -63t-343 63t-271 175t-176 270.5t-64 343.5zM444 1931q0 85 58.5 143t144.5 58q85 0 143 -58t58 -143 q0 -86 -58 -143t-143 -57q-87 0 -145 57t-58 143zM471 799q0 -197 127.5 -329t308.5 -132t308.5 132t127.5 329q0 79 -35 153.5t-93.5 130t-139.5 89.5t-168 34t-168 -34t-139.5 -89.5t-93.5 -130t-35 -153.5zM969 1931q0 85 58 143t144 58q85 0 143 -58t58 -143 q0 -86 -58 -143t-143 -57q-86 0 -144 57t-58 143z" />
<glyph unicode="&#xd8;" horiz-adv-x="1816" d="M23 100l190 183q-82 118 -121 238t-39 278q0 166 66 313.5t178.5 253.5t269.5 167.5t332 61.5q155 0 299.5 -37.5t237.5 -123.5l196 190l158 -168l-188 -184q82 -115 120.5 -227.5t38.5 -245.5q0 -248 -113.5 -443t-307.5 -301t-431 -106q-300 0 -532 168l-195 -185z M471 799q0 -132 53 -221l598 571q-82 57 -213 57q-115 0 -217 -57t-161.5 -151t-59.5 -199zM680 399q66 -32 116 -46.5t113 -14.5q181 0 307.5 132.5t126.5 328.5q0 109 -53 186z" />
<glyph unicode="&#xd9;" horiz-adv-x="1593" d="M123 676v868h401v-813q0 -51 1.5 -87t7.5 -83.5t17 -80t31.5 -67t48.5 -55t70.5 -34t96.5 -13.5t96.5 13.5t70.5 34t48 55t31 67t17 80t7.5 83.5t1.5 87v813h401v-868q0 -92 -4 -151t-18.5 -136.5t-49 -141t-89.5 -116.5q-93 -88 -228.5 -130t-283.5 -42t-283.5 42 t-228.5 130q-45 43 -76 96t-47.5 101.5t-25.5 114.5t-11 113.5t-2 119.5zM539 2009l227 164l289 -352l-166 -121z" />
<glyph unicode="&#xda;" horiz-adv-x="1593" d="M123 676v868h401v-813q0 -51 1.5 -87t7.5 -83.5t17 -80t31.5 -67t48.5 -55t70.5 -34t96.5 -13.5t96.5 13.5t70.5 34t48 55t31 67t17 80t7.5 83.5t1.5 87v813h401v-868q0 -92 -4 -151t-18.5 -136.5t-49 -141t-89.5 -116.5q-93 -88 -228.5 -130t-283.5 -42t-283.5 42 t-228.5 130q-45 43 -76 96t-47.5 101.5t-25.5 114.5t-11 113.5t-2 119.5zM539 1821l288 352l228 -164l-350 -309z" />
<glyph unicode="&#xdb;" horiz-adv-x="1593" d="M123 676v868h401v-813q0 -51 1.5 -87t7.5 -83.5t17 -80t31.5 -67t48.5 -55t70.5 -34t96.5 -13.5t96.5 13.5t70.5 34t48 55t31 67t17 80t7.5 83.5t1.5 87v813h401v-868q0 -92 -4 -151t-18.5 -136.5t-49 -141t-89.5 -116.5q-93 -88 -228.5 -130t-283.5 -42t-283.5 42 t-228.5 130q-45 43 -76 96t-47.5 101.5t-25.5 114.5t-11 113.5t-2 119.5zM346 1858l447 335l452 -335l-158 -172l-294 227l-295 -227z" />
<glyph unicode="&#xdc;" horiz-adv-x="1593" d="M123 676v868h401v-813q0 -51 1.5 -87t7.5 -83.5t17 -80t31.5 -67t48.5 -55t70.5 -34t96.5 -13.5t96.5 13.5t70.5 34t48 55t31 67t17 80t7.5 83.5t1.5 87v813h401v-868q0 -92 -4 -151t-18.5 -136.5t-49 -141t-89.5 -116.5q-93 -88 -228.5 -130t-283.5 -42t-283.5 42 t-228.5 130q-45 43 -76 96t-47.5 101.5t-25.5 114.5t-11 113.5t-2 119.5zM332 1931q0 85 58.5 143t144.5 58q85 0 142.5 -58t57.5 -143q0 -86 -57.5 -143t-142.5 -57q-87 0 -145 57t-58 143zM856 1931q0 85 58.5 143t144.5 58q85 0 143 -58t58 -143q0 -86 -58 -143t-143 -57 q-87 0 -145 57t-58 143z" />
<glyph unicode="&#xdf;" horiz-adv-x="1333" d="M16 608v297h107v301q0 126 25.5 218.5t101.5 160.5q146 135 405 135q106 0 197.5 -29t162 -84t110.5 -142t40 -197q0 -104 -44.5 -177.5t-137.5 -144.5q159 -63 232 -161t73 -275q0 -113 -43 -228.5t-121 -181.5q-82 -70 -199 -102.5t-241 -32.5h-80v318 q120 -5 198.5 61.5t78.5 185.5q0 115 -82 186.5t-195 63.5v297q91 -5 147 36.5t56 129.5q0 72 -42 114t-114 42q-36 0 -63.5 -8.5t-43.5 -27t-26.5 -37.5t-15 -50t-5.5 -53t-1 -58v-1165h-373v608h-107z" />
<glyph unicode="&#xe0;" horiz-adv-x="1396" d="M47 526q0 150 65.5 277.5t187.5 204.5t273 77q95 0 181.5 -35t144.5 -102v103h373v-1051h-373v117h-4q-47 -75 -133 -113.5t-184 -38.5q-152 0 -274.5 77t-189.5 205t-67 279zM432 524q0 -103 64 -169t176 -66t175.5 66t63.5 169q0 101 -64.5 169.5t-174.5 68.5 t-175 -68.5t-65 -169.5zM440 1516l228 163l288 -352l-165 -121z" />
<glyph unicode="&#xe1;" horiz-adv-x="1396" d="M47 526q0 150 65.5 277.5t187.5 204.5t273 77q95 0 181.5 -35t144.5 -102v103h373v-1051h-373v117h-4q-47 -75 -133 -113.5t-184 -38.5q-152 0 -274.5 77t-189.5 205t-67 279zM432 524q0 -103 64 -169t176 -66t175.5 66t63.5 169q0 101 -64.5 169.5t-174.5 68.5 t-175 -68.5t-65 -169.5zM440 1327l289 352l227 -163l-350 -310z" />
<glyph unicode="&#xe2;" horiz-adv-x="1396" d="M47 526q0 150 65.5 277.5t187.5 204.5t273 77q95 0 181.5 -35t144.5 -102v103h373v-1051h-373v117h-4q-47 -75 -133 -113.5t-184 -38.5q-152 0 -274.5 77t-189.5 205t-67 279zM248 1364l446 336l453 -336l-158 -172l-295 227l-295 -227zM432 524q0 -103 64 -169t176 -66 t175.5 66t63.5 169q0 101 -64.5 169.5t-174.5 68.5t-175 -68.5t-65 -169.5z" />
<glyph unicode="&#xe3;" horiz-adv-x="1396" d="M47 526q0 150 65.5 277.5t187.5 204.5t273 77q95 0 181.5 -35t144.5 -102v103h373v-1051h-373v117h-4q-47 -75 -133 -113.5t-184 -38.5q-152 0 -274.5 77t-189.5 205t-67 279zM291 1284q0 107 45 182q31 50 79.5 82.5t102.5 32.5q55 0 175.5 -35t158.5 -35q35 0 51.5 18 t30.5 56h174q-4 -58 -22 -113t-49 -103t-82 -77.5t-113 -29.5q-53 0 -159 37.5t-153 37.5q-10 0 -18 -1.5t-14.5 -7t-10.5 -8.5t-8.5 -12.5t-6 -13t-6 -16.5t-5.5 -16h-168zM432 524q0 -103 64 -169t176 -66t175.5 66t63.5 169q0 101 -64.5 169.5t-174.5 68.5t-175 -68.5 t-65 -169.5z" />
<glyph unicode="&#xe4;" horiz-adv-x="1396" d="M47 526q0 150 65.5 277.5t187.5 204.5t273 77q95 0 181.5 -35t144.5 -102v103h373v-1051h-373v117h-4q-47 -75 -133 -113.5t-184 -38.5q-152 0 -274.5 77t-189.5 205t-67 279zM233 1438q0 85 58.5 142.5t144.5 57.5q85 0 143 -57.5t58 -142.5q0 -86 -58 -143.5 t-143 -57.5q-86 0 -144.5 57.5t-58.5 143.5zM432 524q0 -103 64 -169t176 -66t175.5 66t63.5 169q0 101 -64.5 169.5t-174.5 68.5t-175 -68.5t-65 -169.5zM758 1438q0 85 58.5 142.5t144.5 57.5q85 0 142.5 -57.5t57.5 -142.5q0 -86 -57.5 -143.5t-142.5 -57.5 q-86 0 -144.5 57.5t-58.5 143.5z" />
<glyph unicode="&#xe5;" horiz-adv-x="1396" d="M47 526q0 150 65.5 277.5t187.5 204.5t273 77q95 0 181.5 -35t144.5 -102v103h373v-1051h-373v117h-4q-47 -75 -133 -113.5t-184 -38.5q-152 0 -274.5 77t-189.5 205t-67 279zM385 1432q0 84 46.5 139t113.5 76.5t151 21.5q49 0 93 -7t86 -24t72 -43t48.5 -67.5 t18.5 -93.5q0 -63 -27 -110t-72.5 -73.5t-99 -39.5t-113.5 -13q-61 0 -114.5 12t-100.5 38t-74.5 73t-27.5 111zM432 524q0 -103 64 -169t176 -66t175.5 66t63.5 169q0 101 -64.5 169.5t-174.5 68.5t-175 -68.5t-65 -169.5zM580 1434q0 -46 35.5 -67t84.5 -21 q48 0 83.5 21.5t35.5 66.5t-35.5 66.5t-83.5 21.5q-49 0 -84.5 -21t-35.5 -67z" />
<glyph unicode="&#xe6;" horiz-adv-x="1925" d="M43 303q0 91 36 160.5t98 109.5t137 60t161 20q147 0 277 -53v31q0 52 -21 89.5t-58 57.5t-79 28.5t-92 8.5q-116 0 -293 -57v278q178 49 305 49q126 0 235.5 -44t159.5 -142q60 91 168.5 138.5t227.5 47.5q272 0 423.5 -156t151.5 -427v-39h-784q0 -234 233 -234 q62 0 105 22.5t73 74.5h359q-29 -119 -112.5 -202.5t-191 -121t-231.5 -37.5q-140 0 -256 49t-166 158q-74 -97 -188 -152t-238 -55q-78 0 -154 21t-141 61t-105 106.5t-40 149.5zM406 334q0 -41 28 -68t63 -36t76 -9q36 0 76 9.5t75.5 36t35.5 65.5q0 32 -20.5 56t-53.5 36 t-64 17t-61 5q-60 0 -107.5 -28t-47.5 -84zM1108 678h432q-13 74 -73.5 120t-137.5 46q-84 0 -144 -43t-77 -123z" />
<glyph unicode="&#xe7;" horiz-adv-x="989" d="M47 514q0 166 78 297t212 202.5t298 71.5q136 0 246 -61v-315q-98 73 -193 73q-108 0 -182 -74t-74 -182q0 -115 72.5 -186.5t189.5 -71.5q112 0 187 72v-315q-120 -60 -263 -60q-154 0 -285 70.5t-208.5 197t-77.5 281.5zM354 -389l267 323l202 -131l-309 -292z" />
<glyph unicode="&#xe8;" horiz-adv-x="1249" d="M45 524q0 259 161 410t421 151q272 0 423.5 -156t151.5 -427v-39h-784q0 -234 233 -234q62 0 105 22.5t73 74.5h359q-29 -119 -112.5 -202.5t-191 -121t-231.5 -37.5q-176 0 -312 63.5t-216 191.5t-80 304zM367 1516l227 163l289 -352l-166 -121zM424 678h432 q-13 74 -73.5 120t-137.5 46q-84 0 -144 -43t-77 -123z" />
<glyph unicode="&#xe9;" horiz-adv-x="1249" d="M45 524q0 259 161 410t421 151q272 0 423.5 -156t151.5 -427v-39h-784q0 -234 233 -234q62 0 105 22.5t73 74.5h359q-29 -119 -112.5 -202.5t-191 -121t-231.5 -37.5q-176 0 -312 63.5t-216 191.5t-80 304zM367 1327l288 352l228 -163l-351 -310zM424 678h432 q-13 74 -73.5 120t-137.5 46q-84 0 -144 -43t-77 -123z" />
<glyph unicode="&#xea;" horiz-adv-x="1249" d="M45 524q0 259 161 410t421 151q272 0 423.5 -156t151.5 -427v-39h-784q0 -234 233 -234q62 0 105 22.5t73 74.5h359q-29 -119 -112.5 -202.5t-191 -121t-231.5 -37.5q-176 0 -312 63.5t-216 191.5t-80 304zM174 1364l447 336l452 -336l-158 -172l-294 227l-295 -227z M424 678h432q-13 74 -73.5 120t-137.5 46q-84 0 -144 -43t-77 -123z" />
<glyph unicode="&#xeb;" horiz-adv-x="1249" d="M45 524q0 259 161 410t421 151q272 0 423.5 -156t151.5 -427v-39h-784q0 -234 233 -234q62 0 105 22.5t73 74.5h359q-29 -119 -112.5 -202.5t-191 -121t-231.5 -37.5q-176 0 -312 63.5t-216 191.5t-80 304zM160 1438q0 85 58 142.5t144 57.5q85 0 143 -57.5t58 -142.5 q0 -86 -58 -143.5t-143 -57.5q-86 0 -144 57.5t-58 143.5zM424 678h432q-13 74 -73.5 120t-137.5 46q-84 0 -144 -43t-77 -123zM684 1438q0 85 58.5 142.5t144.5 57.5q85 0 142.5 -57.5t57.5 -142.5q0 -86 -57.5 -143.5t-142.5 -57.5q-86 0 -144.5 57.5t-58.5 143.5z" />
<glyph unicode="&#xec;" horiz-adv-x="618" d="M51 1516l228 163l288 -352l-166 -121zM123 0v1051h373v-1051h-373z" />
<glyph unicode="&#xed;" horiz-adv-x="618" d="M51 1327l289 352l227 -163l-350 -310zM123 0v1051h373v-1051h-373z" />
<glyph unicode="&#xee;" horiz-adv-x="618" d="M-141 1364l446 336l453 -336l-158 -172l-295 227l-295 -227zM123 0v1051h373v-1051h-373z" />
<glyph unicode="&#xef;" horiz-adv-x="618" d="M-156 1438q0 85 58.5 142.5t144.5 57.5q85 0 143 -57.5t58 -142.5q0 -86 -58 -143.5t-143 -57.5q-86 0 -144.5 57.5t-58.5 143.5zM123 0v1051h373v-1051h-373zM369 1438q0 85 58 142.5t144 57.5q85 0 143 -57.5t58 -142.5q0 -86 -58 -143.5t-143 -57.5q-86 0 -144 57.5 t-58 143.5z" />
<glyph unicode="&#xf1;" horiz-adv-x="1353" d="M123 0v1051h373v-136h4q64 94 143 132t193 38q105 0 182 -31.5t123 -90.5t68 -137t22 -177v-649h-373v512v84q0 38 -7.5 70t-25.5 60.5t-52.5 45t-82.5 16.5q-194 0 -194 -243v-545h-373zM268 1284q0 107 45 182q31 50 80 82.5t103 32.5q55 0 175 -35t158 -35 q35 0 51.5 18t30.5 56h174q-4 -58 -22 -113t-49 -103t-82 -77.5t-113 -29.5q-53 0 -158.5 37.5t-152.5 37.5q-9 0 -16.5 -2t-13 -4t-10.5 -7.5t-8 -9t-7 -12t-5 -12t-5 -14.5t-5 -14h-168z" />
<glyph unicode="&#xf2;" horiz-adv-x="1355" d="M45 524q0 105 33.5 196t92.5 157.5t138.5 113.5t173 70.5t195.5 23.5t195.5 -23.5t173 -70.5t138.5 -113.5t92.5 -157.5t33.5 -196q0 -130 -51 -237t-138.5 -176.5t-201.5 -107.5t-242 -38q-127 0 -241 37.5t-201.5 107t-139 177t-51.5 237.5zM420 1516l227 163l289 -352 l-166 -121zM438 524q0 -103 64 -169t176 -66t176 66t64 169q0 101 -65 169.5t-175 68.5t-175 -68.5t-65 -169.5z" />
<glyph unicode="&#xf3;" horiz-adv-x="1355" d="M45 524q0 105 33.5 196t92.5 157.5t138.5 113.5t173 70.5t195.5 23.5t195.5 -23.5t173 -70.5t138.5 -113.5t92.5 -157.5t33.5 -196q0 -130 -51 -237t-138.5 -176.5t-201.5 -107.5t-242 -38q-127 0 -241 37.5t-201.5 107t-139 177t-51.5 237.5zM420 1327l289 352l227 -163 l-350 -310zM438 524q0 -103 64 -169t176 -66t176 66t64 169q0 101 -65 169.5t-175 68.5t-175 -68.5t-65 -169.5z" />
<glyph unicode="&#xf4;" horiz-adv-x="1355" d="M45 524q0 105 33.5 196t92.5 157.5t138.5 113.5t173 70.5t195.5 23.5t195.5 -23.5t173 -70.5t138.5 -113.5t92.5 -157.5t33.5 -196q0 -130 -51 -237t-138.5 -176.5t-201.5 -107.5t-242 -38q-127 0 -241 37.5t-201.5 107t-139 177t-51.5 237.5zM227 1364l447 336l452 -336 l-157 -172l-295 227l-295 -227zM438 524q0 -103 64 -169t176 -66t176 66t64 169q0 101 -65 169.5t-175 68.5t-175 -68.5t-65 -169.5z" />
<glyph unicode="&#xf5;" horiz-adv-x="1355" d="M45 524q0 105 33.5 196t92.5 157.5t138.5 113.5t173 70.5t195.5 23.5t195.5 -23.5t173 -70.5t138.5 -113.5t92.5 -157.5t33.5 -196q0 -130 -51 -237t-138.5 -176.5t-201.5 -107.5t-242 -38q-127 0 -241 37.5t-201.5 107t-139 177t-51.5 237.5zM270 1284q0 107 45 182 q31 50 80 82.5t103 32.5q55 0 175 -35t158 -35q35 0 51.5 18t30.5 56h174q-4 -58 -22 -113t-49 -103t-82 -77.5t-113 -29.5q-53 0 -158.5 37.5t-152.5 37.5q-9 0 -16.5 -2t-13 -4t-10.5 -7.5t-8 -9t-7 -12t-5 -12t-5 -14.5t-5 -14h-168zM438 524q0 -103 64 -169t176 -66 t176 66t64 169q0 101 -65 169.5t-175 68.5t-175 -68.5t-65 -169.5z" />
<glyph unicode="&#xf6;" horiz-adv-x="1355" d="M45 524q0 105 33.5 196t92.5 157.5t138.5 113.5t173 70.5t195.5 23.5t195.5 -23.5t173 -70.5t138.5 -113.5t92.5 -157.5t33.5 -196q0 -130 -51 -237t-138.5 -176.5t-201.5 -107.5t-242 -38q-127 0 -241 37.5t-201.5 107t-139 177t-51.5 237.5zM213 1438q0 85 58.5 142.5 t144.5 57.5q85 0 142.5 -57.5t57.5 -142.5q0 -86 -57.5 -143.5t-142.5 -57.5q-86 0 -144.5 57.5t-58.5 143.5zM438 524q0 -103 64 -169t176 -66t176 66t64 169q0 101 -65 169.5t-175 68.5t-175 -68.5t-65 -169.5zM737 1438q0 85 58.5 142.5t144.5 57.5q85 0 143 -57.5 t58 -142.5q0 -86 -58 -143.5t-143 -57.5q-86 0 -144.5 57.5t-58.5 143.5z" />
<glyph unicode="&#xf7;" d="M178 373v307h1049v-307h-1049zM555 113q0 61 42.5 104t104.5 43t105 -43t43 -104t-43 -104.5t-105 -43.5q-61 0 -104 43t-43 105zM555 940q0 62 42.5 104.5t104.5 42.5t105 -43t43 -104t-43 -104t-105 -43t-104.5 42.5t-42.5 104.5z" />
<glyph unicode="&#xf8;" horiz-adv-x="1355" d="M-35 55l182 144q-47 65 -74.5 154t-27.5 169q0 132 51 240t138 178t200.5 107.5t241.5 37.5q266 0 418 -127l206 168l101 -127l-195 -153q55 -70 80 -139t25 -154q0 -187 -82.5 -321.5t-225 -200.5t-329.5 -66q-113 0 -222.5 30.5t-189.5 92.5l-196 -160zM438 526 q0 -58 17 -96l356 295q-49 37 -127 37q-104 0 -175 -67t-71 -169zM549 328q51 -39 123 -39q99 0 170 68.5t71 166.5q0 44 -12 88z" />
<glyph unicode="&#xf9;" horiz-adv-x="1349" d="M117 418v633h372v-562q0 -54 7.5 -92t27 -70.5t57.5 -48.5t95 -16t94.5 16t57 48.5t27 70.5t7.5 92v562h373v-633q0 -453 -559 -453t-559 453zM418 1516l227 163l289 -352l-166 -121z" />
<glyph unicode="&#xfa;" horiz-adv-x="1349" d="M117 418v633h372v-562q0 -54 7.5 -92t27 -70.5t57.5 -48.5t95 -16t94.5 16t57 48.5t27 70.5t7.5 92v562h373v-633q0 -453 -559 -453t-559 453zM418 1327l289 352l227 -163l-350 -310z" />
<glyph unicode="&#xfb;" horiz-adv-x="1349" d="M117 418v633h372v-562q0 -54 7.5 -92t27 -70.5t57.5 -48.5t95 -16t94.5 16t57 48.5t27 70.5t7.5 92v562h373v-633q0 -453 -559 -453t-559 453zM225 1364l447 336l452 -336l-157 -172l-295 227l-295 -227z" />
<glyph unicode="&#xfc;" horiz-adv-x="1349" d="M117 418v633h372v-562q0 -54 7.5 -92t27 -70.5t57.5 -48.5t95 -16t94.5 16t57 48.5t27 70.5t7.5 92v562h373v-633q0 -453 -559 -453t-559 453zM211 1438q0 85 58.5 142.5t144.5 57.5q85 0 142.5 -57.5t57.5 -142.5q0 -86 -57.5 -143.5t-142.5 -57.5q-86 0 -144.5 57.5 t-58.5 143.5zM735 1438q0 85 58.5 142.5t144.5 57.5q85 0 143 -57.5t58 -142.5q0 -86 -58 -143.5t-143 -57.5q-86 0 -144.5 57.5t-58.5 143.5z" />
<glyph unicode="&#xff;" horiz-adv-x="1339" d="M-31 1051h430l281 -539l274 539h424l-841 -1575h-418l358 667zM205 1438q0 85 58.5 142.5t144.5 57.5q85 0 142.5 -57.5t57.5 -142.5q0 -86 -57.5 -143.5t-142.5 -57.5q-86 0 -144.5 57.5t-58.5 143.5zM729 1438q0 85 58.5 142.5t144.5 57.5q85 0 143 -57.5t58 -142.5 q0 -86 -58 -143.5t-143 -57.5q-86 0 -144.5 57.5t-58.5 143.5z" />
<glyph unicode="&#x11e;" horiz-adv-x="1724" d="M53 764q0 248 105 437t295 291.5t438 102.5q242 0 419.5 -108.5t276.5 -323.5l-381 -159q-43 114 -128.5 179.5t-205.5 65.5q-77 0 -143 -28t-112.5 -75.5t-80 -110t-49.5 -132t-16 -141.5q0 -73 17 -142.5t51 -131t82 -108.5t114.5 -74t143.5 -27q136 0 223.5 68.5 t99.5 199.5h-328v315h797q-5 -204 -35 -341.5t-123 -268.5q-219 -303 -636 -303q-240 0 -427.5 102.5t-292 288t-104.5 424.5zM481 2118h230q10 -65 55.5 -101.5t112.5 -36.5q68 0 114 36.5t56 101.5h227q-10 -166 -118.5 -256t-278.5 -90q-171 0 -279.5 90t-118.5 256z" />
<glyph unicode="&#x11f;" horiz-adv-x="1386" d="M51 516q0 114 39.5 217.5t109 181.5t171 124t219.5 46q206 0 309 -145h4v111h373v-949q0 -327 -154.5 -476.5t-453.5 -149.5q-94 0 -191 24t-185 71t-149 126.5t-73 179.5h417q13 -53 70 -80q49 -24 107 -24q59 0 102.5 15.5t69.5 41t41.5 65.5t20.5 82t5 97v49 q-74 -74 -153 -108.5t-181 -34.5q-150 0 -268.5 70.5t-184 193t-65.5 272.5zM301 1618h229q10 -65 55.5 -101t112.5 -36q68 0 114 36t56 101h228q-10 -166 -118.5 -256t-279.5 -90q-170 0 -278.5 90t-118.5 256zM436 532q0 -103 64 -169t176 -66t175.5 66t63.5 169 q0 101 -64.5 169.5t-174.5 68.5t-175 -68.5t-65 -169.5z" />
<glyph unicode="&#x130;" horiz-adv-x="663" d="M131 0v1544h401v-1544h-401zM131 1925q0 85 58.5 143t144.5 58q85 0 143 -58t58 -143q0 -86 -58 -143.5t-143 -57.5q-86 0 -144.5 57.5t-58.5 143.5z" />
<glyph unicode="&#x131;" horiz-adv-x="618" d="M123 0v1051h373v-1051h-373z" />
<glyph unicode="&#x152;" horiz-adv-x="2334" d="M53 772q0 161 64.5 312.5t172.5 263.5t258 179.5t312 67.5q300 0 492 -192v141h868v-340h-469v-256h436v-340h-436v-268h469v-340h-868v170q-104 -115 -223 -168t-269 -53q-162 0 -312 67.5t-258 179.5t-172.5 263.5t-64.5 312.5zM471 772q0 -179 127 -306.5t305 -127.5 t304 127.5t126 306.5q0 180 -126 307t-304 127q-179 0 -305.5 -127t-126.5 -307z" />
<glyph unicode="&#x153;" horiz-adv-x="2093" d="M43 524q0 172 80 300.5t215.5 194.5t306.5 66q137 0 238.5 -35t191.5 -122q122 157 400 157q272 0 423.5 -156t151.5 -427v-39h-784q0 -234 233 -234q62 0 105 22.5t73 74.5h359q-29 -119 -112.5 -202.5t-191 -121t-231.5 -37.5q-148 0 -252.5 41.5t-173.5 140.5 q-90 -99 -189 -140.5t-237 -41.5q-174 0 -309.5 63.5t-216 192t-80.5 303.5zM436 524q0 -98 70.5 -166.5t169.5 -68.5t169 68.5t70 166.5q0 97 -70.5 167.5t-168.5 70.5t-169 -70.5t-71 -167.5zM1266 678h432q-13 74 -73.5 120t-137.5 46q-84 0 -144 -43t-77 -123z" />
<glyph unicode="&#x15e;" horiz-adv-x="1261" d="M61 135l172 324q182 -160 357 -160q77 0 135.5 40t58.5 116q0 32 -18 59t-41 44t-61.5 33t-62 23t-60.5 17q-62 18 -103 31.5t-89.5 34t-78.5 42t-61 53.5t-48 70.5t-27.5 90t-10.5 114.5q0 233 149 375.5t383 142.5q119 0 250.5 -34.5t233.5 -92.5l-160 -311 q-120 102 -266 102q-63 0 -117.5 -34.5t-54.5 -94.5q0 -96 178 -147l102 -31q69 -21 122 -45t103.5 -59.5t83.5 -79t52.5 -104t19.5 -134.5q0 -281 -160 -416q-171 -145 -438 -145q-297 0 -543 176zM338 -399l266 323l203 -131l-309 -293z" />
<glyph unicode="&#x15f;" horiz-adv-x="1050" d="M53 86l135 260q61 -43 145 -74.5t150 -31.5q44 0 80.5 20t36.5 59q0 20 -10 35t-24.5 24.5t-39.5 17.5t-47 13t-55.5 12.5t-56.5 14.5q-40 11 -69 23t-62.5 34t-54 50t-34.5 71.5t-14 98.5q0 75 26 137.5t70.5 105t104.5 72.5t126 43.5t136 13.5q197 0 346 -67l-125 -238 q-94 51 -201 51q-41 0 -78.5 -17.5t-37.5 -53.5q0 -15 6.5 -27t19 -21t25 -15.5t31 -11t31 -7.5t31 -6t24.5 -4q305 -59 305 -312q0 -99 -42.5 -176.5t-114.5 -123t-158 -68.5t-181 -23q-229 0 -424 121zM211 -379l266 324l213 -131l-319 -293z" />
<glyph unicode="&#x178;" horiz-adv-x="1462" d="M-39 1544h481l289 -420l289 420h481l-569 -803v-741h-402v741zM266 1931q0 85 58.5 143t144.5 58q85 0 143 -58t58 -143q0 -86 -58 -143t-143 -57q-87 0 -145 57t-58 143zM791 1931q0 85 58 143t144 58q85 0 143 -58t58 -143q0 -86 -58 -143t-143 -57q-86 0 -144 57 t-58 143z" />
<glyph unicode="&#x192;" d="M-12 -352l61 338q112 -19 146 -19q83 0 131 31t80 108q30 74 69 295l86 478h-176l25 155h180l41 221q21 108 46 175.5t81 128.5q127 141 332 141q164 0 266 -70l-60 -321q-87 61 -159 61q-27 0 -49 -8.5t-37 -26.5t-25.5 -35.5t-18 -45.5t-11.5 -47t-9 -48q-1 -8 -2 -12 l-20 -113h225l-27 -155h-225l-104 -572q-16 -85 -26.5 -132.5t-31 -116t-49 -124.5t-68.5 -108q-91 -116 -201 -162.5t-253 -34.5z" />
<glyph unicode="&#x2c6;" horiz-adv-x="1208" d="M154 1364l446 336l453 -336l-158 -172l-295 227l-295 -227z" />
<glyph unicode="&#x2c7;" horiz-adv-x="1208" d="M154 1526l151 174l295 -230l295 230l158 -174l-453 -334z" />
<glyph unicode="&#x2d8;" horiz-adv-x="1103" d="M154 1606h229q10 -65 55.5 -101.5t112.5 -36.5q68 0 114 36.5t56 101.5h227q-10 -166 -118.5 -256t-278.5 -90t-278.5 90t-118.5 256z" />
<glyph unicode="&#x2d9;" horiz-adv-x="823" d="M211 1438q0 85 58.5 142.5t144.5 57.5q85 0 142.5 -57.5t57.5 -142.5q0 -86 -57.5 -143.5t-142.5 -57.5q-86 0 -144.5 57.5t-58.5 143.5z" />
<glyph unicode="&#x2da;" horiz-adv-x="935" d="M154 1432q0 84 46.5 139t113.5 76.5t151 21.5q62 0 116 -12t100.5 -37.5t73.5 -73t27 -112.5q0 -63 -26.5 -110t-72.5 -73.5t-99 -39.5t-113 -13q-61 0 -114.5 12t-100.5 38t-74.5 73t-27.5 111zM348 1434q0 -45 36 -66.5t85 -21.5q48 0 83.5 21.5t35.5 66.5t-35.5 66.5 t-83.5 21.5q-49 0 -85 -21.5t-36 -66.5z" />
<glyph unicode="&#x2db;" horiz-adv-x="716" d="M154 -262q0 81 48.5 149t123.5 113h153v-4q-45 -25 -84 -67t-39 -85q0 -38 28.5 -66t66.5 -28q51 0 110 39l-45 -188q-62 -39 -164 -39q-75 0 -136.5 51t-61.5 125z" />
<glyph unicode="&#x2dc;" horiz-adv-x="1124" d="M154 1284q0 107 45 182q31 50 79.5 82.5t102.5 32.5q55 0 175.5 -35t158.5 -35q35 0 51.5 18t30.5 56h174q-4 -58 -22 -113t-49 -103t-82 -77.5t-113 -29.5q-53 0 -159 37.5t-153 37.5q-10 0 -18 -1.5t-14.5 -7t-10.5 -8.5t-8.5 -12.5t-6 -13t-6 -16.5t-5.5 -16h-168z " />
<glyph unicode="&#x2dd;" horiz-adv-x="1103" d="M227 1229l29 438h264l-102 -438h-191zM584 1229l28 438h265l-103 -438h-190z" />
<glyph unicode="&#x394;" horiz-adv-x="1253" d="M12 0l656 1409l577 -1409h-1233zM147 100h844l-397 959z" />
<glyph unicode="&#x3a9;" horiz-adv-x="1572" d="M70 0v332h30q23 -78 47 -101.5t89 -23.5h323l-4 57q-126 37 -204 86t-138 137q-102 150 -102 324q0 159 69 281q15 27 32 51t31 41.5t33 35.5t30.5 28t31.5 24t27 18t27 16t22 13q157 90 374 90q218 0 375 -90q2 -1 22 -13t27 -16t27 -18t31.5 -24t30.5 -28t33 -35.5 t31 -41.5t32 -51q69 -122 69 -281q0 -174 -102 -324q-60 -88 -138 -137t-204 -86l-4 -57h323q64 0 91.5 25t44.5 100h30v-332h-604l33 311q5 2 26 10.5t29.5 12.5t29 15t32 21t30.5 27.5t33 37.5t30.5 48t31.5 62q26 62 38.5 149.5t8.5 185.5t-39.5 195t-100.5 162 q-106 106 -297 106q-190 0 -296 -106q-65 -65 -100.5 -162t-39.5 -195t8.5 -185.5t38.5 -149.5q15 -34 31.5 -62t30.5 -48t33 -37.5t30.5 -27.5t32 -21t29 -15t29.5 -12.5t26 -10.5l33 -311h-604z" />
<glyph unicode="&#x3bc;" horiz-adv-x="1349" d="M117 -524v1575h372v-562q0 -54 7.5 -92t27 -70.5t57.5 -48.5t95 -16t94.5 16t57 48.5t27 70.5t7.5 92v562h373v-633q0 -102 -31.5 -183t-80.5 -130.5t-114 -82t-127 -45t-124 -12.5q-90 0 -158.5 29.5t-110.5 71.5v-590h-372z" />
<glyph unicode="&#x3c0;" horiz-adv-x="1124" d="M20 690l6 18l9 28.5t11.5 31t17 38t21.5 39.5t28 44q76 106 192 106h764v-176h-258q-25 -240 -25 -481q0 -43 14.5 -85t37.5 -65q75 -65 151 -8q18 14 29 33.5t14.5 32t6 35t3.5 26.5h43q-4 -126 -48 -203.5t-99 -111.5q-22 -14 -50 -21.5t-62 -4t-60 21.5 q-66 50 -100 151q-19 55 -21.5 165t6.5 185l35 330h-231q-41 -473 -95 -719q-12 -62 -38 -94.5t-74 -44.5q-40 -10 -79.5 15.5t-47.5 62.5q-2 25 -3.5 38.5t6.5 30t13 24.5t15.5 21.5t15.5 20.5q7 9 27.5 32.5t33 39.5t25.5 44.5t16 59.5l60 469h-97q-41 0 -79 -19.5 t-56 -45.5l-43 -64h-35z" />
<glyph unicode="&#x2000;" horiz-adv-x="1096" />
<glyph unicode="&#x2001;" horiz-adv-x="2193" />
<glyph unicode="&#x2002;" horiz-adv-x="1096" />
<glyph unicode="&#x2003;" horiz-adv-x="2193" />
<glyph unicode="&#x2004;" horiz-adv-x="731" />
<glyph unicode="&#x2005;" horiz-adv-x="548" />
<glyph unicode="&#x2006;" horiz-adv-x="365" />
<glyph unicode="&#x2007;" horiz-adv-x="365" />
<glyph unicode="&#x2008;" horiz-adv-x="274" />
<glyph unicode="&#x2009;" horiz-adv-x="438" />
<glyph unicode="&#x200a;" horiz-adv-x="121" />
<glyph unicode="&#x2010;" horiz-adv-x="802" d="M109 504v307h585v-307h-585z" />
<glyph unicode="&#x2011;" horiz-adv-x="802" d="M109 504v307h585v-307h-585z" />
<glyph unicode="&#x2012;" horiz-adv-x="802" d="M109 504v307h585v-307h-585z" />
<glyph unicode="&#x2013;" horiz-adv-x="1024" d="M0 504v307h1024v-307h-1024z" />
<glyph unicode="&#x2014;" horiz-adv-x="2048" d="M0 504v307h2048v-307h-2048z" />
<glyph unicode="&#x2018;" horiz-adv-x="761" d="M39 866l377 678h237l-266 -678h-348z" />
<glyph unicode="&#x2019;" horiz-adv-x="761" d="M109 866l266 678h348l-377 -678h-237z" />
<glyph unicode="&#x201a;" horiz-adv-x="692" d="M39 -287l266 678h348l-377 -678h-237z" />
<glyph unicode="&#x201c;" horiz-adv-x="1286" d="M39 866l377 678h237l-266 -678h-348zM563 866l377 678h238l-267 -678h-348z" />
<glyph unicode="&#x201d;" horiz-adv-x="1286" d="M109 866l266 678h348l-377 -678h-237zM633 866l266 678h348l-377 -678h-237z" />
<glyph unicode="&#x201e;" horiz-adv-x="1216" d="M39 -287l266 678h348l-377 -678h-237zM563 -287l266 678h349l-377 -678h-238z" />
<glyph unicode="&#x2020;" d="M172 829v295h360v420h340v-420h363v-295h-363v-1198h-340v1198h-360z" />
<glyph unicode="&#x2021;" d="M172 285v295h363v290h-363v295h363v379h339v-379h361v-295h-361v-290h361v-295h-361v-652h-339v652h-363z" />
<glyph unicode="&#x2022;" d="M317 772q0 161 112 274t276 113t274.5 -113t110.5 -274q0 -160 -110.5 -272.5t-274.5 -112.5t-276 112.5t-112 272.5z" />
<glyph unicode="&#x2026;" horiz-adv-x="2048" d="M102 199q0 100 70 169.5t170 69.5t170 -69.5t70 -169.5q0 -99 -70.5 -169.5t-169.5 -70.5t-169.5 70.5t-70.5 169.5zM784 199q0 100 70 169.5t170 69.5t170 -69.5t70 -169.5q0 -99 -70.5 -169.5t-169.5 -70.5t-169.5 70.5t-70.5 169.5zM1466 199q0 100 70 169.5t170 69.5 t170 -69.5t70 -169.5q0 -99 -70.5 -169.5t-169.5 -70.5t-169.5 70.5t-70.5 169.5z" />
<glyph unicode="&#x202f;" horiz-adv-x="438" />
<glyph unicode="&#x2030;" horiz-adv-x="2990" d="M39 1190q0 119 58.5 205.5t152.5 128t211 41.5t211 -41.5t152.5 -128t58.5 -205.5q0 -181 -118.5 -281t-303.5 -100t-303.5 100t-118.5 281zM287 1186q0 -72 51 -122t123 -50t123 50t51 122t-51 123t-123 51t-123 -51t-51 -123zM449 0l897 1544h200l-897 -1544h-200z M1114 360q0 119 58.5 205.5t152.5 128t211 41.5t211 -41.5t152.5 -128t58.5 -205.5q0 -181 -118.5 -280.5t-303.5 -99.5t-303.5 99.5t-118.5 280.5zM1362 356q0 -72 51 -122t123 -50t123 50t51 122t-51 123t-123 51t-123 -51t-51 -123zM2107 360q0 119 58.5 205.5t152.5 128 t211 41.5t211 -41.5t152.5 -128t58.5 -205.5q0 -181 -118.5 -280.5t-303.5 -99.5t-303.5 99.5t-118.5 280.5zM2355 356q0 -72 51 -122t123 -50t123 50t51 122t-51 123t-123 51t-123 -51t-51 -123z" />
<glyph unicode="&#x2039;" horiz-adv-x="663" d="M131 0v1544h401v-1544h-401zM131 1925q0 85 58.5 143t144.5 58q85 0 143 -58t58 -143q0 -86 -58 -143.5t-143 -57.5q-86 0 -144.5 57.5t-58.5 143.5z" />
<glyph unicode="&#x203a;" horiz-adv-x="618" d="M123 0v1051h373v-1051h-373z" />
<glyph unicode="&#x2044;" horiz-adv-x="1724" d="M53 764q0 248 105 437t295 291.5t438 102.5q242 0 419.5 -108.5t276.5 -323.5l-381 -159q-43 114 -128.5 179.5t-205.5 65.5q-77 0 -143 -28t-112.5 -75.5t-80 -110t-49.5 -132t-16 -141.5q0 -73 17 -142.5t51 -131t82 -108.5t114.5 -74t143.5 -27q136 0 223.5 68.5 t99.5 199.5h-328v315h797q-5 -204 -35 -341.5t-123 -268.5q-219 -303 -636 -303q-240 0 -427.5 102.5t-292 288t-104.5 424.5zM481 2118h230q10 -65 55.5 -101.5t112.5 -36.5q68 0 114 36.5t56 101.5h227q-10 -166 -118.5 -256t-278.5 -90q-171 0 -279.5 90t-118.5 256z" />
<glyph unicode="&#x205f;" horiz-adv-x="548" />
<glyph unicode="&#x20ac;" horiz-adv-x="1386" d="M51 516q0 114 39.5 217.5t109 181.5t171 124t219.5 46q206 0 309 -145h4v111h373v-949q0 -327 -154.5 -476.5t-453.5 -149.5q-94 0 -191 24t-185 71t-149 126.5t-73 179.5h417q13 -53 70 -80q49 -24 107 -24q59 0 102.5 15.5t69.5 41t41.5 65.5t20.5 82t5 97v49 q-74 -74 -153 -108.5t-181 -34.5q-150 0 -268.5 70.5t-184 193t-65.5 272.5zM301 1618h229q10 -65 55.5 -101t112.5 -36q68 0 114 36t56 101h228q-10 -166 -118.5 -256t-279.5 -90q-170 0 -278.5 90t-118.5 256zM436 532q0 -103 64 -169t176 -66t175.5 66t63.5 169 q0 101 -64.5 169.5t-174.5 68.5t-175 -68.5t-65 -169.5z" />
<glyph unicode="&#x2122;" horiz-adv-x="1925" d="M84 1384v160h702v-160h-251v-667h-199v667h-252zM887 717v827h291l186 -489l186 489h291v-827h-180v667h-4l-240 -667h-106l-240 667h-4v-667h-180z" />
<glyph unicode="&#x2202;" horiz-adv-x="1011" d="M55 319q-7 76 13 154t45.5 124t54.5 81q125 153 291 145q90 -4 147.5 -30.5t159.5 -108.5q19 102 22 238q0 70 -21.5 170t-43.5 155q-23 59 -84.5 117.5t-144.5 65.5q-31 2 -54.5 2.5t-43.5 -2t-34 -5.5t-32.5 -9.5t-31.5 -12.5t-38.5 -17t-46.5 -20l-80 102 q213 86 371 48q218 -54 344 -275q42 -74 66 -176.5t28 -158t4 -101.5q0 -94 -26 -258t-80 -279q-47 -104 -90 -161t-123 -101q-69 -38 -143.5 -46t-138.5 9t-118 54q-155 107 -172 296zM229 303q0 -195 95 -256q77 -53 170 -10q56 24 94.5 70t70.5 120q64 161 91 385 q-3 4 -18.5 22.5t-23 25.5t-24 23.5t-30.5 24t-34 17.5t-43 14t-49 4q-117 -3 -196 -110q-103 -144 -103 -330z" />
<glyph unicode="&#x220f;" horiz-adv-x="1685" d="M51 -160q102 0 150.5 33.5t48.5 132.5v1282q0 54 -15.5 94t-36.5 60t-50.5 32t-50 14.5t-42.5 2.5v47h1583v-47q-22 0 -41.5 -2.5t-49 -14.5t-50.5 -32t-36 -60t-15 -94v-1282q0 -99 49 -132.5t150 -33.5v-47h-627v47q49 0 81.5 6.5t60.5 23.5t41 51t13 85v1419h-733 v-1419q0 -99 49 -132.5t150 -33.5v-47h-629v47z" />
<glyph unicode="&#x2211;" horiz-adv-x="1460" d="M29 -205l714 815l-710 930q168 -14 213 -14h1018l12 -326h-41q-28 97 -43 124q-41 76 -141 98q-53 12 -129 12h-539l559 -734l-602 -694h760q81 0 128 21.5t78.5 67.5t69.5 143h47q-31 -131 -40.5 -173t-22 -113t-25.5 -173q-18 3 -51 9t-58 9.5t-48 3.5h-1031 q-20 0 -59 -3t-59 -3z" />
<glyph unicode="&#x221a;" horiz-adv-x="1124" d="M20 922l299 147l404 -825l260 1634l72 -10l-307 -1946l-498 1028l-197 -96z" />
<glyph unicode="&#x221e;" horiz-adv-x="1460" d="M53 571q8 89 70.5 159t152 90.5t191.5 -19.5q68 -30 115.5 -65.5t148.5 -127.5q101 92 148.5 127.5t115.5 65.5q102 40 191.5 19.5t152 -90.5t70.5 -159q6 -58 -14.5 -116.5t-59.5 -104.5t-99 -73t-128 -21q-60 6 -114 26t-97 49t-71 52.5t-58.5 54t-36.5 35.5 q-6 -5 -36.5 -35.5t-58.5 -54t-71 -52.5t-97 -49t-114 -26q-68 -6 -128.5 21t-99 73.5t-59 105t-14.5 115.5zM156 530q4 -89 77.5 -141t159.5 -31q76 18 118.5 47.5t132.5 116.5l6.5 6.5t6.5 6t7 6.5q-94 80 -145 116t-99 50q-66 21 -115.5 11t-82.5 -42t-49.5 -70.5 t-16.5 -75.5zM799 541q103 -100 134 -123q55 -41 136 -60q86 -21 160 31t78 141q0 51 -29.5 100.5t-88.5 78t-147 -1.5q-47 -14 -97 -49.5t-146 -116.5z" />
<glyph unicode="&#x222b;" horiz-adv-x="561" d="M10 -129q-26 75 49 113q17 9 32 10t30 -7t26.5 -17.5t28.5 -26.5q40 -45 65 32q22 70 17 177q-12 304 -12 643v295q0 254 11 391.5t42 242.5q13 37 38 76.5t54 57.5q26 17 59 18t57.5 -7.5t43.5 -21.5q17 -11 30.5 -33.5t15.5 -50.5t-19 -53q-24 -29 -67.5 -36t-78.5 22 q-35 33 -57.5 22.5t-24.5 -43.5q-2 -30 18.5 -276t20.5 -400l-2 -442q-2 -359 -70 -600q-5 -17 -9.5 -31t-9.5 -25t-8.5 -19t-9 -16.5t-7.5 -12t-8 -11.5t-7 -10q-15 -22 -75.5 -42.5t-104.5 1.5q-23 11 -42 35.5t-26 44.5z" />
<glyph unicode="&#x2248;" horiz-adv-x="1124" d="M29 332q160 212 399 147l309 -86q66 -22 162 19q27 12 57 35.5t48 50.5l75 -49q-59 -98 -163.5 -138t-200.5 -14l-307 88q-47 13 -88.5 12.5t-67.5 -7.5t-53 -26.5t-37 -30.5t-28 -34l-17 -23zM29 641q160 212 399 147l309 -86q66 -22 162 19q27 12 57 35.5t48 50.5 l75 -49q-59 -98 -163.5 -138t-200.5 -14l-307 88q-40 11 -76 13.5t-63.5 -5t-48.5 -16.5t-39 -26t-27.5 -27.5t-22 -27t-14.5 -19.5z" />
<glyph unicode="&#x2260;" horiz-adv-x="1124" d="M31 279v112h385l157 285h-542v112h606l186 336l101 -57l-156 -279h338v-112h-399l-160 -285h559v-112h-621l-184 -330l-100 57l151 273h-321z" />
<glyph unicode="&#x2264;" horiz-adv-x="1124" d="M59 0v113h1018v-113h-1018zM59 711v127l1018 471v-127l-887 -408l887 -407v-127z" />
<glyph unicode="&#x2265;" horiz-adv-x="1124" d="M59 0v113h1018v-113h-1018zM59 240v127l887 407l-887 408v127l1018 -471v-127z" />
<glyph unicode="&#x25ca;" horiz-adv-x="1011" d="M37 772l397 754h123l397 -754l-397 -772h-123zM160 772l336 -661l335 661l-335 643z" />
<glyph unicode="&#x25fc;" horiz-adv-x="1054" d="M0 0v1055h1055v-1055h-1055z" />
<glyph unicode="&#xfb01;" horiz-adv-x="1261" d="M61 135l172 324q182 -160 357 -160q77 0 135.5 40t58.5 116q0 32 -18 59t-41 44t-61.5 33t-62 23t-60.5 17q-62 18 -103 31.5t-89.5 34t-78.5 42t-61 53.5t-48 70.5t-27.5 90t-10.5 114.5q0 233 149 375.5t383 142.5q119 0 250.5 -34.5t233.5 -92.5l-160 -311 q-120 102 -266 102q-63 0 -117.5 -34.5t-54.5 -94.5q0 -96 178 -147l102 -31q69 -21 122 -45t103.5 -59.5t83.5 -79t52.5 -104t19.5 -134.5q0 -281 -160 -416q-171 -145 -438 -145q-297 0 -543 176zM338 -399l266 323l203 -131l-309 -293z" />
<glyph unicode="&#xfb02;" horiz-adv-x="1050" d="M53 86l135 260q61 -43 145 -74.5t150 -31.5q44 0 80.5 20t36.5 59q0 20 -10 35t-24.5 24.5t-39.5 17.5t-47 13t-55.5 12.5t-56.5 14.5q-40 11 -69 23t-62.5 34t-54 50t-34.5 71.5t-14 98.5q0 75 26 137.5t70.5 105t104.5 72.5t126 43.5t136 13.5q197 0 346 -67l-125 -238 q-94 51 -201 51q-41 0 -78.5 -17.5t-37.5 -53.5q0 -15 6.5 -27t19 -21t25 -15.5t31 -11t31 -7.5t31 -6t24.5 -4q305 -59 305 -312q0 -99 -42.5 -176.5t-114.5 -123t-158 -68.5t-181 -23q-229 0 -424 121zM211 -379l266 324l213 -131l-319 -293z" />
<glyph horiz-adv-x="702" />
</font>
</defs>
</svg>
