<?xml version="1.0" standalone="no"?>
<!DOCTYPE svg PUBLIC "-//W3C//DTD SVG 1.1//EN" "http://www.w3.org/Graphics/SVG/1.1/DTD/svg11.dtd" >
<svg xmlns="http://www.w3.org/2000/svg">
<metadata></metadata>
<defs>
<font id="futura_trheavy" horiz-adv-x="1183" >
<font-face units-per-em="2048" ascent="1638" descent="-410" />
<missing-glyph horiz-adv-x="1024" />
<glyph unicode="fi" horiz-adv-x="1138" d="M16 764v242h97v294q0 204 90 332q92 129 289 129q77 0 137 -32v-256q-5 3 -22 9.5t-27 10.5q-35 12 -68 14q-68 0 -92 -55q-18 -65 -21 -145v-47v-254h230v-242h-230v-764h-286v764h-97zM711 1427q0 67 49 119q48 48 121 51q68 0 120 -49q50 -50 50 -121q0 -67 -50 -120 q-50 -50 -120 -50q-68 0 -121 50q-49 49 -49 120zM737 0v1006h287v-1006h-287z" />
<glyph unicode="fl" horiz-adv-x="1110" d="M16 764v242h97v294q0 204 90 332q92 129 289 129q77 0 137 -32v-256q-5 3 -22 9.5t-27 10.5q-35 12 -68 14q-68 0 -92 -55q-18 -65 -21 -145v-47v-254h230v-242h-230v-764h-286v764h-97zM723 0v1737h287v-1737h-287z" />
<glyph unicode=" "  horiz-adv-x="1024" />
<glyph unicode="&#x09;" horiz-adv-x="1024" />
<glyph unicode="&#xa0;" horiz-adv-x="1024" />
<glyph unicode="!" horiz-adv-x="665" d="M150 143q0 74 53 127q51 51 129 54q77 0 129 -52q50 -47 53 -129q0 -76 -53 -129q-52 -55 -129 -55q-76 0 -129 53q-50 50 -53 131zM186 444v1100h291v-1100h-291z" />
<glyph unicode="&#x22;" horiz-adv-x="999" d="M180 1544h246l-37 -672h-172zM573 1544h246l-37 -672h-172z" />
<glyph unicode="#" d="M29 354v232h231l49 254h-196v231h239l80 416h217l-80 -416h207l80 416h215l-80 -416h164v-231h-201l-49 -254h193v-232h-242l-68 -354h-217l68 354h-207l-67 -354h-218l68 354h-186zM477 586h209l53 254h-213z" />
<glyph unicode="$" d="M111 293l182 176q47 -92 119 -158q70 -61 168 -61q84 0 143 59q55 58 55 148q0 92 -59 133q-63 46 -234 125q-170 83 -231 176q-54 86 -57 219q0 171 92 289q92 117 260 147v191h149v-193q103 -12 181 -55q84 -43 145 -121l-137 -194q-47 59 -103 92q-57 29 -125 32 q-69 0 -122 -47q-49 -43 -52 -114q0 -90 136 -164q102 -47 196 -96q92 -42 174 -140q80 -92 80 -256q0 -184 -100 -313q-98 -131 -273 -168v-205h-149v195q-155 18 -260 90q-100 69 -178 213z" />
<glyph unicode="%" horiz-adv-x="1581" d="M10 1219q0 154 105 262q104 104 262 104q157 0 262 -102q104 -101 104 -264q0 -156 -104 -263q-99 -99 -262 -102q-157 0 -262 102t-105 263zM213 1219q0 -78 45 -140q41 -56 119 -59q72 0 119 59q42 56 45 140q0 75 -45 137q-42 60 -119 63q-73 0 -119 -61 q-42 -56 -45 -139zM303 8l830 1589l139 -69l-828 -1591zM836 324q0 155 104 262q104 104 262 104q157 0 262 -102t105 -264q0 -155 -105 -263q-96 -99 -262 -102q-157 0 -262 102q-104 101 -104 263zM1038 324q0 -78 45 -140q41 -56 119 -59q72 0 119 59q42 56 45 140 q0 75 -45 137q-42 60 -119 63q-73 0 -119 -61q-42 -56 -45 -139z" />
<glyph unicode="&#x26;" horiz-adv-x="1437" d="M68 410q0 128 57 227q57 100 166 174l92 63q-60 85 -94 160q-31 76 -31 168q0 170 113 277q106 103 280 106q170 0 283 -104q110 -107 113 -277q0 -119 -72 -209q-63 -86 -182 -164l215 -276l155 199l191 -179l-166 -223l266 -352h-367l-124 156q-107 -93 -213 -146 q-105 -48 -230 -51q-193 0 -323 127q-129 126 -129 324zM371 436q0 -74 55 -141q54 -63 129 -66q63 0 113 35t116 98l-239 322q-94 -67 -139 -133q-32 -56 -35 -115zM543 1227q0 -60 37 -115l73 -104l52 43q32 26 57 63q26 38 29 105q0 60 -33 104q-27 44 -88 47 q-58 0 -95 -43q-29 -44 -32 -100z" />
<glyph unicode="'" horiz-adv-x="606" d="M180 1544h246l-37 -672h-172z" />
<glyph unicode="(" horiz-adv-x="555" d="M152 676q0 274 49 541q50 278 157 487l177 -119q-78 -180 -127 -438q-38 -230 -41 -483q0 -251 39 -488q41 -239 129 -432l-177 -121q-92 178 -157 494q-49 279 -49 559z" />
<glyph unicode=")" horiz-adv-x="555" d="M20 -256q81 178 125 434q43 246 43 486q0 276 -41 485q-39 245 -127 436l177 119q100 -204 153 -487q50 -265 53 -541q0 -285 -49 -561q-50 -283 -157 -492z" />
<glyph unicode="*" horiz-adv-x="854" d="M111 1307l71 137l164 -107l-6 207h176l-4 -207l158 107l73 -137l-165 -103l165 -102l-73 -137l-158 106l4 -203h-176l6 203l-160 -106l-73 137l161 102z" />
<glyph unicode="+" d="M68 403v242h403v404h242v-404h403v-242h-403v-403h-242v403h-403z" />
<glyph unicode="," horiz-adv-x="591" d="M53 -303l223 622l263 -28l-295 -617z" />
<glyph unicode="-" horiz-adv-x="675" d="M88 539v235h500v-235h-500z" />
<glyph unicode="." horiz-adv-x="591" d="M115 143q0 74 53 127q51 51 129 54q77 0 129 -52q50 -47 53 -129q0 -76 -53 -129q-52 -55 -129 -55q-76 0 -129 53q-50 50 -53 131z" />
<glyph unicode="/" horiz-adv-x="1103" d="M76 -260l753 1997l199 -72l-754 -1997z" />
<glyph unicode="0" d="M39 770q0 301 135 559q133 253 418 256q279 0 416 -254q134 -253 137 -561q0 -302 -137 -555q-131 -253 -416 -256q-276 0 -416 254q-134 247 -137 557zM334 774q0 -180 59 -366q58 -184 199 -187q138 0 199 187q56 179 59 366q0 190 -59 367q-55 179 -199 182 q-138 0 -199 -184q-56 -176 -59 -365z" />
<glyph unicode="1" d="M297 1282v262h504v-1544h-301v1282h-203z" />
<glyph unicode="2" d="M57 0l394 496q127 157 243 327q92 136 92 250q0 91 -55 170q-53 80 -143 80q-93 0 -142 -82q-49 -79 -49 -182h-319q0 228 137 377q134 146 371 149q213 0 356 -143q142 -136 145 -355q0 -159 -69 -282q-72 -135 -199 -279l-227 -264h506v-262h-1041z" />
<glyph unicode="3" d="M63 446h304q0 -92 61 -159q60 -63 160 -66q92 0 151 74q56 74 56 174q0 93 -62 170q-58 73 -155 76l-56 -4v215h33q93 0 145 55q49 52 52 158q0 80 -47 139q-48 54 -130 57q-75 0 -122 -59q-42 -61 -45 -135h-287q18 201 143 323q121 118 330 121q202 0 321 -119 q123 -117 123 -317q0 -100 -37 -184q-37 -88 -110 -138q100 -43 147 -151q49 -108 52 -225q0 -219 -146 -359q-139 -130 -369 -133q-216 0 -364 139q-148 142 -148 348z" />
<glyph unicode="4" d="M6 272v136l688 1165h275v-1059h164v-242h-164v-272h-283v272h-680zM356 514h330v614z" />
<glyph unicode="5" d="M66 164l90 258q63 -93 153 -148q86 -50 195 -53q120 0 198 90q75 87 78 215q0 125 -86 217q-85 88 -215 91q-69 0 -133 -27q-54 -19 -115 -74h-47l166 811h672v-262h-459l-53 -235l78 4q220 0 358 -156q136 -151 139 -381q0 -246 -155 -401q-154 -154 -406 -154 q-274 0 -458 205z" />
<glyph unicode="6" d="M43 483q0 130 49 258q56 141 139 258l410 609l221 -160l-317 -449l4 -4q57 18 121 21q203 0 331 -152q124 -145 127 -360q0 -235 -153 -391q-154 -154 -391 -154q-233 0 -387 145q-154 148 -154 379zM336 492q0 -111 67 -199q70 -85 179 -88q104 0 174 88q66 91 69 199 q0 109 -67 200q-64 85 -176 88q-109 0 -179 -88q-67 -85 -67 -200z" />
<glyph unicode="7" d="M88 1282v262h1104l-846 -1585l-248 141l637 1182h-647z" />
<glyph unicode="8" d="M92 412q0 134 64 241q58 102 186 152q-94 46 -149 137q-51 91 -54 203q0 191 129 317q129 123 324 123q191 0 323 -123q129 -123 129 -317q0 -107 -55 -201q-53 -90 -147 -139q121 -46 186 -152q61 -107 64 -241q0 -199 -150 -328q-146 -122 -350 -125q-203 0 -352 125 q-148 124 -148 328zM395 444q0 -87 54 -163q54 -69 143 -72q87 0 141 72q55 70 55 163t-53 164q-53 74 -143 74q-83 0 -143 -72q-51 -70 -54 -166zM414 1145q0 -80 49 -150q49 -67 129 -67q82 0 129 65q49 67 49 152q0 80 -49 147q-50 68 -129 68t-129 -68q-49 -64 -49 -147 z" />
<glyph unicode="9" d="M53 1038q0 240 154 394q153 153 391 153q229 0 385 -147q153 -144 156 -379q0 -133 -52 -258q-54 -133 -137 -258l-409 -609l-222 162l318 449l-4 4q-56 -20 -121 -23q-203 0 -332 150q-124 148 -127 362zM356 1051q0 -110 66 -201q70 -85 178 -88q106 0 176 88 q67 82 70 201q0 110 -70 198q-63 87 -176 90q-104 0 -176 -90q-68 -86 -68 -198z" />
<glyph unicode=":" horiz-adv-x="591" d="M115 143q0 74 53 127q51 51 129 54q77 0 129 -52q50 -47 53 -129q0 -76 -53 -129q-52 -55 -129 -55q-76 0 -129 53q-50 50 -53 131zM115 881q0 74 53 127q50 50 129 53q78 0 129 -51q50 -47 53 -129q0 -76 -53 -129q-53 -56 -129 -56q-75 0 -129 54q-50 50 -53 131z" />
<glyph unicode=";" horiz-adv-x="591" d="M33 -303l223 622l262 -28l-295 -617zM197 881q0 74 53 127q50 50 129 53q78 0 129 -51q50 -47 53 -129q0 -76 -53 -129q-53 -56 -129 -56q-75 0 -129 54q-50 50 -53 131z" />
<glyph unicode="&#x3c;" d="M68 401v246l1048 373v-258l-665 -236l665 -239v-258z" />
<glyph unicode="=" d="M68 162v241h1048v-241h-1048zM68 645v242h1048v-242h-1048z" />
<glyph unicode="&#x3e;" d="M68 29v258l665 235l-665 240v258l1048 -373v-246z" />
<glyph unicode="?" horiz-adv-x="997" d="M61 1143q0 184 123 313t312 129q190 0 315 -125q122 -119 125 -315q0 -150 -92 -271q-88 -114 -238 -151l-16 -197h-287v408q16 -4 74 -8q108 0 184 61q75 60 78 168q0 69 -39 125q-37 55 -102 55q-62 0 -101 -51q-37 -49 -37 -117v-24h-299zM268 143q0 73 54 127 q51 51 129 54q77 0 129 -52q50 -47 53 -129q0 -76 -53 -129q-52 -55 -129 -55q-76 0 -129 53q-51 51 -54 131z" />
<glyph unicode="@" horiz-adv-x="1996" d="M252 772q0 344 227 580q227 233 555 233q144 0 260 -45q118 -43 224 -135q102 -89 165 -215q62 -124 62 -260q0 -135 -33 -244q-30 -112 -98 -201q-63 -84 -150 -131q-79 -43 -161 -43q-43 0 -72 33q-26 26 -39 94q-55 -55 -125 -94q-69 -30 -154 -33q-133 0 -241 111 q-100 109 -103 272q0 197 117 344q118 148 301 148q81 0 146 -35q68 -36 127 -113l28 129h146l-103 -532q0 -13 -10 -47q-6 -38 -6 -68q0 -32 8 -45q10 -13 37 -16q68 0 139 123q67 119 70 274q0 252 -152 404q-143 146 -389 149q-253 0 -428 -184q-172 -184 -172 -453 q0 -277 188 -459q190 -178 459 -178q126 0 217 23q93 21 152 65l153 -123q-120 -64 -247 -104q-115 -37 -303 -37q-335 0 -566 231q-226 229 -229 582zM745 709q0 -100 48 -160q50 -62 141 -62q127 0 192 74t74 144l10 83v21q0 97 -55 149q-55 49 -156 52q-114 0 -186 -90 q-68 -86 -68 -211z" />
<glyph unicode="A" horiz-adv-x="1384" d="M-18 0l602 1585h233l586 -1585h-322l-118 326h-537l-127 -326h-317zM512 571h367l-193 562z" />
<glyph unicode="B" horiz-adv-x="1132" d="M111 0v1544h374q226 0 344 -100q116 -101 119 -320q0 -98 -33 -174q-29 -77 -102 -125q130 -21 197 -135q67 -110 67 -252q0 -214 -137 -327q-135 -111 -356 -111h-473zM412 242h63q149 0 223 41q75 41 78 180q0 135 -82 172q-78 37 -233 37h-49v-430zM412 901h37 q113 0 165 43q51 42 54 160q0 109 -56 153q-56 43 -161 46h-39v-402z" />
<glyph unicode="C" horiz-adv-x="1230" d="M37 760q0 334 215 581q212 241 547 244q98 0 176 -22q81 -21 168 -68v-360q-53 70 -152 120q-85 43 -188 43q-206 0 -332 -159q-123 -156 -123 -373q0 -210 125 -365q122 -152 328 -155q96 0 186 43q92 45 156 121v-359q-87 -42 -178 -67q-89 -25 -172 -25 q-319 0 -539 236q-214 240 -217 565z" />
<glyph unicode="D" horiz-adv-x="1323" d="M111 0v1544h430q331 0 538 -219q204 -216 207 -555q0 -325 -211 -549q-209 -221 -536 -221h-428zM412 262h49q262 0 389 133q122 134 125 377q0 510 -514 510h-49v-1020z" />
<glyph unicode="E" horiz-adv-x="999" d="M111 0v1544h798v-262h-497v-340h479v-262h-479v-418h497v-262h-798z" />
<glyph unicode="F" horiz-adv-x="948" d="M111 0v1544h766v-262h-465v-340h436v-262h-436v-680h-301z" />
<glyph unicode="G" horiz-adv-x="1513" d="M37 766q0 343 207 582q205 234 547 237q196 0 358 -98q163 -95 252 -270l-266 -144q-48 104 -144 176q-92 67 -209 70q-205 0 -319 -170q-112 -168 -115 -383q0 -212 115 -377q115 -161 321 -164q141 0 246 105q104 104 107 245h-328v246h666v-39q0 -351 -181 -587 q-180 -233 -522 -236q-326 0 -532 238q-203 238 -203 569z" />
<glyph unicode="H" horiz-adv-x="1380" d="M111 0v1544h301v-608h557v608h301v-1544h-301v690h-557v-690h-301z" />
<glyph unicode="I" horiz-adv-x="520" d="M111 0v1544h301v-1544h-301z" />
<glyph unicode="J" horiz-adv-x="796" d="M-45 104l192 222q11 -35 46 -70q36 -31 71 -31q81 0 105 82t24 203v65v969h301v-1020q0 -156 -16 -221q-12 -81 -74 -170q-58 -85 -149 -131q-85 -43 -197 -43q-82 0 -162 41q-81 41 -141 104z" />
<glyph unicode="K" horiz-adv-x="1269" d="M111 0v1544h301v-651l481 651h371l-586 -713l618 -831h-387l-493 694l-4 -694h-301z" />
<glyph unicode="L" horiz-adv-x="823" d="M111 0v1544h301v-1282h426v-262h-727z" />
<glyph unicode="M" horiz-adv-x="1712" d="M23 0l260 1585h213l381 -1018l364 1018h217l232 -1585h-304l-122 958l-355 -978h-104l-338 978l-141 -958h-303z" />
<glyph unicode="N" horiz-adv-x="1554" d="M111 0v1585h217l813 -1079l4 1038h301v-1575h-217l-813 1080l-4 -1049h-301z" />
<glyph unicode="O" horiz-adv-x="1601" d="M37 774q0 336 217 572q214 239 547 239q330 0 547 -239q214 -240 217 -572q0 -341 -217 -577q-212 -235 -547 -238q-331 0 -549 238q-215 241 -215 577zM348 786q0 -186 133 -360q132 -167 320 -170q179 0 317 170q135 172 135 360q0 194 -131 349q-129 153 -321 153 q-189 0 -324 -153q-129 -150 -129 -349z" />
<glyph unicode="P" horiz-adv-x="1081" d="M111 0v1544h409q259 0 395 -112q137 -107 140 -367q0 -240 -127 -367q-120 -117 -367 -120h-149v-578h-301zM412 827h61q149 0 211 47q61 49 64 193q0 133 -70 182q-62 42 -213 45h-53v-467z" />
<glyph unicode="Q" horiz-adv-x="1601" d="M37 774q0 336 217 572q214 239 547 239q330 0 547 -239q214 -240 217 -572q0 -323 -183 -559l211 -250l-303 -31l-106 129q-74 -49 -176 -77q-110 -24 -207 -27q-331 0 -549 238q-215 241 -215 577zM348 756q0 -206 121 -357q122 -146 332 -149q46 0 84 14q35 8 78 37 l-254 293l311 24l137 -155q45 58 72 145q24 86 24 174q0 198 -129 357t-323 159q-212 0 -332 -163q-118 -157 -121 -379z" />
<glyph unicode="R" horiz-adv-x="1142" d="M111 0v1544h407q241 0 377 -112q136 -109 139 -353q0 -152 -84 -280q-83 -124 -231 -148l436 -651h-364l-375 623l-4 -623h-301zM412 834h39q140 0 208 51q74 53 74 186q0 128 -74 178q-70 49 -206 49h-41v-464z" />
<glyph unicode="S" horiz-adv-x="1077" d="M47 260l195 191q30 -94 108 -160q72 -63 170 -66q89 0 144 64t55 160q0 81 -49 133q-45 48 -217 118q-169 68 -258 162q-86 92 -89 260q0 195 127 328q129 135 324 135q104 0 229 -49q124 -48 193 -123l-141 -209q-40 57 -103 94q-59 30 -129 33q-76 0 -133 -51 q-55 -49 -55 -123q0 -102 205 -196q187 -83 305 -173q99 -77 102 -301q0 -234 -137 -383q-133 -142 -371 -145q-148 0 -272 80q-117 80 -203 221z" />
<glyph unicode="T" horiz-adv-x="923" d="M0 1282v262h924v-262h-312v-1282h-301v1282h-311z" />
<glyph unicode="U" horiz-adv-x="1351" d="M102 621v923h301v-864q0 -202 50 -332q49 -124 223 -127q164 0 219 129q50 126 53 330v864h301v-923q0 -302 -139 -482q-137 -177 -434 -180q-293 0 -434 178q-137 178 -140 484z" />
<glyph unicode="V" horiz-adv-x="1308" d="M-29 1544h324l371 -1040l348 1040h323l-600 -1585h-176z" />
<glyph unicode="W" horiz-adv-x="2000" d="M-29 1544h316l311 -1052l311 1073h178l320 -1073l307 1052h316l-523 -1575h-221l-307 1010l-295 -1010h-221z" />
<glyph unicode="X" horiz-adv-x="1275" d="M-16 0l493 817l-416 727h357l246 -479l225 479h356l-428 -727l475 -817h-350l-311 565l-295 -565h-352z" />
<glyph unicode="Y" horiz-adv-x="1202" d="M-33 1544h350l271 -536l295 536h352l-487 -835v-709h-302v709z" />
<glyph unicode="Z" horiz-adv-x="1177" d="M10 0l680 1282h-575v262h1052l-678 -1282h641v-262h-1120z" />
<glyph unicode="[" horiz-adv-x="589" d="M92 -186v1917h406v-187h-189v-1544h189v-186h-406z" />
<glyph unicode="\" horiz-adv-x="1103" d="M61 1737h230l753 -1737h-229z" />
<glyph unicode="]" horiz-adv-x="589" d="M92 0h189v1544h-189v187h406v-1917h-406v186z" />
<glyph unicode="^" d="M68 674l395 870h254l399 -870h-264l-260 579l-260 -579h-264z" />
<glyph unicode="_" horiz-adv-x="1024" d="M0 -231h1024v-154h-1024v154z" />
<glyph unicode="`" horiz-adv-x="778" d="M162 1458l209 127l245 -344l-145 -90z" />
<glyph unicode="a" horiz-adv-x="1157" d="M31 508q0 209 125 371q126 159 333 159q89 0 154 -32q71 -30 127 -95v95h283v-1006h-283v92q-45 -57 -123 -92q-79 -30 -153 -33q-210 0 -338 162q-122 155 -125 379zM322 504q0 -111 65 -197t172 -86q104 0 172 86t68 197q0 105 -68 194q-65 86 -172 86q-104 0 -172 -86 q-62 -80 -65 -194z" />
<glyph unicode="b" horiz-adv-x="1157" d="M102 0v1737h287v-824q49 59 123 93q76 29 156 32q204 0 331 -161q124 -157 127 -369q0 -221 -127 -381q-124 -160 -337 -160q-87 0 -154 33q-70 34 -115 94l-4 -94h-287zM360 504q0 -110 66 -197q65 -86 172 -86q102 0 170 86t68 197q0 105 -68 194q-65 86 -170 86 q-104 0 -172 -86q-63 -81 -66 -194z" />
<glyph unicode="c" horiz-adv-x="862" d="M31 500q0 225 147 381q145 154 375 157q133 0 233 -63v-277q-51 51 -98 74q-52 25 -113 25q-114 0 -186 -90q-67 -88 -67 -209q0 -124 71 -207q70 -79 193 -82q54 0 106 24t94 72v-276q-112 -62 -247 -62q-216 0 -363 156q-142 151 -145 377z" />
<glyph unicode="d" horiz-adv-x="1157" d="M31 508q0 209 125 371q126 159 333 159q83 0 152 -34q74 -29 123 -91l4 824h287v-1737h-287v94q-45 -60 -121 -94q-76 -30 -153 -33q-210 0 -338 162q-122 155 -125 379zM322 504q0 -111 65 -197t172 -86q102 0 170 86t68 197q0 105 -68 194q-65 86 -170 86 q-104 0 -172 -86q-62 -80 -65 -194z" />
<glyph unicode="e" horiz-adv-x="1026" d="M31 494q0 242 125 391q123 153 362 153q233 0 356 -153q118 -148 121 -393v-35h-661q0 -114 47 -191q47 -80 151 -80q64 0 113 37q51 39 80 101l264 -43q-51 -149 -174 -232q-124 -79 -283 -82q-226 0 -366 146q-135 147 -135 381zM342 635h383q-12 84 -63 141 q-50 62 -127 62q-78 0 -132 -60q-49 -55 -61 -143z" />
<glyph unicode="f" horiz-adv-x="620" d="M16 764v242h97v294q0 204 90 332q92 129 289 129q77 0 137 -32v-256q-5 3 -22 9.5t-27 10.5q-35 12 -68 14q-68 0 -92 -55q-18 -65 -21 -145v-47v-254h230v-242h-230v-764h-286v764h-97z" />
<glyph unicode="g" horiz-adv-x="1150" d="M31 496q0 219 125 381q125 158 342 161q76 0 145 -34t115 -95l4 97h287v-945q0 -272 -113 -434q-109 -161 -375 -164q-197 0 -354 115q-154 112 -154 303h303q9 -78 64 -127t135 -49q130 0 170 88q37 84 37 242v65q-103 -130 -279 -133q-208 0 -331 156 q-118 151 -121 373zM322 502q0 -109 65 -195q68 -86 172 -86q106 0 172 84q63 85 66 197q0 107 -66 194q-67 85 -172 88q-105 0 -172 -88q-62 -83 -65 -194z" />
<glyph unicode="h" horiz-adv-x="1105" d="M102 0v1737h287v-815q44 56 117 86q70 30 149 30q187 0 269 -114q80 -115 80 -310v-614h-287v532q0 128 -25 205q-23 69 -131 72q-111 0 -141 -88q-31 -88 -31 -223v-498h-287z" />
<glyph unicode="i" horiz-adv-x="518" d="M90 1427q0 67 49 119q48 48 121 51q69 0 121 -49q49 -49 49 -121q0 -68 -49 -120q-50 -50 -121 -50q-68 0 -121 50q-49 49 -49 120zM117 0v1006h286v-1006h-286z" />
<glyph unicode="j" horiz-adv-x="518" d="M90 1427q0 67 49 119q48 48 121 51q69 0 121 -49q49 -49 49 -121q0 -68 -49 -120q-50 -50 -121 -50q-68 0 -121 50q-49 49 -49 120zM117 -537v1543h286v-1543h-286z" />
<glyph unicode="k" horiz-adv-x="1077" d="M102 0v1737h287v-1100l305 369h373l-424 -443l457 -563h-377l-330 428l-4 -428h-287z" />
<glyph unicode="l" horiz-adv-x="489" d="M102 0v1737h287v-1737h-287z" />
<glyph unicode="m" horiz-adv-x="1642" d="M102 0v1006h287v-91q38 55 109 91q70 29 141 32q194 0 289 -157q39 66 125 114q79 43 168 43q178 0 247 -112q69 -111 72 -299v-627h-287v528q0 127 -22 203q-18 75 -113 78q-97 0 -127 -92q-23 -94 -26 -223v-494h-287v510v41q0 109 -25 186q-23 69 -112 72 q-100 0 -127 -88q-25 -89 -25 -227v-494h-287z" />
<glyph unicode="n" horiz-adv-x="1105" d="M102 0v1006h287v-93q42 59 115 95q68 30 151 30q187 0 269 -114q80 -115 80 -310v-614h-287v532q0 128 -25 205q-23 69 -131 72q-111 0 -141 -88q-31 -88 -31 -223v-498h-287z" />
<glyph unicode="o" horiz-adv-x="1122" d="M33 502q0 234 145 385q145 148 383 151q235 0 381 -149q148 -148 148 -387q0 -231 -148 -385q-147 -147 -381 -150q-232 0 -383 148q-142 145 -145 387zM324 502q0 -109 65 -195q68 -86 172 -86q106 0 172 84q63 85 66 197q0 110 -68 196q-65 86 -170 86q-104 0 -172 -86 q-62 -80 -65 -196z" />
<glyph unicode="p" horiz-adv-x="1157" d="M102 -537v1543h287v-93q49 59 123 93q76 29 156 32q204 0 331 -161q124 -157 127 -369q0 -221 -127 -381q-124 -160 -337 -160q-87 0 -154 33q-70 34 -115 94l-4 -631h-287zM360 504q0 -110 66 -197q65 -86 172 -86q102 0 170 86t68 197q0 105 -68 194q-65 86 -170 86 q-104 0 -172 -86q-63 -81 -66 -194z" />
<glyph unicode="q" horiz-adv-x="1157" d="M31 508q0 209 125 371q126 159 333 159q83 0 152 -34q74 -29 123 -91l4 93h287v-1543h-287v631q-45 -60 -121 -94q-76 -30 -153 -33q-210 0 -338 162q-122 155 -125 379zM322 504q0 -111 65 -197t172 -86q102 0 170 86t68 197q0 105 -68 194q-65 86 -170 86 q-104 0 -172 -86q-62 -80 -65 -194z" />
<glyph unicode="r" horiz-adv-x="751" d="M102 0v1006h287v-105q94 134 254 137q40 0 64 -8q48 -13 55 -16l-35 -266q-50 36 -119 36q-129 0 -176 -90q-43 -87 -43 -241v-453h-287z" />
<glyph unicode="s" horiz-adv-x="839" d="M41 135l131 170q55 -62 100 -86q51 -31 113 -31q50 0 82 29q30 30 33 80q0 42 -29 65q-24 24 -160 80q-131 55 -174 119q-36 56 -39 152q0 145 88 233q89 92 232 92q91 0 176 -26q86 -23 147 -78l-123 -166q-36 36 -71 49q-43 19 -80 21q-35 0 -66 -25q-25 -22 -28 -61 q0 -38 20 -52q32 -19 152 -73q133 -56 186 -121q55 -61 55 -182q0 -161 -112 -261q-110 -93 -279 -96q-101 0 -194 43q-97 45 -160 125z" />
<glyph unicode="t" horiz-adv-x="561" d="M39 764v242h98v340h287v-340h176v-242h-176v-764h-287v764h-98z" />
<glyph unicode="u" horiz-adv-x="1095" d="M96 414v592h287v-545q0 -141 43 -199q38 -50 121 -53q73 0 119 55q42 54 45 197v545h286v-592q0 -444 -450 -447q-448 0 -451 447z" />
<glyph unicode="v" horiz-adv-x="999" d="M-37 1006h316l235 -568l207 568h313l-463 -1026h-147z" />
<glyph unicode="w" horiz-adv-x="1603" d="M-37 1006h313l209 -580l246 612h137l248 -620l213 588h311l-466 -1026h-146l-215 612l-240 -612h-147z" />
<glyph unicode="x" horiz-adv-x="1124" d="M-37 0l430 547l-346 459h348l187 -261l159 261h353l-357 -459l424 -547h-352l-258 350l-232 -350h-356z" />
<glyph unicode="y" horiz-adv-x="1064" d="M-37 1006h326l239 -572l258 572h320l-731 -1543h-316l332 691z" />
<glyph unicode="z" horiz-adv-x="985" d="M-2 0l514 764h-434v242h907l-510 -764h477v-242h-954z" />
<glyph unicode="{" horiz-adv-x="796" d="M139 614v150q71 30 115 113q36 80 39 196v373q0 113 59 190q59 80 115 80h188v-186h-82q-41 0 -53 -31q-7 -27 -10 -96v-363q0 -118 -43 -211q-40 -89 -113 -141q24 -13 92 -94q61 -76 64 -256v-363q0 -74 8 -98q10 -26 55 -29h82v-186h-188q-50 0 -115 80 q-56 77 -59 190v373q0 238 -154 309z" />
<glyph unicode="|" horiz-adv-x="1101" d="M430 0v1737h242v-1737h-242z" />
<glyph unicode="}" horiz-adv-x="796" d="M141 -152h82q41 0 53 31q8 32 11 96v363q0 115 43 213q44 92 112 137q-48 33 -104 117q-48 85 -51 235v363q0 66 -11 98q-6 26 -53 29h-82v186h189q50 0 112 -80t62 -190v-373q0 -239 153 -309v-150q-71 -30 -114 -112q-36 -80 -39 -197v-373q0 -112 -60 -190 q-59 -80 -114 -80h-189v186z" />
<glyph unicode="~" d="M68 487q77 114 129 185q92 109 184 112q57 0 111 -28q54 -25 108 -70q55 -46 109 -74q55 -25 94 -28q36 0 65 57q27 55 45 102l203 -184q-74 -130 -145 -213q-68 -80 -166 -80q-52 0 -98 19q-90 50 -119 71l-123 80q-45 26 -80 29q-29 0 -59 -43q-22 -43 -56 -115z" />
<glyph unicode="&#xa1;" horiz-adv-x="665" d="M150 872q0 74 53 127q51 51 129 54q77 0 129 -52q50 -47 53 -129q0 -76 -53 -129q-52 -55 -129 -55q-76 0 -129 53q-50 50 -53 131zM186 -541v1100h291v-1100h-291z" />
<glyph unicode="&#xa2;" d="M215 776q0 209 115 357q115 151 317 178v172h150v-178q48 -8 94 -23q40 -9 76 -29v-288q-45 48 -95 75q-54 24 -112 27q-117 0 -187 -88q-67 -85 -67 -209q0 -122 69 -203q67 -79 187 -82q130 0 201 103l4 -289q-73 -39 -170 -51v-191h-150v187q-191 0 -313 162 q-116 166 -119 370z" />
<glyph unicode="&#xa3;" d="M20 39q40 123 115 211q76 85 184 88l17 57q6 30 6 64q0 92 -45 172h-268v135h190q-40 76 -61 158q-20 79 -23 155q0 221 148 363q146 140 370 143q244 0 367 -141q118 -139 121 -387l-301 -35l4 70q0 89 -58 165q-58 73 -141 76q-98 0 -158 -78q-55 -76 -55 -184 q0 -82 25 -149q27 -70 61 -136l10 -20h279v-135h-229l6 -78v-47q0 -25 2 -35l-8 -156l137 -55q83 -31 129 -33q43 0 69 33q26 32 43 88l213 -45q-38 -148 -108 -233q-71 -86 -207 -86q-66 0 -113 16q-51 12 -131 43q-94 35 -127 43q-45 13 -102 16q-103 0 -137 -102z" />
<glyph unicode="&#xa4;" horiz-adv-x="1150" d="M31 496q0 219 125 381q125 158 342 161q76 0 145 -34t115 -95l4 97h287v-945q0 -272 -113 -434q-109 -161 -375 -164q-197 0 -354 115q-154 112 -154 303h303q9 -78 64 -127t135 -49q130 0 170 88q37 84 37 242v65q-103 -130 -279 -133q-208 0 -331 156 q-118 151 -121 373zM184 1440h201q13 -69 51 -107q36 -36 103 -39q61 0 100 39q34 34 53 107h201q-12 -142 -113 -232q-97 -85 -241 -88q-141 0 -242 88q-98 84 -113 232zM322 502q0 -109 65 -195q68 -86 172 -86q106 0 172 84q63 85 66 197q0 107 -66 194q-67 85 -172 88 q-105 0 -172 -88q-62 -83 -65 -194z" />
<glyph unicode="&#xa5;" d="M-43 1544h350l283 -536l284 536h351l-357 -624h275v-136h-359l-43 -75v-74h402v-135h-402v-500h-301v500h-401v135h401v74l-49 75h-352v136h274z" />
<glyph unicode="&#xa7;" horiz-adv-x="1181" d="M82 817q0 101 39 178q42 86 112 156q-67 98 -67 229q0 167 117 275q112 103 292 106q172 0 291 -98q118 -93 121 -262h-256q-6 60 -49 106q-40 43 -107 43q-56 0 -92 -45q-31 -42 -34 -106q0 -69 40 -109q55 -44 127 -86l220 -123q133 -74 200 -147q61 -64 64 -201 q0 -96 -39 -178q-39 -86 -105 -149q35 -43 60 -117q19 -64 22 -135q0 -183 -127 -304q-120 -117 -327 -120q-213 0 -346 127q-131 128 -134 346h283q0 -94 53 -168q56 -74 148 -74q72 0 119 53q44 50 47 129q0 79 -54 121q-49 36 -118 76l-273 147q-112 60 -172 136 q-55 73 -55 194zM338 879q0 -81 33 -107q50 -35 112 -72l285 -174q73 64 76 160q0 61 -31 92q-17 22 -104 78l-289 178q-39 -30 -60 -69q-19 -37 -22 -86z" />
<glyph unicode="&#xa8;" horiz-adv-x="819" d="M31 1397q0 67 47 114q50 50 117 50q64 0 114 -50q49 -46 49 -114t-49 -117q-44 -44 -114 -47q-70 0 -117 47q-44 47 -47 117zM463 1397q0 67 47 114q50 50 117 50q64 0 114 -50q50 -47 50 -114t-50 -117q-44 -44 -114 -47q-70 0 -117 47q-44 47 -47 117z" />
<glyph unicode="&#xa9;" horiz-adv-x="1638" d="M12 772q0 336 234 576q231 234 573 237q341 0 572 -237q232 -232 235 -576q0 -342 -235 -577q-233 -233 -572 -236q-337 0 -573 236q-234 237 -234 577zM188 772q0 -272 183 -455q182 -179 448 -182q265 0 447 182q184 184 184 455q0 269 -184 453q-181 184 -447 184 t-448 -182q-180 -177 -183 -455zM362 778q0 206 132 350q128 143 325 146q162 0 275 -94q109 -89 139 -240h-180q-15 73 -86 117q-65 38 -148 41q-124 0 -203 -97q-74 -92 -77 -223q0 -128 77 -223q78 -93 203 -96q86 0 148 39q68 41 86 118h180q-27 -145 -139 -241 q-109 -92 -275 -92q-192 0 -325 145q-129 147 -132 350z" />
<glyph unicode="&#xaa;" horiz-adv-x="694" d="M16 680v151h664v-151h-664zM16 1266q0 129 82 223q78 93 217 96q110 0 183 -76v56h182v-602h-182v55q-64 -73 -181 -76q-137 0 -221 96q-80 95 -80 228zM205 1264q0 -64 43 -119q42 -48 112 -51q68 0 113 51q43 52 43 119q0 64 -43 116q-42 51 -113 54q-66 0 -112 -52 q-43 -49 -43 -118z" />
<glyph unicode="&#xab;" horiz-adv-x="1617" d="M102 666q0 292 207 499q204 204 500 207q293 0 500 -207q204 -204 207 -499q0 -293 -207 -500q-204 -204 -500 -207q-293 0 -500 207q-204 204 -207 500zM184 664q0 -258 183 -441q179 -179 442 -182q258 0 440 182q185 185 185 443q0 255 -185 440q-181 184 -442 184 q-258 0 -442 -184q-178 -184 -181 -442zM545 297v778h348q144 0 197 -53q48 -51 51 -145q0 -70 -23 -111q-13 -29 -80 -84q57 -37 70 -68q13 -29 25 -131v-63q0 -37 6 -64q3 -19 30 -59h-118l-17 98q-3 25 -6 75t-6 77q-18 81 -121 84h-256v-334h-100zM645 719h250 q59 0 102 24q38 20 41 91v30q0 75 -43 99q-41 24 -100 24h-250v-268z" />
<glyph unicode="&#xac;" d="M68 645v242h1048v-596h-242v354h-806z" />
<glyph unicode="&#xad;" horiz-adv-x="675" d="M88 539v235h500v-235h-500z" />
<glyph unicode="&#xae;" horiz-adv-x="1638" d="M12 772q0 336 234 576q231 234 573 237q341 0 572 -237q232 -232 235 -576q0 -342 -235 -577q-233 -233 -572 -236q-337 0 -573 236q-234 237 -234 577zM188 772q0 -272 183 -455q182 -179 448 -182q265 0 447 182q184 184 184 455q0 269 -184 453q-181 184 -447 184 t-448 -182q-180 -177 -183 -455zM481 354v844h410q172 0 246 -51q79 -49 82 -207q0 -118 -60 -184q-57 -63 -170 -66l205 -336h-193l-196 336h-148v-336h-176zM657 842h238q76 0 115 22q37 21 37 90q0 73 -62 82q-53 8 -133 11h-195v-205z" />
<glyph unicode="&#xaf;" horiz-adv-x="819" d="M18 1364v180h783v-180h-783z" />
<glyph unicode="&#xb0;" horiz-adv-x="819" d="M102 1278q0 126 91 217q87 87 217 90q127 0 217 -90q87 -87 90 -217q0 -127 -90 -217q-87 -87 -217 -90q-127 0 -217 90q-88 88 -91 217zM242 1278q0 -67 49 -119q49 -49 121 -49q69 0 116 47q50 50 50 121q0 66 -50 119q-49 49 -120 49q-68 0 -117 -49t-49 -119z" />
<glyph unicode="&#xb1;" d="M68 0v242h1048v-242h-1048zM68 696v242h403v352h242v-352h403v-242h-403v-352h-242v352h-403z" />
<glyph unicode="&#xb4;" horiz-adv-x="778" d="M162 1241l246 344l208 -127l-309 -307z" />
<glyph unicode="&#xb6;" horiz-adv-x="1181" d="M43 1018q0 196 123 362q118 161 317 164h660v-192h-125v-1665h-213v1665h-127v-1665h-213v893q-183 0 -301 118q-118 115 -121 320z" />
<glyph unicode="&#xb7;" horiz-adv-x="591" d="M115 526q0 74 53 127q51 51 129 54q77 0 129 -52q50 -47 53 -129q0 -76 -53 -129q-52 -55 -129 -55q-76 0 -129 53q-50 50 -53 131z" />
<glyph unicode="&#xb8;" horiz-adv-x="778" d="M195 -344l200 303l189 -96l-238 -285z" />
<glyph unicode="&#xba;" horiz-adv-x="694" d="M4 1264q0 141 96 231q93 87 248 90q152 0 248 -90q93 -87 96 -231q0 -144 -96 -234q-91 -85 -248 -88q-152 0 -248 90q-93 87 -96 232zM16 680v151h664v-151h-664zM195 1266q0 -64 43 -119q41 -50 110 -53q70 0 111 53q43 52 43 119q0 64 -43 116q-46 49 -111 52 q-67 0 -110 -52q-43 -49 -43 -116z" />
<glyph unicode="&#xbb;" horiz-adv-x="1323" d="M-37 690v246h148v608h430q331 0 538 -219q204 -216 207 -555q0 -325 -211 -549q-209 -221 -536 -221h-428v690h-148zM412 262h49q262 0 389 133q122 134 125 377q0 510 -514 510h-49v-346h231v-246h-231v-428z" />
<glyph unicode="&#xbf;" horiz-adv-x="997" d="M61 -100q0 150 91 270q89 114 239 152l17 196h286v-407q-17 4 -73 8q-107 0 -187 -62q-73 -61 -76 -168q0 -67 37 -125q37 -55 105 -55q61 0 100 51q37 49 37 117v25h299q0 -189 -125 -314q-123 -129 -309 -129q-191 0 -316 125q-122 122 -125 316zM365 872q0 74 53 127 q51 51 129 54q77 0 129 -52q50 -47 53 -129q0 -76 -53 -129q-52 -55 -129 -55q-76 0 -129 53q-50 50 -53 131z" />
<glyph unicode="&#xc0;" horiz-adv-x="1384" d="M-18 0l602 1585h233l586 -1585h-322l-118 326h-537l-127 -326h-317zM465 1997l209 127l246 -344l-146 -90zM512 571h367l-193 562z" />
<glyph unicode="&#xc1;" horiz-adv-x="1384" d="M-18 0l602 1585h233l586 -1585h-322l-118 326h-537l-127 -326h-317zM465 1780l246 344l209 -127l-310 -307zM512 571h367l-193 562z" />
<glyph unicode="&#xc2;" horiz-adv-x="1384" d="M-18 0l602 1585h233l586 -1585h-322l-118 326h-537l-127 -326h-317zM344 1808l348 316l348 -316l-122 -135l-226 213l-225 -213zM512 571h367l-193 562z" />
<glyph unicode="&#xc3;" horiz-adv-x="1384" d="M-18 0l602 1585h233l586 -1585h-322l-118 326h-537l-127 -326h-317zM303 1776q6 103 66 194q58 87 157 90q43 0 64 -8q74 -28 86 -33q15 -6 45 -19.5t43 -17.5q25 -6 53 -10q38 0 55 17q20 28 41 69h170q-18 -121 -82 -203q-62 -86 -165 -86q-26 0 -50 7q-2 1 -28.5 11 t-50.5 21l-93 39q-32 13 -55 13q-32 0 -57 -25q-19 -23 -31 -59h-168zM512 571h367l-193 562z" />
<glyph unicode="&#xc4;" horiz-adv-x="1384" d="M-18 0l602 1585h233l586 -1585h-322l-118 326h-537l-127 -326h-317zM313 1935q0 68 47 115q49 49 117 49q66 0 115 -49q49 -46 49 -115q0 -67 -49 -116q-44 -44 -115 -47q-70 0 -117 47q-44 47 -47 116zM512 571h367l-193 562zM745 1935q0 67 48 115q49 49 116 49 q66 0 115 -49q49 -46 49 -115q0 -67 -49 -116q-44 -44 -115 -47q-69 0 -116 47q-45 48 -48 116z" />
<glyph unicode="&#xc5;" horiz-adv-x="1384" d="M-18 0l602 1585h233l586 -1585h-322l-118 326h-537l-127 -326h-317zM487 1919q0 85 60 145q57 57 145 60q86 0 146 -60q56 -53 59 -145q0 -86 -61 -147q-57 -57 -144 -60q-85 0 -145 60q-57 57 -60 147zM512 571h367l-193 562zM608 1919q0 -35 23 -61q25 -25 61 -25 q32 0 60 25q24 24 24 61q0 32 -24 59q-25 25 -60 25q-31 0 -59 -25q-25 -25 -25 -59z" />
<glyph unicode="&#xc6;" horiz-adv-x="1886" d="M-18 0l600 1544h761l95 -262h-512l125 -342h503l95 -262h-504l153 -416h512l93 -262h-826l-121 326h-534l-121 -326h-319zM510 571h364l-190 525z" />
<glyph unicode="&#xc7;" horiz-adv-x="1230" d="M37 760q0 334 215 581q212 241 547 244q98 0 176 -22q81 -21 168 -68v-360q-53 70 -152 120q-85 43 -188 43q-206 0 -332 -159q-123 -156 -123 -373q0 -210 125 -365q122 -152 328 -155q96 0 186 43q92 45 156 121v-359q-87 -42 -178 -67q-89 -25 -172 -25 q-319 0 -539 236q-214 240 -217 565zM422 -344l201 303l188 -96l-238 -285z" />
<glyph unicode="&#xc8;" horiz-adv-x="999" d="M111 0v1544h798v-262h-497v-340h479v-262h-479v-418h497v-262h-798zM272 1997l209 127l246 -344l-145 -90z" />
<glyph unicode="&#xc9;" horiz-adv-x="999" d="M111 0v1544h798v-262h-497v-340h479v-262h-479v-418h497v-262h-798zM272 1780l246 344l209 -127l-309 -307z" />
<glyph unicode="&#xca;" horiz-adv-x="999" d="M111 0v1544h798v-262h-497v-340h479v-262h-479v-418h497v-262h-798zM152 1808l348 316l348 -316l-123 -135l-225 213l-226 -213z" />
<glyph unicode="&#xcb;" horiz-adv-x="999" d="M111 0v1544h798v-262h-497v-340h479v-262h-479v-418h497v-262h-798zM121 1935q0 68 47 115q49 49 117 49q65 0 114 -49q50 -47 50 -115q0 -66 -50 -116q-44 -44 -114 -47q-70 0 -117 47q-44 47 -47 116zM553 1935q0 68 47 115q49 49 117 49q65 0 114 -49q50 -47 50 -115 q0 -66 -50 -116q-44 -44 -114 -47q-70 0 -117 47q-44 47 -47 116z" />
<glyph unicode="&#xcc;" horiz-adv-x="520" d="M35 1997l209 127l245 -344l-145 -90zM111 0v1544h301v-1544h-301z" />
<glyph unicode="&#xcd;" horiz-adv-x="520" d="M35 1780l246 344l208 -127l-309 -307zM111 0v1544h301v-1544h-301z" />
<glyph unicode="&#xce;" horiz-adv-x="520" d="M-86 1808l348 316l348 -316l-123 -135l-225 213l-225 -213zM111 0v1544h301v-1544h-301z" />
<glyph unicode="&#xcf;" horiz-adv-x="520" d="M-117 1935q0 68 47 115q49 49 117 49q66 0 115 -49q49 -46 49 -115q0 -67 -49 -116q-44 -44 -115 -47q-70 0 -117 47q-44 47 -47 116zM111 0v1544h301v-1544h-301zM315 1935q0 68 47 115q49 49 117 49q66 0 115 -49q49 -46 49 -115q0 -67 -49 -116q-44 -44 -115 -47 q-70 0 -117 47q-44 47 -47 116z" />
<glyph unicode="&#xd1;" horiz-adv-x="1554" d="M111 0v1585h217l813 -1079l4 1038h301v-1575h-217l-813 1080l-4 -1049h-301zM389 1776q6 103 66 194q58 87 157 90q43 0 64 -8q74 -28 86 -33q15 -6 45 -19.5t43 -17.5q25 -6 53 -10q38 0 55 17q20 28 41 69h170q-18 -121 -82 -203q-62 -86 -165 -86q-25 0 -50 7 q-2 1 -28.5 11t-50.5 21l-93 39q-32 13 -55 13q-32 0 -57 -25q-19 -23 -31 -59h-168z" />
<glyph unicode="&#xd2;" horiz-adv-x="1601" d="M37 774q0 336 217 572q214 239 547 239q330 0 547 -239q214 -240 217 -572q0 -341 -217 -577q-212 -235 -547 -238q-331 0 -549 238q-215 241 -215 577zM348 786q0 -186 133 -360q132 -167 320 -170q179 0 317 170q135 172 135 360q0 194 -131 349q-129 153 -321 153 q-189 0 -324 -153q-129 -150 -129 -349zM573 1997l209 127l246 -344l-145 -90z" />
<glyph unicode="&#xd3;" horiz-adv-x="1601" d="M37 774q0 336 217 572q214 239 547 239q330 0 547 -239q214 -240 217 -572q0 -341 -217 -577q-212 -235 -547 -238q-331 0 -549 238q-215 241 -215 577zM348 786q0 -186 133 -360q132 -167 320 -170q179 0 317 170q135 172 135 360q0 194 -131 349q-129 153 -321 153 q-189 0 -324 -153q-129 -150 -129 -349zM598 1780l246 344l209 -127l-310 -307z" />
<glyph unicode="&#xd4;" horiz-adv-x="1601" d="M37 774q0 336 217 572q214 239 547 239q330 0 547 -239q214 -240 217 -572q0 -341 -217 -577q-212 -235 -547 -238q-331 0 -549 238q-215 241 -215 577zM348 786q0 -186 133 -360q132 -167 320 -170q179 0 317 170q135 172 135 360q0 194 -131 349q-129 153 -321 153 q-189 0 -324 -153q-129 -150 -129 -349zM453 1808l348 316l348 -316l-123 -135l-225 213l-226 -213z" />
<glyph unicode="&#xd5;" horiz-adv-x="1601" d="M37 774q0 336 217 572q214 239 547 239q330 0 547 -239q214 -240 217 -572q0 -341 -217 -577q-212 -235 -547 -238q-331 0 -549 238q-215 241 -215 577zM348 786q0 -186 133 -360q132 -167 320 -170q179 0 317 170q135 172 135 360q0 194 -131 349q-129 153 -321 153 q-189 0 -324 -153q-129 -150 -129 -349zM412 1776q6 104 65 194q58 87 158 90q42 0 63 -8q74 -28 86 -33q15 -6 45 -19.5t43 -17.5q24 -6 54 -10q38 0 55 17q20 28 41 69h170q-18 -121 -82 -203q-62 -86 -166 -86q-24 0 -49 7q-2 1 -29 11t-51 21l-92 39q-33 13 -55 13 q-33 0 -58 -25q-18 -21 -30 -59h-168z" />
<glyph unicode="&#xd6;" horiz-adv-x="1601" d="M37 774q0 336 217 572q214 239 547 239q330 0 547 -239q214 -240 217 -572q0 -341 -217 -577q-212 -235 -547 -238q-331 0 -549 238q-215 241 -215 577zM348 786q0 -186 133 -360q132 -167 320 -170q179 0 317 170q135 172 135 360q0 194 -131 349q-129 153 -321 153 q-189 0 -324 -153q-129 -150 -129 -349zM422 1935q0 68 47 115q49 49 117 49q65 0 114 -49q50 -47 50 -115q0 -66 -50 -116q-44 -44 -114 -47q-70 0 -117 47q-44 47 -47 116zM854 1935q0 68 47 115q49 49 117 49q66 0 115 -49q49 -46 49 -115q0 -67 -49 -116 q-44 -44 -115 -47q-70 0 -117 47q-44 47 -47 116z" />
<glyph unicode="&#xd8;" horiz-adv-x="1601" d="M-2 61l182 195q-72 103 -110 233q-30 141 -33 285q0 336 217 572q214 239 547 239q134 0 256 -45q125 -43 217 -129l182 199l141 -131l-182 -203q73 -111 111 -240q36 -129 39 -262q0 -341 -217 -577q-212 -235 -547 -238q-274 0 -482 166l-182 -197zM348 786 q0 -92 12 -163q12 -69 52 -129l643 696q-48 45 -119 72q-72 23 -135 26q-189 0 -324 -153q-129 -150 -129 -349zM535 342q59 -50 118 -68q61 -18 148 -18q179 0 317 170q135 172 135 360q0 121 -75 256z" />
<glyph unicode="&#xd9;" horiz-adv-x="1351" d="M102 621v923h301v-864q0 -202 50 -332q49 -124 223 -127q164 0 219 129q50 126 53 330v864h301v-923q0 -302 -139 -482q-137 -177 -434 -180q-293 0 -434 178q-137 178 -140 484zM424 1997l209 127l246 -344l-146 -90z" />
<glyph unicode="&#xda;" horiz-adv-x="1351" d="M102 621v923h301v-864q0 -202 50 -332q49 -124 223 -127q164 0 219 129q50 126 53 330v864h301v-923q0 -302 -139 -482q-137 -177 -434 -180q-293 0 -434 178q-137 178 -140 484zM498 1780l245 344l209 -127l-309 -307z" />
<glyph unicode="&#xdb;" horiz-adv-x="1351" d="M102 621v923h301v-864q0 -202 50 -332q49 -124 223 -127q164 0 219 129q50 126 53 330v864h301v-923q0 -302 -139 -482q-137 -177 -434 -180q-293 0 -434 178q-137 178 -140 484zM328 1808l348 316l348 -316l-123 -135l-225 213l-225 -213z" />
<glyph unicode="&#xdc;" horiz-adv-x="1351" d="M102 621v923h301v-864q0 -202 50 -332q49 -124 223 -127q164 0 219 129q50 126 53 330v864h301v-923q0 -302 -139 -482q-137 -177 -434 -180q-293 0 -434 178q-137 178 -140 484zM297 1935q0 68 47 115q49 49 117 49q65 0 114 -49q50 -47 50 -115q0 -66 -50 -116 q-44 -44 -114 -47q-70 0 -117 47q-44 47 -47 116zM729 1935q0 68 47 115q49 49 117 49q66 0 115 -49q49 -46 49 -115q0 -67 -49 -116q-44 -44 -115 -47q-70 0 -117 47q-44 47 -47 116z" />
<glyph unicode="&#xdf;" horiz-adv-x="1148" d="M102 0v1237q0 244 109 383q108 141 346 141q200 0 326 -123q122 -122 125 -323q0 -110 -39 -187q-33 -73 -117 -145q135 -57 199 -182q67 -122 67 -281q0 -249 -155 -401q-152 -149 -406 -152h-41v250q131 0 215 90q86 92 86 225q0 138 -84 222q-79 85 -217 88v241 q102 0 160 64q54 57 57 164q0 80 -49 141q-47 56 -129 59q-101 0 -135 -88q-31 -88 -31 -227v-78v-1118h-287z" />
<glyph unicode="&#xe0;" horiz-adv-x="1157" d="M31 508q0 209 125 371q126 159 333 159q89 0 154 -32q71 -30 127 -95v95h283v-1006h-283v92q-45 -57 -123 -92q-79 -30 -153 -33q-210 0 -338 162q-122 155 -125 379zM322 504q0 -111 65 -197t172 -86q104 0 172 86t68 197q0 105 -68 194q-65 86 -172 86q-104 0 -172 -86 q-62 -80 -65 -194zM352 1458l209 127l246 -344l-145 -90z" />
<glyph unicode="&#xe1;" horiz-adv-x="1157" d="M31 508q0 209 125 371q126 159 333 159q89 0 154 -32q71 -30 127 -95v95h283v-1006h-283v92q-45 -57 -123 -92q-79 -30 -153 -33q-210 0 -338 162q-122 155 -125 379zM322 504q0 -111 65 -197t172 -86q104 0 172 86t68 197q0 105 -68 194q-65 86 -172 86q-104 0 -172 -86 q-62 -80 -65 -194zM401 1241l246 344l209 -127l-309 -307z" />
<glyph unicode="&#xe2;" horiz-adv-x="1157" d="M31 508q0 209 125 371q126 159 333 159q89 0 154 -32q71 -30 127 -95v95h283v-1006h-283v92q-45 -57 -123 -92q-79 -30 -153 -33q-210 0 -338 162q-122 155 -125 379zM231 1270l349 315l348 -315l-123 -135l-225 213l-226 -213zM322 504q0 -111 65 -197t172 -86 q104 0 172 86t68 197q0 105 -68 194q-65 86 -172 86q-104 0 -172 -86q-62 -80 -65 -194z" />
<glyph unicode="&#xe3;" horiz-adv-x="1157" d="M31 508q0 209 125 371q126 159 333 159q89 0 154 -32q71 -30 127 -95v95h283v-1006h-283v92q-45 -57 -123 -92q-79 -30 -153 -33q-210 0 -338 162q-122 155 -125 379zM190 1237q6 104 66 195q58 87 158 90q39 0 63 -9q4 -2 18.5 -6.5t32 -11t35.5 -14.5q15 -6 45 -19.5 t43 -17.5q24 -6 54 -10q39 0 55 16q18 25 41 70h170q-18 -121 -82 -203q-62 -86 -166 -86q-28 0 -49 6q-2 1 -29 11.5t-51 21.5l-92 39q-30 12 -56 12q-32 0 -57 -25q-19 -23 -31 -59h-168zM322 504q0 -111 65 -197t172 -86q104 0 172 86t68 197q0 105 -68 194 q-65 86 -172 86q-104 0 -172 -86q-62 -80 -65 -194z" />
<glyph unicode="&#xe4;" horiz-adv-x="1157" d="M31 508q0 209 125 371q126 159 333 159q89 0 154 -32q71 -30 127 -95v95h283v-1006h-283v92q-45 -57 -123 -92q-79 -30 -153 -33q-210 0 -338 162q-122 155 -125 379zM201 1397q0 67 47 114q50 50 117 50q64 0 114 -50q49 -46 49 -114t-49 -117q-44 -44 -114 -47 q-70 0 -117 47q-44 47 -47 117zM322 504q0 -111 65 -197t172 -86q104 0 172 86t68 197q0 105 -68 194q-65 86 -172 86q-104 0 -172 -86q-62 -80 -65 -194zM633 1397q0 67 47 114q50 50 117 50q64 0 114 -50q50 -47 50 -114t-50 -117q-44 -44 -114 -47q-70 0 -117 47 q-44 47 -47 117z" />
<glyph unicode="&#xe5;" horiz-adv-x="1157" d="M31 508q0 209 125 371q126 159 333 159q89 0 154 -32q71 -30 127 -95v95h283v-1006h-283v92q-45 -57 -123 -92q-79 -30 -153 -33q-210 0 -338 162q-122 155 -125 379zM322 504q0 -111 65 -197t172 -86q104 0 172 86t68 197q0 105 -68 194q-65 86 -172 86q-104 0 -172 -86 q-62 -80 -65 -194zM375 1380q0 87 59 146q56 56 146 59q86 0 145 -59q56 -53 59 -146q0 -86 -61 -147q-56 -56 -143 -59q-87 0 -146 59q-56 56 -59 147zM496 1380q0 -36 22 -61q25 -25 62 -25q31 0 59 25q25 25 25 61q0 32 -25 60q-24 24 -59 24q-33 0 -60 -24 q-24 -24 -24 -60z" />
<glyph unicode="&#xe6;" horiz-adv-x="1622" d="M23 297q0 156 110 244q112 86 273 86q61 0 120 -15q67 -14 113 -41v33q0 105 -64 160q-61 55 -167 55q-130 0 -246 -45v223q43 12 145 29q67 12 135 12q105 0 193 -39q90 -37 137 -114q53 71 150 112q90 38 192 41q233 0 356 -153q118 -148 121 -393v-35h-661 q0 -114 47 -191q47 -80 151 -80q64 0 113 37q51 39 80 101l264 -43q-51 -149 -174 -232q-124 -79 -283 -82q-117 0 -208 39q-91 40 -150 127q-62 -77 -160 -123q-93 -43 -198 -43q-164 0 -277 84q-109 86 -112 246zM297 307q0 -65 49 -102q50 -32 121 -35q66 0 117 39 q50 35 53 100q0 62 -57 99q-53 36 -125 36q-63 0 -111 -36q-44 -35 -47 -101zM934 635h383q-12 83 -64 141q-50 62 -127 62t-131 -60q-49 -55 -61 -143z" />
<glyph unicode="&#xe7;" horiz-adv-x="862" d="M31 500q0 225 147 381q145 154 375 157q133 0 233 -63v-277q-51 51 -98 74q-52 25 -113 25q-114 0 -186 -90q-67 -88 -67 -209q0 -124 71 -207q70 -79 193 -82q54 0 106 24t94 72v-276q-112 -62 -247 -62q-216 0 -363 156q-142 151 -145 377zM238 -344l200 303l189 -96 l-238 -285z" />
<glyph unicode="&#xe8;" horiz-adv-x="1026" d="M31 494q0 242 125 391q123 153 362 153q233 0 356 -153q118 -148 121 -393v-35h-661q0 -114 47 -191q47 -80 151 -80q64 0 113 37q51 39 80 101l264 -43q-51 -149 -174 -232q-124 -79 -283 -82q-226 0 -366 146q-135 147 -135 381zM287 1458l209 127l245 -344l-145 -90z M342 635h383q-12 84 -63 141q-50 62 -127 62q-78 0 -132 -60q-49 -55 -61 -143z" />
<glyph unicode="&#xe9;" horiz-adv-x="1026" d="M31 494q0 242 125 391q123 153 362 153q233 0 356 -153q118 -148 121 -393v-35h-661q0 -114 47 -191q47 -80 151 -80q64 0 113 37q51 39 80 101l264 -43q-51 -149 -174 -232q-124 -79 -283 -82q-226 0 -366 146q-135 147 -135 381zM336 1241l246 344l209 -127l-310 -307z M342 635h383q-12 84 -63 141q-50 62 -127 62q-78 0 -132 -60q-49 -55 -61 -143z" />
<glyph unicode="&#xea;" horiz-adv-x="1026" d="M31 494q0 242 125 391q123 153 362 153q233 0 356 -153q118 -148 121 -393v-35h-661q0 -114 47 -191q47 -80 151 -80q64 0 113 37q51 39 80 101l264 -43q-51 -149 -174 -232q-124 -79 -283 -82q-226 0 -366 146q-135 147 -135 381zM166 1270l348 315l348 -315l-123 -135 l-225 213l-225 -213zM342 635h383q-12 84 -63 141q-50 62 -127 62q-78 0 -132 -60q-49 -55 -61 -143z" />
<glyph unicode="&#xeb;" horiz-adv-x="1026" d="M31 494q0 242 125 391q123 153 362 153q233 0 356 -153q118 -148 121 -393v-35h-661q0 -114 47 -191q47 -80 151 -80q64 0 113 37q51 39 80 101l264 -43q-51 -149 -174 -232q-124 -79 -283 -82q-226 0 -366 146q-135 147 -135 381zM135 1397q0 67 47 114q50 50 117 50 q65 0 115 -50q49 -46 49 -114t-49 -117q-44 -44 -115 -47q-70 0 -117 47q-44 47 -47 117zM342 635h383q-12 84 -63 141q-50 62 -127 62q-78 0 -132 -60q-49 -55 -61 -143zM567 1397q0 67 47 114q50 50 117 50q65 0 115 -50q49 -46 49 -114t-49 -117q-44 -44 -115 -47 q-70 0 -117 47q-44 47 -47 117z" />
<glyph unicode="&#xec;" horiz-adv-x="518" d="M35 1458l209 127l245 -344l-145 -90zM117 0v1006h286v-1006h-286z" />
<glyph unicode="&#xed;" horiz-adv-x="518" d="M84 1241l246 344l209 -127l-310 -307zM117 0v1006h286v-1006h-286z" />
<glyph unicode="&#xee;" horiz-adv-x="518" d="M-86 1270l348 315l348 -315l-123 -135l-225 213l-225 -213zM117 0v1006h286v-1006h-286z" />
<glyph unicode="&#xef;" horiz-adv-x="518" d="M-117 1397q0 67 47 114q50 50 117 50q65 0 115 -50q49 -46 49 -114t-49 -117q-44 -44 -115 -47q-70 0 -117 47q-44 47 -47 117zM117 0v1006h286v-1006h-286zM315 1397q0 67 47 114q50 50 117 50q65 0 115 -50q49 -46 49 -114t-49 -117q-44 -44 -115 -47q-70 0 -117 47 q-44 47 -47 117z" />
<glyph unicode="&#xf1;" horiz-adv-x="1105" d="M102 0v1006h287v-93q42 59 115 95q68 30 151 30q187 0 269 -114q80 -115 80 -310v-614h-287v532q0 128 -25 205q-23 69 -131 72q-111 0 -141 -88q-31 -88 -31 -223v-498h-287zM164 1237q6 106 65 195q58 87 158 90q40 0 64 -9q4 -2 18.5 -6.5t32 -11t35.5 -14.5 q15 -6 45 -19.5t43 -17.5q25 -6 53 -10q39 0 55 16q18 25 41 70h170q-18 -121 -82 -203q-62 -86 -166 -86q-28 0 -49 6q-2 1 -29 11.5t-51 21.5l-92 39q-30 12 -55 12q-33 0 -58 -25q-18 -21 -30 -59h-168z" />
<glyph unicode="&#xf2;" horiz-adv-x="1122" d="M33 502q0 234 145 385q145 148 383 151q235 0 381 -149q148 -148 148 -387q0 -231 -148 -385q-147 -147 -381 -150q-232 0 -383 148q-142 145 -145 387zM324 502q0 -109 65 -195q68 -86 172 -86q106 0 172 84q63 85 66 197q0 110 -68 196q-65 86 -170 86q-104 0 -172 -86 q-62 -80 -65 -196zM334 1458l209 127l245 -344l-145 -90z" />
<glyph unicode="&#xf3;" horiz-adv-x="1122" d="M33 502q0 234 145 385q145 148 383 151q235 0 381 -149q148 -148 148 -387q0 -231 -148 -385q-147 -147 -381 -150q-232 0 -383 148q-142 145 -145 387zM324 502q0 -109 65 -195q68 -86 172 -86q106 0 172 84q63 85 66 197q0 110 -68 196q-65 86 -170 86q-104 0 -172 -86 q-62 -80 -65 -196zM383 1241l246 344l209 -127l-310 -307z" />
<glyph unicode="&#xf4;" horiz-adv-x="1122" d="M33 502q0 234 145 385q145 148 383 151q235 0 381 -149q148 -148 148 -387q0 -231 -148 -385q-147 -147 -381 -150q-232 0 -383 148q-142 145 -145 387zM213 1270l348 315l348 -315l-123 -135l-225 213l-225 -213zM324 502q0 -109 65 -195q68 -86 172 -86q106 0 172 84 q63 85 66 197q0 110 -68 196q-65 86 -170 86q-104 0 -172 -86q-62 -80 -65 -196z" />
<glyph unicode="&#xf5;" horiz-adv-x="1122" d="M33 502q0 234 145 385q145 148 383 151q235 0 381 -149q148 -148 148 -387q0 -231 -148 -385q-147 -147 -381 -150q-232 0 -383 148q-142 145 -145 387zM172 1237q6 104 66 195q58 87 157 90q40 0 64 -9q4 -2 18.5 -6.5t32 -11t35.5 -14.5q15 -6 45 -19.5t43 -17.5 q25 -6 53 -10q39 0 55 16q18 25 41 70h170q-18 -121 -82 -203q-62 -86 -165 -86q-29 0 -50 6q-2 1 -29 11.5t-51 21.5l-92 39q-30 12 -55 12q-32 0 -57 -25q-19 -23 -31 -59h-168zM324 502q0 -109 65 -195q68 -86 172 -86q106 0 172 84q63 85 66 197q0 110 -68 196 q-65 86 -170 86q-104 0 -172 -86q-62 -80 -65 -196z" />
<glyph unicode="&#xf6;" horiz-adv-x="1122" d="M33 502q0 234 145 385q145 148 383 151q235 0 381 -149q148 -148 148 -387q0 -231 -148 -385q-147 -147 -381 -150q-232 0 -383 148q-142 145 -145 387zM182 1397q0 67 47 114q50 50 117 50q65 0 115 -50q49 -46 49 -114t-49 -117q-44 -44 -115 -47q-70 0 -117 47 q-44 47 -47 117zM324 502q0 -109 65 -195q68 -86 172 -86q106 0 172 84q63 85 66 197q0 110 -68 196q-65 86 -170 86q-104 0 -172 -86q-62 -80 -65 -196zM614 1397q0 66 48 114q50 50 116 50q65 0 115 -50q49 -46 49 -114t-49 -117q-44 -44 -115 -47q-69 0 -116 47 q-45 48 -48 117z" />
<glyph unicode="&#xf7;" d="M68 403v242h1048v-242h-1048zM422 129q0 67 49 119q48 48 121 51q69 0 121 -49q49 -49 49 -121q0 -69 -49 -121q-49 -49 -121 -49q-69 0 -121 49q-49 49 -49 121zM422 920q0 66 49 118q49 49 121 52q68 0 121 -50q49 -49 49 -120q0 -69 -49 -121q-49 -49 -121 -49 q-69 0 -121 49q-49 49 -49 121z" />
<glyph unicode="&#xf8;" horiz-adv-x="1155" d="M-6 20l137 146q-85 137 -88 336q0 234 145 385q145 148 383 151q99 0 191 -24q88 -24 156 -80l143 151l98 -92l-139 -151q39 -67 59 -158q18 -72 21 -182q0 -231 -148 -385q-147 -147 -381 -150q-105 0 -184 29q-94 25 -156 82l-141 -150zM334 502q0 -62 28 -123l345 358 q-25 28 -60 37q-26 7 -76 10q-104 0 -172 -86q-62 -80 -65 -196zM444 272q31 -27 58 -41q21 -7 69 -10q106 0 172 84q63 85 66 197q0 38 -6 65q-3 19 -19 60z" />
<glyph unicode="&#xf9;" horiz-adv-x="1095" d="M96 414v592h287v-545q0 -141 43 -199q38 -50 121 -53q73 0 119 55q42 54 45 197v545h286v-592q0 -444 -450 -447q-448 0 -451 447zM297 1458l209 127l246 -344l-146 -90z" />
<glyph unicode="&#xfa;" horiz-adv-x="1095" d="M96 414v592h287v-545q0 -141 43 -199q38 -50 121 -53q73 0 119 55q42 54 45 197v545h286v-592q0 -444 -450 -447q-448 0 -451 447zM371 1241l245 344l209 -127l-309 -307z" />
<glyph unicode="&#xfb;" horiz-adv-x="1095" d="M96 414v592h287v-545q0 -141 43 -199q38 -50 121 -53q73 0 119 55q42 54 45 197v545h286v-592q0 -444 -450 -447q-448 0 -451 447zM201 1270l348 315l348 -315l-123 -135l-225 213l-225 -213z" />
<glyph unicode="&#xfc;" horiz-adv-x="1095" d="M96 414v592h287v-545q0 -141 43 -199q38 -50 121 -53q73 0 119 55q42 54 45 197v545h286v-592q0 -444 -450 -447q-448 0 -451 447zM170 1397q0 67 47 114q50 50 117 50q65 0 115 -50q49 -46 49 -114t-49 -117q-44 -44 -115 -47q-70 0 -117 47q-44 47 -47 117zM602 1397 q0 67 47 114q50 50 117 50q65 0 115 -50q49 -46 49 -114t-49 -117q-44 -44 -115 -47q-70 0 -117 47q-44 47 -47 117z" />
<glyph unicode="&#xff;" horiz-adv-x="1064" d="M-37 1006h326l239 -572l258 572h320l-731 -1543h-316l332 691zM154 1397q0 67 47 114q50 50 116 50q65 0 115 -50q49 -46 49 -114t-49 -117q-44 -44 -115 -47q-69 0 -116 47q-44 47 -47 117zM586 1397q0 67 47 114q50 50 117 50q64 0 114 -50q49 -46 49 -114t-49 -117 q-44 -44 -114 -47q-70 0 -117 47q-44 47 -47 117z" />
<glyph unicode="&#x11e;" horiz-adv-x="1513" d="M37 766q0 343 207 582q205 234 547 237q196 0 358 -98q163 -95 252 -270l-266 -144q-48 104 -144 176q-92 67 -209 70q-205 0 -319 -170q-112 -168 -115 -383q0 -212 115 -377q115 -161 321 -164q141 0 246 105q104 104 107 245h-328v246h666v-39q0 -351 -181 -587 q-180 -233 -522 -236q-326 0 -532 238q-203 238 -203 569zM401 1985h201q13 -69 51 -107q36 -36 103 -39q61 0 100 39q34 34 53 107h201q-12 -142 -113 -232q-97 -85 -241 -88q-141 0 -242 88q-98 84 -113 232z" />
<glyph unicode="&#x11f;" horiz-adv-x="1150" d="M31 496q0 219 125 381q125 158 342 161q76 0 145 -34t115 -95l4 97h287v-945q0 -272 -113 -434q-109 -161 -375 -164q-197 0 -354 115q-154 112 -154 303h303q9 -78 64 -127t135 -49q130 0 170 88q37 84 37 242v65q-103 -130 -279 -133q-208 0 -331 156 q-118 151 -121 373zM184 1440h201q13 -69 51 -107q36 -36 103 -39q61 0 100 39q34 34 53 107h201q-12 -142 -113 -232q-97 -85 -241 -88q-141 0 -242 88q-98 84 -113 232zM322 502q0 -109 65 -195q68 -86 172 -86q106 0 172 84q63 85 66 197q0 107 -66 194q-67 85 -172 88 q-105 0 -172 -88q-62 -83 -65 -194z" />
<glyph unicode="&#x130;" horiz-adv-x="520" d="M100 1790q0 68 47 115q49 49 117 49q66 0 115 -49q49 -46 49 -115q0 -68 -49 -117q-44 -44 -115 -47q-70 0 -117 47q-44 47 -47 117zM111 0v1544h301v-1544h-301z" />
<glyph unicode="&#x131;" horiz-adv-x="518" d="M117 0v1006h286v-1006h-286z" />
<glyph unicode="&#x152;" horiz-adv-x="2127" d="M37 768q0 318 213 569q213 245 528 248q139 0 262 -57q125 -56 207 -158l4 174h787v-262h-488v-342h465v-262h-465v-416h488v-262h-787v174q-185 -215 -473 -215q-308 0 -526 246q-215 247 -215 563zM324 768q0 -201 125 -356q126 -153 323 -156q197 0 326 156 q124 154 127 356q0 203 -127 360q-127 160 -326 160q-195 0 -323 -158q-122 -153 -125 -362z" />
<glyph unicode="&#x153;" horiz-adv-x="1787" d="M29 502q0 234 145 385q145 148 383 151q218 0 367 -168q57 81 153 125q93 43 205 43q233 0 356 -153q118 -148 121 -393v-35h-661q0 -114 47 -191q47 -80 151 -80q64 0 113 37q51 39 80 101l264 -43q-51 -149 -174 -232q-124 -79 -283 -82q-121 0 -217 41 q-89 42 -155 133q-61 -85 -162 -131q-98 -43 -205 -43q-232 0 -383 148q-142 145 -145 387zM319 502q0 -108 66 -195q68 -86 172 -86q106 0 172 84q63 85 66 197q0 110 -68 196q-65 86 -170 86q-104 0 -172 -86q-63 -82 -66 -196zM1096 635h383q-12 83 -64 141 q-50 62 -127 62t-131 -60q-49 -55 -61 -143z" />
<glyph unicode="&#x15e;" horiz-adv-x="1077" d="M47 260l195 191q30 -94 108 -160q72 -63 170 -66q89 0 144 64t55 160q0 81 -49 133q-45 48 -217 118q-169 68 -258 162q-86 92 -89 260q0 195 127 328q129 135 324 135q104 0 229 -49q124 -48 193 -123l-141 -209q-40 57 -103 94q-59 30 -129 33q-76 0 -133 -51 q-55 -49 -55 -123q0 -102 205 -196q187 -83 305 -173q99 -77 102 -301q0 -234 -137 -383q-133 -142 -371 -145q-148 0 -272 80q-117 80 -203 221zM344 -344l201 303l188 -96l-237 -285z" />
<glyph unicode="&#x15f;" horiz-adv-x="839" d="M41 135l131 170q55 -62 100 -86q51 -31 113 -31q50 0 82 29q30 30 33 80q0 42 -29 65q-24 24 -160 80q-131 55 -174 119q-36 56 -39 152q0 145 88 233q89 92 232 92q91 0 176 -26q86 -23 147 -78l-123 -166q-36 36 -71 49q-43 19 -80 21q-35 0 -66 -25q-25 -22 -28 -61 q0 -38 20 -52q32 -19 152 -73q133 -56 186 -121q55 -61 55 -182q0 -161 -112 -261q-110 -93 -279 -96q-101 0 -194 43q-97 45 -160 125zM219 -344l201 303l188 -96l-237 -285z" />
<glyph unicode="&#x178;" horiz-adv-x="1202" d="M-33 1544h350l271 -536l295 536h352l-487 -835v-709h-302v709zM223 1935q0 68 47 115q49 49 117 49q66 0 115 -49q49 -46 49 -115q0 -67 -49 -116q-44 -44 -115 -47q-70 0 -117 47q-44 47 -47 116zM655 1935q0 68 47 115q49 49 117 49q66 0 115 -49q49 -46 49 -115 q0 -67 -49 -116q-44 -44 -115 -47q-70 0 -117 47q-44 47 -47 116z" />
<glyph unicode="&#x192;" d="M-8 -332l41 258l67 -4q74 0 121 21q49 19 76 71q25 48 47 136q6 24 11.5 52t12 66t11.5 64l88 553h-123l21 147h127l38 236q34 206 127 319q89 112 289 115q60 0 94 -10q42 -6 86 -33l-41 -248q-60 32 -120 35q-63 0 -99 -51q-32 -43 -57 -193l-29 -170h219l-20 -147 h-221l-96 -596q-36 -221 -84 -340q-50 -130 -160 -209q-112 -80 -312 -80z" />
<glyph unicode="&#x2c6;" horiz-adv-x="819" d="M61 1270l349 315l348 -315l-123 -135l-225 213l-226 -213z" />
<glyph unicode="&#x2c7;" horiz-adv-x="819" d="M43 1452l123 133l242 -213l243 213l123 -133l-366 -317z" />
<glyph unicode="&#x2d8;" horiz-adv-x="819" d="M55 1544h201q13 -68 51 -106q36 -36 103 -39q61 0 100 39q35 35 53 106h201q-12 -141 -113 -231q-97 -85 -241 -88q-141 0 -242 88q-98 84 -113 231z" />
<glyph unicode="&#x2d9;" horiz-adv-x="778" d="M225 1397q0 67 47 114q50 50 117 50q65 0 115 -50q49 -46 49 -114t-49 -117q-44 -44 -115 -47q-70 0 -117 47q-44 47 -47 117z" />
<glyph unicode="&#x2da;" horiz-adv-x="778" d="M184 1380q0 86 60 146q56 56 145 59q87 0 146 -59q56 -53 59 -146q0 -85 -62 -147q-56 -56 -143 -59q-86 0 -145 59q-57 57 -60 147zM305 1380q0 -35 23 -61q25 -25 61 -25q32 0 60 25q24 24 24 61q0 33 -24 60q-24 24 -60 24q-32 0 -59 -24q-25 -25 -25 -60z" />
<glyph unicode="&#x2db;" horiz-adv-x="778" d="M203 -285q0 71 43 138q41 57 108 106h144q-52 -34 -80 -76q-31 -45 -31 -92q0 -34 25 -65q20 -26 65 -29q54 0 98 33l-28 -154q-29 -18 -66 -29q-15 -4 -75 -8q-85 0 -144 47q-56 47 -59 129z" />
<glyph unicode="&#x2dc;" horiz-adv-x="819" d="M20 1237q6 104 66 195q58 87 158 90q39 0 63 -9q4 -2 18.5 -6.5t32 -11t35.5 -14.5q15 -6 45 -19.5t43 -17.5q24 -6 54 -10q39 0 55 16q18 25 41 70h170q-18 -121 -82 -203q-62 -86 -166 -86q-28 0 -49 6q-2 1 -29 11.5t-51 21.5l-92 39q-30 12 -56 12q-32 0 -57 -25 q-19 -23 -31 -59h-168z" />
<glyph unicode="&#x2dd;" horiz-adv-x="860" d="M10 1241l246 344l209 -127l-309 -307zM397 1241l246 344l209 -127l-309 -307z" />
<glyph unicode="&#x394;" horiz-adv-x="1253" d="M12 0l656 1409l577 -1409h-1233zM147 100h844l-397 959z" />
<glyph unicode="&#x3a9;" horiz-adv-x="1572" d="M70 0v332h30q18 -75 43 -103q22 -19 93 -22h323l-4 57q-133 40 -205 86q-67 41 -133 129q-55 81 -82 168q-24 85 -24 170q0 90 16 146q18 69 61 147q45 79 97 119q51 45 125 86q74 43 174 69q103 25 204 25q99 0 205 -25q100 -24 172 -67q92 -58 127 -86q47 -38 113 -152 q61 -110 61 -262q0 -85 -24 -170q-25 -84 -82 -164q-50 -73 -135 -133q-76 -47 -203 -86l-4 -57h323q61 0 91 24q24 24 45 101h30v-332h-604l33 311q91 39 141 76q46 34 84 121q37 88 51 160q12 74 15 155q0 130 -33 230q-30 107 -100 174q-64 67 -144 92q-74 24 -162 24 q-93 0 -163 -22q-71 -21 -140 -90q-62 -62 -100 -178q-32 -102 -35 -234q0 -164 45 -266q45 -105 90 -150q43 -43 156 -92l33 -311h-604z" />
<glyph unicode="&#x3bc;" horiz-adv-x="1095" d="M96 -537v1543h287v-545q0 -141 43 -199q38 -50 121 -53q73 0 119 55q42 54 45 197v545h286v-592q0 -444 -450 -447q-42 0 -72 10q-29 6 -92 52v-566h-287z" />
<glyph unicode="&#x3c0;" horiz-adv-x="1124" d="M20 692l37 105q23 51 54 92q27 44 79 78q49 30 115 30h764v-176h-258q-12 -120 -18 -237q-7 -133 -7 -244q0 -97 31 -133q42 -33 55 -41q15 -6 48 -10q32 0 67 24q32 23 45 68q2 12 3.5 26.5t2.5 22.5t4 12h43q0 -125 -47 -205q-50 -82 -84 -102q-38 -21 -61 -27 q-12 -4 -53 -8q-44 0 -74 23q-32 21 -57 59q-17 28 -41 82q-14 51 -19 92q-2 16 -2 53q0 43 -2 66q0 82 6 150l35 329h-231q-24 -278 -47 -444q-22 -168 -41 -250q-18 -84 -45 -119q-23 -29 -54 -39q-8 -3 -45 -8q-29 0 -65 25q-31 25 -37 51q-2 10 -2 22q0 13 -2 15 q0 30 16 59q13 19 43 53q7 8 24 30.5t29 37.5q33 44 41 98l60 469h-97q-40 0 -79 -20q-38 -18 -56 -45l-43 -64h-35z" />
<glyph unicode="&#x2000;" horiz-adv-x="1062" />
<glyph unicode="&#x2001;" horiz-adv-x="2124" />
<glyph unicode="&#x2002;" horiz-adv-x="1062" />
<glyph unicode="&#x2003;" horiz-adv-x="2124" />
<glyph unicode="&#x2004;" horiz-adv-x="708" />
<glyph unicode="&#x2005;" horiz-adv-x="531" />
<glyph unicode="&#x2006;" horiz-adv-x="354" />
<glyph unicode="&#x2007;" horiz-adv-x="354" />
<glyph unicode="&#x2008;" horiz-adv-x="265" />
<glyph unicode="&#x2009;" horiz-adv-x="424" />
<glyph unicode="&#x200a;" horiz-adv-x="118" />
<glyph unicode="&#x2010;" horiz-adv-x="675" d="M88 539v235h500v-235h-500z" />
<glyph unicode="&#x2011;" horiz-adv-x="675" d="M88 539v235h500v-235h-500z" />
<glyph unicode="&#x2012;" horiz-adv-x="675" d="M88 539v235h500v-235h-500z" />
<glyph unicode="&#x2013;" horiz-adv-x="1024" d="M0 539v235h1024v-235h-1024z" />
<glyph unicode="&#x2014;" horiz-adv-x="2048" d="M0 539v235h2048v-235h-2048z" />
<glyph unicode="&#x2018;" horiz-adv-x="606" d="M61 969l295 616l191 -22l-221 -623z" />
<glyph unicode="&#x2019;" horiz-adv-x="606" d="M61 963l224 622l262 -31l-295 -614z" />
<glyph unicode="&#x201a;" horiz-adv-x="606" d="M61 -303l224 622l262 -28l-295 -617z" />
<glyph unicode="&#x201c;" horiz-adv-x="999" d="M61 969l295 616l191 -22l-221 -623zM453 969l295 616l190 -22l-221 -623z" />
<glyph unicode="&#x201d;" horiz-adv-x="999" d="M61 963l224 622l262 -31l-295 -614zM453 963l223 622l262 -31l-295 -614z" />
<glyph unicode="&#x201e;" horiz-adv-x="999" d="M61 -303l224 622l262 -28l-295 -617zM453 -303l223 622l262 -28l-295 -617z" />
<glyph unicode="&#x2020;" horiz-adv-x="1181" d="M125 1008v237h332v492h268v-492h332v-237h-332v-1207h-268v1207h-332z" />
<glyph unicode="&#x2021;" horiz-adv-x="1181" d="M125 557v238h332v272h-332v238h332v432h268v-432h332v-238h-332v-272h332v-238h-332v-754h-268v754h-332z" />
<glyph unicode="&#x2022;" horiz-adv-x="1181" d="M205 772q0 159 110 275q109 109 275 112q162 0 274 -112q110 -110 113 -275q0 -157 -115 -272q-116 -110 -272 -113q-159 0 -273 111q-109 109 -112 274z" />
<glyph unicode="&#x2026;" horiz-adv-x="2048" d="M160 150q0 73 53 126q51 51 129 54q78 0 129 -51q50 -47 53 -129q0 -77 -53 -130q-52 -55 -129 -55q-76 0 -129 53q-50 50 -53 132zM842 143q0 74 53 127q51 51 129 54q77 0 129 -52q50 -47 53 -129q0 -76 -53 -129q-52 -55 -129 -55q-76 0 -129 53q-50 50 -53 131z M1524 143q0 74 53 127q51 51 129 54q77 0 129 -52q50 -47 53 -129q0 -76 -53 -129q-52 -55 -129 -55q-76 0 -129 53q-50 50 -53 131z" />
<glyph unicode="&#x202f;" horiz-adv-x="424" />
<glyph unicode="&#x2030;" horiz-adv-x="2457" d="M47 1219q0 154 105 262q104 104 262 104q157 0 262 -102q104 -101 104 -264q0 -156 -104 -263q-99 -99 -262 -102q-157 0 -262 102t-105 263zM250 1219q0 -78 45 -140q41 -56 119 -59q71 0 118 59q43 58 46 140q0 73 -46 137q-42 60 -118 63q-73 0 -119 -61 q-42 -56 -45 -139zM338 8l829 1589l140 -69l-828 -1591zM870 324q0 154 105 262q104 104 262 104q157 0 262 -102t105 -264q0 -155 -105 -263q-96 -99 -262 -102q-157 0 -262 102t-105 263zM1073 324q0 -78 45 -140q41 -56 119 -59q72 0 119 59q42 56 45 140q0 75 -45 137 q-42 60 -119 63q-73 0 -119 -61q-42 -56 -45 -139zM1679 324q0 154 105 262q104 104 262 104q157 0 262 -102t105 -264q0 -155 -105 -263q-96 -99 -262 -102q-157 0 -262 102t-105 263zM1882 324q0 -78 45 -140q41 -56 119 -59q72 0 119 59q42 56 45 140q0 75 -45 137 q-42 60 -119 63q-73 0 -119 -61q-42 -56 -45 -139z" />
<glyph unicode="&#x2039;" horiz-adv-x="520" d="M100 1790q0 68 47 115q49 49 117 49q66 0 115 -49q49 -46 49 -115q0 -68 -49 -117q-44 -44 -115 -47q-70 0 -117 47q-44 47 -47 117zM111 0v1544h301v-1544h-301z" />
<glyph unicode="&#x203a;" horiz-adv-x="518" d="M117 0v1006h286v-1006h-286z" />
<glyph unicode="&#x2044;" horiz-adv-x="1513" d="M37 766q0 343 207 582q205 234 547 237q196 0 358 -98q163 -95 252 -270l-266 -144q-48 104 -144 176q-92 67 -209 70q-205 0 -319 -170q-112 -168 -115 -383q0 -212 115 -377q115 -161 321 -164q141 0 246 105q104 104 107 245h-328v246h666v-39q0 -351 -181 -587 q-180 -233 -522 -236q-326 0 -532 238q-203 238 -203 569zM401 1985h201q13 -69 51 -107q36 -36 103 -39q61 0 100 39q34 34 53 107h201q-12 -142 -113 -232q-97 -85 -241 -88q-141 0 -242 88q-98 84 -113 232z" />
<glyph unicode="&#x205f;" horiz-adv-x="531" />
<glyph unicode="&#x20ac;" horiz-adv-x="1150" d="M31 496q0 219 125 381q125 158 342 161q76 0 145 -34t115 -95l4 97h287v-945q0 -272 -113 -434q-109 -161 -375 -164q-197 0 -354 115q-154 112 -154 303h303q9 -78 64 -127t135 -49q130 0 170 88q37 84 37 242v65q-103 -130 -279 -133q-208 0 -331 156 q-118 151 -121 373zM184 1440h201q13 -69 51 -107q36 -36 103 -39q61 0 100 39q34 34 53 107h201q-12 -142 -113 -232q-97 -85 -241 -88q-141 0 -242 88q-98 84 -113 232zM322 502q0 -109 65 -195q68 -86 172 -86q106 0 172 84q63 85 66 197q0 107 -66 194q-67 85 -172 88 q-105 0 -172 -88q-62 -83 -65 -194z" />
<glyph unicode="&#x2122;" horiz-adv-x="2048" d="M86 1391v153h696v-153h-260v-709h-176v709h-260zM940 682v862h305l201 -563l213 563h303v-862h-176v686l-254 -686h-170l-242 686l-4 -686h-176z" />
<glyph unicode="&#x2202;" horiz-adv-x="1011" d="M53 362q0 106 33 179q38 84 86 143q50 61 121 102q67 37 166 37q88 0 139 -26q55 -25 168 -113q19 108 22 238q0 74 -22 168q-17 98 -45 161q-23 61 -84 119q-57 57 -143 60h-17q-12 0 -18 2q-23 0 -29 2q-61 0 -119 -25l-98 -43l-80 102q45 19 125 41q78 19 148 19 q43 0 124 -19q75 -18 162 -82q93 -68 142 -163q42 -71 84 -224q25 -113 28 -235q0 -95 -26 -258q-25 -173 -78 -273q-46 -105 -92 -168q-42 -54 -105 -92q-76 -35 -113 -45q-50 -12 -94 -12q-120 0 -200 57q-74 51 -134 129q-49 70 -49 176v17q0 16 -2 26zM229 303 q0 -85 17 -145q18 -69 69 -105q50 -32 101 -35q32 0 108 31q71 27 121 148q51 124 70 209q8 37 19.5 110.5t15.5 95.5q-56 64 -103 99q-37 29 -119 32q-114 0 -184 -94q-69 -96 -92 -176q-20 -79 -23 -170z" />
<glyph unicode="&#x220f;" horiz-adv-x="1685" d="M51 -160q108 0 152 33q44 26 47 133v1282q0 121 -62 162q-59 38 -133 41v47h1583v-47q-98 0 -145 -53q-44 -50 -47 -150v-1282q0 -98 47 -133q47 -30 152 -33v-47h-627v47q105 0 149 33q44 26 47 133v1419h-733v-1419q0 -98 47 -133q47 -30 152 -33v-47h-629v47z" />
<glyph unicode="&#x2211;" horiz-adv-x="1460" d="M29 -205l714 815l-710 930q32 0 100 -8q74 -6 113 -6h1018l12 -326h-41q-41 130 -90 182q-46 49 -223 52h-539l559 -734l-602 -694h760q117 0 168 45q50 44 108 187h47q-44 -184 -55 -238q-12 -68 -33 -221q-87 15 -92 16q-37 6 -65 6h-1031z" />
<glyph unicode="&#x221a;" horiz-adv-x="1124" d="M20 922l299 147l404 -825l260 1634l72 -10l-307 -1946l-498 1028l-197 -96z" />
<glyph unicode="&#x221e;" horiz-adv-x="1460" d="M53 547v24q9 104 92 181q81 72 195 75q66 0 145 -36q79 -33 246 -183l129 111q47 39 135 82l54 18q17 4 73 8q113 0 199 -77q85 -76 88 -185v-18q0 -109 -80 -201q-78 -87 -196 -90h-25q-129 12 -248 100l-129 117l-129 -125q-118 -92 -258 -92h-16q-119 0 -197 90 q-75 87 -78 201zM156 530q0 -78 57 -129q55 -49 137 -49q22 0 80 15q54 11 94 43q41 32 140 131q-61 53 -144 112q-47 33 -100 54q-45 12 -80 14q-83 0 -135 -64q-49 -61 -49 -127zM799 541q29 -28 72.5 -68t58.5 -55q46 -36 139 -60q21 -6 45 -6q77 0 135 49q55 52 58 129 q0 71 -52 129q-50 62 -133 62q-46 0 -84 -16q-42 -16 -96 -52q-48 -29 -143 -112z" />
<glyph unicode="&#x222b;" horiz-adv-x="561" d="M4 -96q0 47 37 71q40 19 53 19q23 0 41 -12q23 -17 37 -33q18 -18 33 -21q24 0 39 68q11 59 14 156q0 108 -6 311q-6 199 -6 332v295q0 274 10 389q9 129 31 207q19 64 49 112q21 35 53 60q27 18 68 18q28 0 49 -6q22 -7 41 -21q18 -9 35 -39q12 -27 14 -51 q0 -28 -27 -55q-25 -31 -80 -31q-34 0 -51 17q-15 18 -30 24q-12 6 -21 6q-37 0 -37 -45l27 -368q12 -175 12 -308l-2 -442q0 -219 -20 -356q-18 -137 -43 -217q-18 -73 -37 -105q-12 -26 -29 -47q-11 -18 -61 -35q-39 -13 -70 -16q-30 0 -51 12q-18 9 -39 33q-20 24 -27 43 q-6 18 -6 35z" />
<glyph unicode="&#x2248;" horiz-adv-x="1124" d="M29 332q123 159 297 162q52 0 102 -15l309 -86q6 -2 51 -8q50 0 93 18q34 14 75 46q8 6 15.5 12.5t11.5 11.5t11 13t10 12l75 -49q-40 -73 -125 -121q-72 -38 -161 -41q-31 0 -37 2q-17 0 -41 8l-307 88q-45 11 -93 14q-92 0 -157 -71q-28 -43 -41 -52zM29 641 q123 159 297 162q52 0 102 -15l309 -86q6 -2 51 -8q47 0 93 19q37 15 75 45q8 6 15.5 12.5t11.5 11.5t11 13t10 12l75 -49q-40 -73 -125 -121q-72 -38 -161 -41q-31 0 -37 2q-17 0 -41 8l-307 88q-51 12 -93 15q-91 0 -157 -72q-27 -42 -41 -51z" />
<glyph unicode="&#x2260;" horiz-adv-x="1124" d="M31 279v112h385l157 285h-542v112h606l186 336l101 -57l-156 -279h338v-112h-399l-160 -285h559v-112h-621l-184 -330l-100 57l151 273h-321z" />
<glyph unicode="&#x2264;" horiz-adv-x="1124" d="M59 0v113h1018v-113h-1018zM59 711v127l1018 471v-127l-887 -408l887 -407v-127z" />
<glyph unicode="&#x2265;" horiz-adv-x="1124" d="M59 0v113h1018v-113h-1018zM59 240v127l887 407l-887 408v127l1018 -471v-127z" />
<glyph unicode="&#x25ca;" horiz-adv-x="894" d="M29 504v280l149 111v649h301v-471l215 170v-285l-215 -161v-535h432v-262h-733v625z" />
<glyph unicode="&#x25fc;" horiz-adv-x="1003" d="M0 0v1004h1004v-1004h-1004z" />
<glyph unicode="&#xfb01;" horiz-adv-x="1077" d="M47 260l195 191q30 -94 108 -160q72 -63 170 -66q89 0 144 64t55 160q0 81 -49 133q-45 48 -217 118q-169 68 -258 162q-86 92 -89 260q0 195 127 328q129 135 324 135q104 0 229 -49q124 -48 193 -123l-141 -209q-40 57 -103 94q-59 30 -129 33q-76 0 -133 -51 q-55 -49 -55 -123q0 -102 205 -196q187 -83 305 -173q99 -77 102 -301q0 -234 -137 -383q-133 -142 -371 -145q-148 0 -272 80q-117 80 -203 221zM344 -344l201 303l188 -96l-237 -285z" />
<glyph unicode="&#xfb02;" horiz-adv-x="839" d="M41 135l131 170q55 -62 100 -86q51 -31 113 -31q50 0 82 29q30 30 33 80q0 42 -29 65q-24 24 -160 80q-131 55 -174 119q-36 56 -39 152q0 145 88 233q89 92 232 92q91 0 176 -26q86 -23 147 -78l-123 -166q-36 36 -71 49q-43 19 -80 21q-35 0 -66 -25q-25 -22 -28 -61 q0 -38 20 -52q32 -19 152 -73q133 -56 186 -121q55 -61 55 -182q0 -161 -112 -261q-110 -93 -279 -96q-101 0 -194 43q-97 45 -160 125zM219 -344l201 303l188 -96l-237 -285z" />
<glyph horiz-adv-x="1024" />
<glyph horiz-adv-x="1077" d="M47 260l195 191q30 -94 108 -160q72 -63 170 -66q89 0 144 64t55 160q0 81 -49 133q-45 48 -217 118q-169 68 -258 162q-86 92 -89 260q0 195 127 328q129 135 324 135q104 0 229 -49q124 -48 193 -123l-141 -209q-40 57 -103 94q-59 30 -129 33q-76 0 -133 -51 q-55 -49 -55 -123q0 -102 205 -196q187 -83 305 -173q99 -77 102 -301q0 -234 -137 -383q-133 -142 -371 -145q-148 0 -272 80q-117 80 -203 221zM172 1991l123 133l242 -213l243 213l123 -133l-366 -318z" />
</font>
</defs>
</svg>
