<?xml version="1.0" standalone="no"?>
<!DOCTYPE svg PUBLIC "-//W3C//DTD SVG 1.1//EN" "http://www.w3.org/Graphics/SVG/1.1/DTD/svg11.dtd" >
<svg xmlns="http://www.w3.org/2000/svg">
<metadata></metadata>
<defs>
<font id="futura_normal_trnormal" horiz-adv-x="1183" >
<font-face units-per-em="2048" ascent="1638" descent="-410" />
<missing-glyph horiz-adv-x="591" />
<glyph unicode="fi" horiz-adv-x="1083" d="M80 786v172h84v467q0 377 309 377q67 0 129 -24v-187q-7 3 -23.5 10t-26 11t-23.5 9t-26.5 7t-23.5 2q-31 0 -55 -12t-37.5 -36t-22 -46.5t-12 -58t-4 -55t-0.5 -52.5v-412h254v-172h-254v-786h-184v786h-84zM696 1397q0 54 36.5 91.5t90.5 37.5t90.5 -37.5t36.5 -91.5 t-36.5 -89.5t-90.5 -35.5t-90.5 35.5t-36.5 89.5zM731 0v958h184v-958h-184z" />
<glyph unicode="fl" horiz-adv-x="1017" d="M80 786v172h84v467q0 377 309 377q67 0 129 -24v-187q-7 3 -23.5 10t-26 11t-23.5 9t-26.5 7t-23.5 2q-31 0 -55 -12t-37.5 -36t-22 -46.5t-12 -58t-4 -55t-0.5 -52.5v-412h254v-172h-254v-786h-184v786h-84zM698 0v1778h185v-1778h-185z" />
<glyph unicode=" "  horiz-adv-x="591" />
<glyph unicode="&#x09;" horiz-adv-x="591" />
<glyph unicode="&#xa0;" horiz-adv-x="591" />
<glyph unicode="!" horiz-adv-x="657" d="M211 86q0 48 35 83.5t84 35.5t84 -35.5t35 -83.5q0 -50 -34.5 -84.5t-84.5 -34.5t-84.5 34.5t-34.5 84.5zM238 356v1188h184v-1188h-184z" />
<glyph unicode="&#x22;" horiz-adv-x="899" d="M184 1544h201l-37 -672h-127zM514 1544h201l-37 -672h-127z" />
<glyph unicode="#" d="M51 430v164h236l55 315h-215v164h244l73 397h158l-74 -397h254l72 397h162l-72 -397h189v-164h-220l-55 -315h207v-164h-240l-77 -430h-156l76 430h-252l-82 -430h-154l76 430h-205zM446 594h252l56 315h-252z" />
<glyph unicode="$" d="M102 397l185 39q27 -134 94 -203t199 -86v615l-74 37q-69 35 -115.5 66t-91 75.5t-66.5 102.5t-22 131q0 154 108 272.5t261 130.5v184h102v-184q234 -21 350 -238l-162 -92q-32 60 -76.5 95.5t-111.5 56.5v-481q85 -35 151 -76t125 -97.5t91 -132.5t32 -166 q0 -169 -117.5 -311.5t-281.5 -167.5v-194h-102v194q-180 4 -314 127t-164 303zM389 1188q0 -83 50.5 -133t140.5 -88v432q-81 -12 -136 -71.5t-55 -139.5zM682 160q92 20 153.5 100t61.5 178q0 96 -57.5 161t-157.5 116v-555z" />
<glyph unicode="%" horiz-adv-x="1449" d="M35 1225q0 147 105.5 249.5t254.5 102.5t255 -102.5t106 -249.5q0 -145 -108.5 -248t-252.5 -103t-252 103t-108 248zM158 1225q0 -92 71.5 -160t165.5 -68t166 68t72 160q0 93 -71.5 161t-166.5 68t-166 -68t-71 -161zM227 18l903 1559l93 -53l-901 -1557zM696 317 q0 147 106 250t255 103q148 0 254 -103t106 -250q0 -145 -108 -247.5t-252 -102.5t-252.5 103t-108.5 247zM819 317q0 -92 72 -159.5t166 -67.5t165.5 67.5t71.5 159.5q0 93 -71.5 161.5t-165.5 68.5t-166 -68.5t-72 -161.5z" />
<glyph unicode="&#x26;" horiz-adv-x="1417" d="M109 422q0 70 20 130t61 110t83.5 87t105.5 82l96 70q-170 178 -170 338q0 156 100.5 247t256.5 91q149 0 252.5 -87.5t103.5 -234.5q0 -50 -18 -98.5t-43 -85t-66.5 -76.5t-74 -65.5t-79.5 -59.5l322 -389l180 209l123 -127l-188 -221l276 -342h-238l-168 209 q-93 -110 -212 -176t-250 -66q-127 0 -235 57.5t-173 162.5t-65 235zM289 424q0 -110 88.5 -197.5t197.5 -87.5q51 0 100.5 17t97 51t80 63t77.5 74l-342 418l-19 -12q-121 -83 -167 -124q-113 -102 -113 -202zM485 1262q0 -37 15.5 -74.5t31 -59t46.5 -59.5l51 -65l24 16 q10 8 40 30.5t43.5 33.5t37 33.5t34.5 41t20.5 44.5t9.5 54q0 80 -50.5 124t-130.5 44q-71 0 -121.5 -45.5t-50.5 -117.5z" />
<glyph unicode="'" horiz-adv-x="567" d="M184 1544h201l-37 -672h-127z" />
<glyph unicode="(" horiz-adv-x="598" d="M117 631q0 270 52.5 544t160.5 482l151 -113q-92 -187 -134 -427t-42 -486t42 -486.5t134 -427.5l-151 -112q-107 207 -160 483.5t-53 542.5z" />
<glyph unicode=")" horiz-adv-x="598" d="M117 -283q92 187 134 427.5t42 486.5t-42 486t-134 427l151 113q108 -208 160.5 -482t52.5 -544q0 -266 -53 -542.5t-160 -483.5z" />
<glyph unicode="*" horiz-adv-x="884" d="M129 1124l174 101l-172 102l64 117l182 -101v201h141v-194l166 98l72 -121l-174 -102l174 -103l-72 -118l-166 102v-197h-141v199l-178 -100z" />
<glyph unicode="+" d="M68 436v176h436v437h176v-437h436v-176h-436v-436h-176v436h-436z" />
<glyph unicode="," horiz-adv-x="591" d="M111 -319l225 563l160 -64l-273 -547z" />
<glyph unicode="-" horiz-adv-x="679" d="M117 580v153h448v-153h-448z" />
<glyph unicode="." horiz-adv-x="591" d="M178 86q0 48 35 83.5t84 35.5t84 -35.5t35 -83.5q0 -50 -35 -84.5t-84 -34.5t-84 34.5t-35 84.5z" />
<glyph unicode="/" horiz-adv-x="1128" d="M66 -193l852 1971l147 -66l-854 -1970z" />
<glyph unicode="0" d="M53 772q0 83 12.5 170t38 179t69.5 172.5t101.5 144.5t139.5 101.5t178 37.5q83 0 155.5 -28t126 -76t97.5 -113t73 -137.5t49 -152t28.5 -154t8.5 -144.5q0 -82 -12.5 -169.5t-38.5 -179t-69.5 -172.5t-101 -145t-139 -101.5t-177.5 -37.5t-177.5 37.5t-139 101.5 t-101.5 145t-70 172.5t-38.5 179t-12.5 169.5zM238 774q0 -70 10 -148.5t35.5 -167t64 -158t102 -115.5t142.5 -46t142.5 46t102 115.5t64 158t35.5 167t10 148.5t-10 148.5t-35.5 168t-64 159.5t-102 116.5t-142.5 46.5t-142.5 -46.5t-102 -116.5t-64 -159.5t-35.5 -168 t-10 -148.5z" />
<glyph unicode="1" d="M252 1368l106 176h347v-1544h-185v1368h-268z" />
<glyph unicode="2" d="M92 0l676 829q137 165 137 277q0 120 -91 207.5t-212 87.5q-118 0 -203.5 -82.5t-93.5 -200.5h-192q25 210 153 334.5t336 124.5q130 0 242 -59t179 -166t67 -238q0 -176 -115 -317l-508 -621h623v-176h-998z" />
<glyph unicode="3" d="M109 381h186q12 -110 99 -178t200 -68q128 0 211.5 87t83.5 216q0 146 -91.5 228.5t-234.5 70.5v160q65 0 118 13t95.5 41t66 77t23.5 117q0 116 -76 190t-192 74q-103 0 -170.5 -60t-85.5 -161h-190q29 192 144.5 290.5t307.5 98.5q190 0 318.5 -114t128.5 -302 q0 -237 -197 -348q111 -52 165 -152t54 -231q0 -212 -139.5 -337.5t-353.5 -125.5q-120 0 -225 49.5t-173 145.5t-73 219z" />
<glyph unicode="4" d="M14 225l947 1385v-1217h176v-168h-176v-225h-185v225h-762zM338 393h438v637h-4z" />
<glyph unicode="5" d="M61 238l144 135q36 -97 136.5 -163.5t205.5 -66.5q156 0 264.5 111.5t108.5 267.5q0 148 -110 257.5t-259 109.5q-83 0 -161 -36t-128 -101h-37l238 792h618v-176h-485l-96 -317l108 6q109 0 203 -44t157.5 -118.5t99.5 -173t36 -205.5q0 -159 -77 -285.5t-207 -195 t-288 -68.5q-146 0 -274.5 73t-196.5 198z" />
<glyph unicode="6" d="M82 461q0 107 44 202t124 205l526 709l139 -94l-411 -557l4 -4q74 36 151 36q123 0 227 -69.5t162 -180t58 -233.5q0 -139 -68.5 -256t-186 -184.5t-255.5 -67.5q-132 0 -250.5 66t-191 181t-72.5 247zM266 465q0 -133 98.5 -229.5t229.5 -96.5q130 0 229 94.5t99 221.5 q0 140 -99.5 235.5t-228.5 95.5q-127 0 -227.5 -97t-100.5 -224z" />
<glyph unicode="7" d="M96 59l799 1309h-799v176h1112l-962 -1577z" />
<glyph unicode="8" d="M109 430q0 129 63 230t180 141q-98 54 -150 142.5t-52 203.5q0 187 127.5 308.5t314.5 121.5t314.5 -121.5t127.5 -308.5q0 -114 -52.5 -202.5t-150.5 -143.5q117 -40 180.5 -141t63.5 -230q0 -139 -66.5 -246t-175.5 -162t-241 -55t-241 55t-175.5 162t-66.5 246z M293 430q0 -116 92 -203.5t207 -87.5t207 87.5t92 203.5q0 121 -90 206t-209 85t-209 -85t-90 -206zM330 1147q0 -94 82.5 -178t179.5 -84t179.5 84t82.5 178q0 109 -78.5 187.5t-183.5 78.5t-183.5 -78.5t-78.5 -187.5z" />
<glyph unicode="9" d="M106 1069q0 139 68.5 256t186 184.5t255.5 67.5q132 0 250.5 -66t191 -181t72.5 -247q0 -107 -43.5 -202.5t-123.5 -204.5l-527 -709l-139 96l412 555l-4 5q-59 -29 -150 -29q-124 0 -228.5 67.5t-162.5 176.5t-58 231zM291 1081q0 -135 101 -229t226 -94q144 0 236 95.5 t92 227.5q0 125 -94.5 224.5t-220.5 99.5q-138 0 -239 -96t-101 -228z" />
<glyph unicode=":" horiz-adv-x="591" d="M178 86q0 48 35 83.5t84 35.5t84 -35.5t35 -83.5q0 -50 -35 -84.5t-84 -34.5t-84 34.5t-35 84.5zM178 868q0 48 35 83.5t84 35.5t84 -35.5t35 -83.5q0 -49 -34.5 -83.5t-84.5 -34.5t-84.5 34.5t-34.5 83.5z" />
<glyph unicode=";" horiz-adv-x="591" d="M94 -319l225 563l160 -64l-272 -547zM274 868q0 48 35 83.5t84 35.5t84 -35.5t35 -83.5q0 -49 -34.5 -83.5t-84.5 -34.5t-84.5 34.5t-34.5 83.5z" />
<glyph unicode="&#x3c;" d="M68 453v143l1048 424v-193l-786 -303l786 -303v-192z" />
<glyph unicode="=" d="M68 260v176h1048v-176h-1048zM68 610v176h1048v-176h-1048z" />
<glyph unicode="&#x3e;" d="M68 29v192l786 303l-786 303v193l1048 -424v-143z" />
<glyph unicode="?" horiz-adv-x="927" d="M104 1229q-7 146 105 247t262 101q156 0 262.5 -104t106.5 -259q0 -73 -29 -139.5t-82 -113.5q-32 -27 -80.5 -51t-79.5 -34.5t-94 -29.5q-68 -21 -108.5 -55t-40.5 -95q0 -62 41 -104.5t102 -42.5q65 0 106 45.5t39 112.5h187q7 -131 -96 -230.5t-236 -99.5 q-137 0 -233.5 95.5t-96.5 232.5q0 57 15.5 102.5t37 74t60 54t67.5 39t78 31.5q16 6 46.5 17.5t46.5 17.5t42 18t40.5 21.5t32 25t26.5 31.5t15.5 37.5t6.5 46.5q0 85 -52 133.5t-136 48.5q-72 0 -124 -52t-52 -124q0 -20 12 -66h-192zM350 86q0 48 35 83.5t84 35.5 t84 -35.5t35 -83.5q0 -50 -35 -84.5t-84 -34.5t-84 34.5t-35 84.5z" />
<glyph unicode="@" horiz-adv-x="1638" d="M74 772q0 169 61.5 319t166 256t249 168t305.5 62q283 0 481 -178q230 -204 230 -471q0 -129 -33 -242t-94 -192q-70 -94 -154 -139t-162 -40q-88 3 -110 127q-127 -127 -279 -127q-137 0 -240.5 111.5t-103.5 267.5q0 125 50.5 236t148 181.5t219.5 70.5q80 0 146 -34 t126 -112l29 127h145l-102 -526q-16 -70 -16 -115q0 -61 45 -61q46 0 97.5 55t87.5 148t36 190q0 168 -73 296.5t-198 195.5t-282 67q-169 0 -310 -86t-221.5 -233t-80.5 -322q0 -138 52 -258.5t140 -204t206.5 -131t248.5 -47.5q262 0 381 98l153 -123 q-65 -34 -111.5 -54.5t-114.5 -42.5t-148 -32t-177 -10q-163 0 -309.5 61t-253 166.5t-169 256t-62.5 321.5zM551 709q0 -95 57 -164.5t148 -69.5q125 0 193 82.5t81 204.5q17 122 -41.5 191t-167.5 69q-118 0 -194 -96.5t-76 -216.5z" />
<glyph unicode="A" horiz-adv-x="1439" d="M-16 0l737 1610l737 -1610h-207l-176 387h-708l-177 -387h-206zM446 563h549l-274 625z" />
<glyph unicode="B" horiz-adv-x="1095" d="M131 0v1544h188q94 0 171.5 -10.5t153 -39t127 -74.5t83 -122.5t31.5 -177.5q0 -90 -45.5 -173.5t-120.5 -119.5v-4q134 -24 221.5 -138.5t87.5 -252.5q0 -90 -30 -164t-80.5 -123t-119.5 -82t-145.5 -48t-160.5 -15h-361zM324 172h147q73 0 133 12t115 40.5t86 84.5 t31 135q0 63 -25 111t-63.5 76.5t-93 46t-105 23.5t-107.5 6h-118v-535zM324 860h49q59 0 104 5.5t90 22t73.5 44t46.5 75t18 111.5q0 63 -17.5 109.5t-45.5 74t-72 43.5t-89 21.5t-104 5.5h-53v-512z" />
<glyph unicode="C" horiz-adv-x="1353" d="M61 764q0 169 65 320t175.5 259t262.5 171t319 63q220 0 389 -104v-224q-84 73 -190.5 112.5t-217.5 39.5q-169 0 -309.5 -85.5t-220.5 -230.5t-80 -315q0 -167 79 -311t219 -230t308 -86q235 0 412 160v-227q-183 -109 -406 -109q-163 0 -311.5 62t-257 167.5 t-172.5 254t-64 313.5z" />
<glyph unicode="D" horiz-adv-x="1361" d="M131 0v1544h320q180 0 335 -48t274.5 -140.5t188 -240.5t68.5 -335q0 -154 -44 -282.5t-123 -219.5t-188.5 -154.5t-239.5 -93.5t-278 -30h-313zM324 176h67q123 0 228 18.5t199.5 62t161 110.5t105.5 170t39 235t-39 235t-105.5 170t-161 110.5t-199.5 62t-228 18.5h-67 v-1192z" />
<glyph unicode="E" horiz-adv-x="1067" d="M147 0v1544h830v-176h-637v-432h618v-176h-618v-584h637v-176h-830z" />
<glyph unicode="F" horiz-adv-x="970" d="M145 0v1544h748v-176h-555v-434h536v-176h-536v-758h-193z" />
<glyph unicode="G" horiz-adv-x="1597" d="M43 768q0 219 107 405t291.5 295t402.5 109q181 0 347.5 -78.5t281.5 -220.5l-136 -129q-82 115 -213.5 183.5t-271.5 68.5q-127 0 -241 -49.5t-196 -133.5t-130.5 -200t-48.5 -244q0 -119 47.5 -234t127 -202.5t191.5 -141t234 -53.5q88 0 178 36.5t161.5 97t117.5 147 t48 178.5h-399v176h612v-61q0 -157 -54 -295.5t-149 -238.5t-232 -158t-296 -58q-211 0 -391.5 110.5t-284.5 295t-104 395.5z" />
<glyph unicode="H" horiz-adv-x="1382" d="M131 0v1544h193v-622h735v622h192v-1544h-192v741h-735v-741h-193z" />
<glyph unicode="I" horiz-adv-x="475" d="M141 0v1544h193v-1544h-193z" />
<glyph unicode="J" horiz-adv-x="741" d="M-39 35l96 164q67 -52 154 -52q35 0 64.5 9.5t50.5 23t37.5 38.5t27.5 46.5t18 55.5t11 57.5t6 62.5t2 58.5v56.5v8v981h193v-981q0 -69 -4 -127t-16 -120.5t-31 -112t-51.5 -95t-75 -75.5t-104 -48t-136.5 -18q-132 0 -242 68z" />
<glyph unicode="K" horiz-adv-x="1228" d="M147 0v1544h193v-670l655 670h252l-694 -694l707 -850h-261l-581 719l-78 -74v-645h-193z" />
<glyph unicode="L" horiz-adv-x="788" d="M147 0v1544h193v-1368h469v-176h-662z" />
<glyph unicode="M" horiz-adv-x="1742" d="M27 0l315 1610l530 -1217l531 1217l315 -1610h-198l-181 1020h-4l-463 -1053l-462 1053h-4l-181 -1020h-198z" />
<glyph unicode="N" horiz-adv-x="1607" d="M129 0v1618l1159 -1215v1141h193v-1607l-1159 1214v-1151h-193z" />
<glyph unicode="O" horiz-adv-x="1695" d="M39 772q0 130 41.5 253t116.5 222t174.5 173.5t223 115.5t253.5 41t253.5 -41t223 -115.5t174.5 -173.5t116.5 -222t41.5 -253q0 -169 -63.5 -319t-172 -256t-258 -168t-315.5 -62t-315.5 62t-258 168t-172 256t-63.5 319zM231 772q0 -129 49.5 -245.5t133 -199.5 t197.5 -131.5t237 -48.5q165 0 306.5 82t225.5 226.5t84 316.5q0 168 -77.5 311t-220 228.5t-318.5 85.5q-133 0 -249 -50.5t-196 -135.5t-126 -199t-46 -240z" />
<glyph unicode="P" horiz-adv-x="1013" d="M147 0v1544h222q141 0 247 -19.5t177 -55t115.5 -91.5t63.5 -124t19 -156q0 -95 -28 -171.5t-77 -128t-118 -86t-147.5 -50t-169.5 -15.5h-111v-647h-193zM340 819h61q67 0 120 5.5t109.5 23.5t94 48t62 82.5t24.5 123.5q0 50 -13.5 91t-36 68.5t-56.5 48t-68.5 32.5 t-79.5 19t-82.5 9t-83.5 2h-51v-553z" />
<glyph unicode="Q" horiz-adv-x="1695" d="M39 772q0 130 41.5 253t116.5 222t174.5 173.5t223 115.5t253.5 41t253.5 -41t223 -115.5t174.5 -173.5t116.5 -222t41.5 -253q0 -165 -63 -312.5t-179 -256.5l240 -236h-234l-133 137q-96 -65 -212.5 -101t-227.5 -36q-166 0 -315.5 62t-258 168t-172 256t-63.5 319z M231 772q0 -129 49.5 -245.5t133 -199.5t197.5 -131.5t237 -48.5q162 0 307 89l-354 346h239l244 -242q86 79 133 197t47 235q0 168 -77.5 311t-220 228.5t-318.5 85.5q-133 0 -249 -50.5t-196 -135.5t-126 -199t-46 -240z" />
<glyph unicode="R" horiz-adv-x="1112" d="M147 0v1544h234q71 0 108 -1t98 -7t109.5 -21.5t91.5 -41.5q96 -56 149.5 -156t53.5 -213q0 -168 -102.5 -290t-267.5 -142l487 -672h-234l-454 653h-80v-653h-193zM340 813h61q67 0 120 5.5t109.5 23.5t94 48t62 82.5t24.5 123.5q0 70 -26.5 121.5t-66 80.5t-98.5 46.5 t-111.5 22.5t-117.5 5h-51v-559z" />
<glyph unicode="S" horiz-adv-x="1099" d="M66 399l194 41q0 -128 86 -210.5t213 -82.5q121 0 203 89t82 213q0 59 -21.5 106t-63 81.5t-82.5 57.5t-99 47l-107 45q-75 33 -128.5 65.5t-104 79t-77 108.5t-26.5 139q0 121 65 213.5t167.5 139t222.5 46.5q129 0 231.5 -60.5t165.5 -173.5l-153 -92q-44 74 -103 110 t-145 36q-98 0 -178 -61.5t-80 -157.5q0 -139 215 -222l110 -43q89 -36 153.5 -74.5t119 -93t82.5 -128.5t28 -168q0 -209 -141 -345.5t-352 -136.5q-186 0 -319 122t-158 310z" />
<glyph unicode="T" horiz-adv-x="933" d="M4 1368v176h926v-176h-367v-1368h-192v1368h-367z" />
<glyph unicode="U" horiz-adv-x="1370" d="M121 567v977h192v-911q0 -486 373 -486t373 486v911h192v-977q0 -170 -67 -305t-196.5 -215t-301.5 -80t-301.5 80t-196.5 215t-67 305z" />
<glyph unicode="V" horiz-adv-x="1310" d="M-14 1544h211l460 -1143l459 1143h211l-670 -1626z" />
<glyph unicode="W" horiz-adv-x="2103" d="M-25 1544h209l432 -1106l437 1139l436 -1139l432 1106h209l-641 -1605l-436 1132l-437 -1132z" />
<glyph unicode="X" horiz-adv-x="1175" d="M0 0l485 809l-426 735h220l315 -563l336 563h219l-444 -735l469 -809h-216l-364 633l-379 -633h-215z" />
<glyph unicode="Y" horiz-adv-x="1173" d="M-12 1544h221l379 -659l379 659h221l-504 -872v-672h-192v672z" />
<glyph unicode="Z" horiz-adv-x="1130" d="M18 0l783 1368h-672v176h985l-782 -1368h782v-176h-1096z" />
<glyph unicode="[" horiz-adv-x="636" d="M125 -395v2052h389v-172h-201v-1708h201v-172h-389z" />
<glyph unicode="\" horiz-adv-x="1128" d="M63 1778h173l827 -1778h-172z" />
<glyph unicode="]" horiz-adv-x="636" d="M123 -223h201v1708h-201v172h389v-2052h-389v172z" />
<glyph unicode="^" d="M68 631l409 913h230l409 -913h-192l-332 741l-334 -741h-190z" />
<glyph unicode="_" horiz-adv-x="1024" d="M0 -231h1024v-154h-1024v154z" />
<glyph unicode="`" horiz-adv-x="737" d="M156 1413l170 90l256 -340l-90 -55z" />
<glyph unicode="a" horiz-adv-x="1138" d="M53 485q0 132 54 245.5t159 185t240 71.5q103 0 188 -49.5t144 -138.5h4v159h184v-958h-184v150h-4q-58 -85 -141.5 -134t-184.5 -49q-141 0 -247.5 73t-159 189.5t-52.5 255.5zM238 479q0 -92 34 -170t104.5 -128t164.5 -50q145 0 228 100t83 248q0 146 -83.5 245 t-227.5 99q-137 0 -220 -102t-83 -242z" />
<glyph unicode="b" horiz-adv-x="1138" d="M113 0v1778h184v-979h4q124 188 334 188q133 0 237.5 -71t158.5 -185t54 -246q0 -140 -51.5 -256t-157.5 -189t-249 -73q-100 0 -184.5 49t-141.5 134h-4v-150h-184zM287 479q0 -92 34 -170t104.5 -128t164.5 -50q145 0 228 100t83 248q0 146 -83.5 245t-227.5 99 q-137 0 -220 -102t-83 -242z" />
<glyph unicode="c" horiz-adv-x="903" d="M53 471q0 221 152 368.5t373 147.5q145 0 253 -63v-238q-114 129 -274 129q-133 0 -226 -101t-93 -235q0 -148 92.5 -244t238.5 -96q148 0 262 127v-235q-114 -64 -264 -64q-140 0 -258 66t-187 182t-69 256z" />
<glyph unicode="d" horiz-adv-x="1138" d="M53 485q0 98 32 189t89.5 160.5t143 111t186.5 41.5q210 0 334 -188h4v979h184v-1778h-184v150h-4q-57 -85 -141.5 -134t-184.5 -49q-141 0 -247.5 73t-159 189.5t-52.5 255.5zM238 479q0 -92 34 -170t104.5 -128t164.5 -50q145 0 228 100t83 248q0 146 -83.5 245 t-227.5 99q-137 0 -220 -102t-83 -242z" />
<glyph unicode="e" horiz-adv-x="999" d="M53 471q0 230 121.5 373t345.5 143q147 0 250 -69t151 -182t48 -259v-28h-731q0 -128 81 -223t207 -95q99 0 163.5 45.5t123.5 140.5l156 -88q-67 -124 -185 -193t-260 -69q-215 0 -343 142.5t-128 361.5zM248 588h536q-18 111 -87 175t-177 64q-107 0 -180.5 -66.5 t-91.5 -172.5z" />
<glyph unicode="f" horiz-adv-x="563" d="M80 786v172h84v467q0 377 309 377q67 0 129 -24v-187q-7 3 -23.5 10t-26 11t-23.5 9t-26.5 7t-23.5 2q-31 0 -55 -12t-37.5 -36t-22 -46.5t-12 -58t-4 -55t-0.5 -52.5v-412h254v-172h-254v-786h-184v786h-84z" />
<glyph unicode="g" horiz-adv-x="1136" d="M51 485q0 98 32 189t89.5 160.5t143 111t186.5 41.5q213 0 334 -192h4v163h184v-940q0 -132 -21 -229.5t-72 -176.5t-144.5 -120t-229.5 -41q-204 0 -331.5 117t-131.5 317h185q0 -127 78 -198.5t208 -71.5q82 0 138 26.5t85 77t40.5 109.5t11.5 139v183h-4 q-57 -85 -141.5 -134t-184.5 -49q-141 0 -247.5 73t-159 189.5t-52.5 255.5zM236 479q0 -92 34 -170t104.5 -128t164.5 -50q145 0 228 100t83 248q0 146 -83.5 245t-227.5 99q-137 0 -220 -102t-83 -242z" />
<glyph unicode="h" horiz-adv-x="1071" d="M127 0v1778h184v-949h4q42 76 120 117t169 41q98 0 166.5 -31t105.5 -89.5t52.5 -130t15.5 -165.5v-571h-184v549q0 55 -4 92.5t-16.5 74.5t-35 58.5t-61.5 35t-94 13.5q-39 0 -71 -8t-55 -20t-41.5 -34t-30 -40.5t-19.5 -50.5t-12 -53.5t-6 -59.5t-2.5 -58t-0.5 -59 v-440h-184z" />
<glyph unicode="i" horiz-adv-x="520" d="M133 1397q0 54 36.5 91.5t90.5 37.5t90.5 -37.5t36.5 -91.5t-36.5 -89.5t-90.5 -35.5t-90.5 35.5t-36.5 89.5zM168 0v958h184v-958h-184z" />
<glyph unicode="j" horiz-adv-x="520" d="M133 1397q0 54 36.5 91.5t90.5 37.5t90.5 -37.5t36.5 -91.5t-36.5 -89.5t-90.5 -35.5t-90.5 35.5t-36.5 89.5zM168 -549v1507h184v-1507h-184z" />
<glyph unicode="k" horiz-adv-x="946" d="M139 0v1778h185v-1180l360 360h244l-410 -397l451 -561h-240l-342 436l-63 -63v-373h-185z" />
<glyph unicode="l" horiz-adv-x="454" d="M135 0v1778h184v-1778h-184z" />
<glyph unicode="m" horiz-adv-x="1570" d="M121 0v958h184v-120h4q43 66 111 107.5t143 41.5q176 0 277 -170q44 78 123.5 124t171.5 46q317 0 317 -414v-573h-184v543q0 43 -3 77t-13.5 74t-29 66.5t-52 44.5t-80.5 18t-83.5 -15t-59 -43.5t-37 -60.5t-21 -76t-8.5 -78t-2 -79v-471h-185v508q0 40 -1.5 67.5 t-6.5 68.5t-16.5 69t-30 55t-49.5 41t-72 14q-47 0 -83.5 -15t-59 -43.5t-37 -60.5t-21.5 -75.5t-9.5 -78.5t-2.5 -79v-471h-184z" />
<glyph unicode="n" horiz-adv-x="1071" d="M127 0v958h184v-129h4q42 76 120 117t169 41q98 0 166.5 -31t105.5 -89.5t52.5 -130t15.5 -165.5v-571h-184v549q0 55 -4 92.5t-16.5 74.5t-35 58.5t-61.5 35t-94 13.5q-39 0 -71 -8t-55 -20t-41.5 -34t-30 -40.5t-19.5 -50.5t-12 -53.5t-6 -59.5t-2.5 -58t-0.5 -59v-440 h-184z" />
<glyph unicode="o" horiz-adv-x="1105" d="M41 477q0 216 148 363t364 147t364 -147t148 -363t-148 -363t-364 -147t-364 147t-148 363zM225 477q0 -136 96 -235t232 -99t232 99t96 235q0 137 -96 235.5t-232 98.5t-232 -98.5t-96 -235.5z" />
<glyph unicode="p" horiz-adv-x="1138" d="M113 -549v1507h184v-159h4q124 188 334 188q133 0 237.5 -71t158.5 -185t54 -246q0 -140 -51.5 -256t-157.5 -189t-249 -73q-100 0 -184.5 49t-141.5 134h-4v-699h-184zM287 479q0 -92 34 -170t104.5 -128t164.5 -50q145 0 228 100t83 248q0 146 -83.5 245t-227.5 99 q-137 0 -220 -102t-83 -242z" />
<glyph unicode="q" horiz-adv-x="1138" d="M53 485q0 98 32 189t89.5 160.5t143 111t186.5 41.5q210 0 334 -188h4v159h184v-1507h-184v699h-4q-57 -85 -141.5 -134t-184.5 -49q-141 0 -247.5 73t-159 189.5t-52.5 255.5zM238 479q0 -92 34 -170t104.5 -128t164.5 -50q145 0 228 100t83 248q0 146 -83.5 245 t-227.5 99q-137 0 -220 -102t-83 -242z" />
<glyph unicode="r" horiz-adv-x="718" d="M139 0v958h185v-155h6q36 87 103.5 135.5t158.5 48.5q80 0 151 -47l-84 -168q-42 39 -112 39q-57 0 -99 -21t-65.5 -52.5t-37 -79.5t-17.5 -90.5t-4 -96.5v-471h-185z" />
<glyph unicode="s" horiz-adv-x="786" d="M72 182l157 72q33 -60 72.5 -91.5t101.5 -31.5t104 37.5t42 97.5q0 35 -15.5 57t-52.5 48l-180 96q-48 27 -74 45t-55.5 47t-42 65.5t-12.5 84.5q0 117 82.5 197.5t199.5 80.5q87 0 155.5 -44.5t107.5 -123.5l-150 -80q-18 37 -50.5 60.5t-72.5 23.5t-70 -27t-30 -67 q0 -27 15.5 -50.5t46 -43t61.5 -34.5t76 -34q16 -7 24 -10q48 -21 84 -43t69 -54t50.5 -76t17.5 -99q0 -135 -97.5 -226.5t-232.5 -91.5q-107 0 -201.5 58t-129.5 157z" />
<glyph unicode="t" horiz-adv-x="491" d="M53 786v172h101v367h184v-367h180v-172h-180v-786h-184v786h-101z" />
<glyph unicode="u" horiz-adv-x="1048" d="M119 408v550h184v-530q0 -63 9.5 -111t33 -90.5t68.5 -65t110 -22.5t110 22.5t68.5 65t33 90.5t9.5 111v530h185v-550q0 -206 -100 -323.5t-306 -117.5t-305.5 117.5t-99.5 323.5z" />
<glyph unicode="v" horiz-adv-x="911" d="M-27 958h207l275 -598l276 598h207l-483 -991z" />
<glyph unicode="w" horiz-adv-x="1470" d="M-33 958h209l279 -610l282 664l281 -664l278 610h209l-487 -991l-281 641l-282 -641z" />
<glyph unicode="x" horiz-adv-x="1001" d="M-29 0l428 520l-344 438h217l228 -309l248 309h223l-353 -438l412 -520h-215l-315 389l-305 -389h-224z" />
<glyph unicode="y" horiz-adv-x="991" d="M-27 958h215l324 -608l301 608h207l-776 -1507h-209l377 713z" />
<glyph unicode="z" horiz-adv-x="1013" d="M4 0l649 786h-538v172h897l-650 -786h623v-172h-981z" />
<glyph unicode="{" horiz-adv-x="684" d="M98 555v150q154 70 154 309v372q0 113 60 192t114 79h160v-172h-82q-18 0 -30.5 -7.5t-19 -17t-10 -29t-4 -33.5t-0.5 -40v-377q0 -81 -19.5 -149.5t-48 -109.5t-50 -62.5t-37.5 -30.5q16 -9 36.5 -29.5t50 -61t49 -109t19.5 -150.5v-377q0 -26 0.5 -40t4 -33.5t10 -29 t19 -17t30.5 -7.5h82v-172h-160q-54 0 -114 79t-60 191v373q0 239 -154 309z" />
<glyph unicode="|" horiz-adv-x="1167" d="M496 0v1778h176v-1778h-176z" />
<glyph unicode="}" horiz-adv-x="684" d="M98 -225h82q18 0 30.5 7.5t19 17t10 29t4 33.5t0.5 40v377q0 82 19.5 150.5t49 109t50 61t36.5 29.5q-16 9 -37.5 30.5t-50 62.5t-48 109.5t-19.5 149.5v377q0 26 -0.5 40t-4 33.5t-10 29t-19 17t-30.5 7.5h-82v172h160q54 0 114 -79t60 -192v-372q0 -239 154 -309v-150 q-154 -70 -154 -309v-373q0 -112 -60 -191t-114 -79h-160v172z" />
<glyph unicode="~" d="M68 465q4 5 25.5 35.5t28.5 39.5t28 36.5t32 38t32 31.5t38 30t38.5 20.5t44 16t46.5 4.5q67 0 126 -28.5t124 -76.5q14 -10 38.5 -29.5t38 -29.5t32.5 -22t34 -17.5t29 -5.5q27 0 49.5 11t46.5 41t37 51t43 73l137 -102q-25 -47 -54 -87.5t-68 -79t-88 -61t-101 -22.5 q-51 0 -107 27.5t-129 76.5q-16 11 -43 30t-43 29.5t-35.5 22.5t-35 17.5t-27.5 5.5q-50 0 -91.5 -40t-96.5 -128z" />
<glyph unicode="&#xa1;" horiz-adv-x="657" d="M211 922q0 48 35 83t84 35t84 -35t35 -83q0 -50 -34.5 -84.5t-84.5 -34.5t-84.5 34.5t-34.5 84.5zM238 -528v1190h184v-1190h-184z" />
<glyph unicode="&#xa2;" d="M205 772q0 194 118.5 337.5t307.5 172.5v160h98v-156q158 -11 250 -63v-236h-4q-43 58 -108.5 93t-137.5 36v-672q78 11 137 40.5t113 86.5v-239q-101 -49 -215 -58l-35 -2v-174h-98v183q-187 29 -306.5 166t-119.5 325zM385 780q0 -116 67.5 -210.5t178.5 -118.5v653 q-69 -8 -127 -61.5t-88.5 -124.5t-30.5 -138z" />
<glyph unicode="&#xa3;" d="M23 49q66 113 135 170.5t180 61.5q19 64 26 116t-2.5 110.5t-39.5 110.5h-265v119h205q-119 228 -119 369q0 127 73 237t189.5 172t243.5 62q215 0 347.5 -130.5t144.5 -346.5l-185 -70v57q0 127 -86 218.5t-213 91.5q-125 0 -227 -97.5t-102 -209.5q0 -49 16.5 -102 t34 -86.5t50 -87.5t44.5 -77h303v-119h-254q29 -102 29 -178q0 -74 -29 -176l152 -53q9 -4 34.5 -14.5t40.5 -16.5t37.5 -13.5t42 -11t37.5 -3.5q17 0 34 5.5t29 12t27 22t22.5 23.5t22 30t18 28l17.5 30l154 -94q-46 -110 -127.5 -176t-192.5 -66q-97 0 -268 68 q-56 22 -87 33.5t-73.5 21.5t-76.5 10q-69 0 -112 -34t-69 -99z" />
<glyph unicode="&#xa4;" horiz-adv-x="1136" d="M51 485q0 98 32 189t89.5 160.5t143 111t186.5 41.5q213 0 334 -192h4v163h184v-940q0 -132 -21 -229.5t-72 -176.5t-144.5 -120t-229.5 -41q-204 0 -331.5 117t-131.5 317h185q0 -127 78 -198.5t208 -71.5q82 0 138 26.5t85 77t40.5 109.5t11.5 139v183h-4 q-57 -85 -141.5 -134t-184.5 -49q-141 0 -247.5 73t-159 189.5t-52.5 255.5zM207 1432h147q33 -76 82 -115t127 -39q80 0 128 38t83 116h146q-25 -127 -125.5 -208t-231.5 -81q-129 0 -230 81.5t-126 207.5zM236 479q0 -92 34 -170t104.5 -128t164.5 -50q145 0 228 100 t83 248q0 146 -83.5 245t-227.5 99q-137 0 -220 -102t-83 -242z" />
<glyph unicode="&#xa5;" d="M-8 1544h221l379 -659l379 659h221l-324 -561h303v-119h-370l-113 -192v-21h483v-119h-483v-532h-192v532h-484v119h484v21l-111 192h-373v119h303z" />
<glyph unicode="&#xa7;" d="M82 856q0 105 50.5 181.5t146.5 150.5q-91 105 -91 227q0 101 55.5 185t145.5 131t191 47q163 0 279 -92t128 -252h-178q-3 58 -38 100.5t-84.5 62t-106.5 19.5q-87 0 -147 -59t-60 -146q0 -39 13.5 -71t40.5 -57t54 -42t66 -37l272 -137q123 -65 168 -99 q115 -88 115 -206q0 -101 -49.5 -193t-132.5 -153q108 -102 108 -250q0 -118 -61.5 -209.5t-160 -138.5t-214.5 -47q-202 0 -332.5 119.5t-130.5 320.5v31h182q-5 -127 74 -215t205 -88q101 0 177.5 65t76.5 166q0 40 -14.5 72.5t-51 61t-55 40.5t-70.5 39q-12 7 -18 10 l-289 142q-40 21 -54.5 28.5t-48 26.5t-46.5 30.5t-37 32.5t-34 39.5t-22.5 44t-17 55t-4.5 64.5zM264 877q0 -22 6.5 -41.5t12.5 -33.5t24.5 -30.5t26.5 -24.5t34.5 -23.5t33 -18.5t36.5 -19l359 -178q55 36 89 94.5t34 120.5q0 36 -12 64t-38 50t-47 34.5t-59 31.5 l-377 191q-56 -36 -89.5 -94t-33.5 -123z" />
<glyph unicode="&#xa8;" horiz-adv-x="962" d="M141 1298q0 52 35.5 87.5t89.5 35.5q51 0 87 -36t36 -87q0 -53 -35.5 -88.5t-87.5 -35.5q-54 0 -89.5 35t-35.5 89zM573 1298q0 52 35.5 87.5t89.5 35.5q51 0 87 -36t36 -87q0 -53 -35.5 -88.5t-87.5 -35.5q-54 0 -89.5 35t-35.5 89z" />
<glyph unicode="&#xa9;" horiz-adv-x="1638" d="M12 772q0 221 107 406t292.5 292t407.5 107t407.5 -107t292.5 -292t107 -406t-107 -406t-292.5 -292t-407.5 -107t-407.5 107t-292.5 292t-107 406zM143 772q0 -139 54.5 -264.5t145.5 -215t215.5 -142t260.5 -52.5q137 0 262 52.5t215.5 142t144.5 215t54 264.5 q0 188 -91 343t-246.5 243t-338.5 88q-136 0 -260 -52t-215.5 -141t-146 -214.5t-54.5 -266.5zM403 778q0 205 121 335t326 130q144 0 247 -82t132 -223h-125q-19 85 -85.5 129.5t-170.5 44.5q-80 0 -142 -28.5t-98 -76t-54.5 -105t-18.5 -120.5q0 -148 84 -242t233 -94 q205 0 252 183h125q-17 -142 -125.5 -228t-251.5 -86q-200 0 -324.5 133.5t-124.5 329.5z" />
<glyph unicode="&#xaa;" horiz-adv-x="684" d="M25 754v98h634v-98h-634zM25 1276q0 123 81.5 212t212.5 89q133 0 218 -113h-2h4v95h120v-574h-120v88h-4q-81 -108 -211 -108q-137 0 -218 91t-81 220zM145 1272q0 -86 53.5 -147.5t143.5 -61.5q95 0 149 59.5t54 149.5t-54 148.5t-149 58.5q-89 0 -143 -61.5 t-54 -145.5z" />
<glyph unicode="&#xab;" horiz-adv-x="1071" d="M61 655l373 492l115 -84l-305 -408l305 -391l-115 -84zM455 655l372 492l115 -84l-305 -408l305 -391l-115 -84z" />
<glyph unicode="&#xac;" d="M68 610v176h1048v-553h-176v377h-872z" />
<glyph unicode="&#xad;" horiz-adv-x="679" d="M117 580v153h448v-153h-448z" />
<glyph unicode="&#xae;" horiz-adv-x="1638" d="M12 772q0 221 107 406t292.5 292t407.5 107t407.5 -107t292.5 -292t107 -406t-107 -406t-292.5 -292t-407.5 -107t-407.5 107t-292.5 292t-107 406zM143 772q0 -139 54.5 -264.5t145.5 -215t215.5 -142t260.5 -52.5q137 0 262 52.5t215.5 142t144.5 215t54 264.5 q0 188 -91 343t-246.5 243t-338.5 88q-136 0 -260 -52t-215.5 -141t-146 -214.5t-54.5 -266.5zM508 313v906h381q311 0 311 -240q0 -65 -20 -113.5t-55.5 -76.5t-76.5 -42t-90 -16l230 -418h-150l-231 418h-168v-418h-131zM639 862h139q15 0 42.5 -0.5t45 -0.5t43 0.5 t42.5 3t37.5 7t33.5 12.5t24.5 18.5t17 26.5t5.5 36q0 41 -15.5 67t-47.5 37.5t-62.5 14.5t-79.5 3h-225v-225z" />
<glyph unicode="&#xaf;" horiz-adv-x="1024" d="M143 1282v139h740v-139h-740z" />
<glyph unicode="&#xb0;" horiz-adv-x="819" d="M102 1270q0 127 90 217t218 90q126 0 216.5 -90.5t90.5 -216.5q0 -127 -90.5 -217t-216.5 -90q-128 0 -218 90t-90 217zM205 1270q0 -88 58.5 -146.5t146.5 -58.5q86 0 145 58.5t59 146.5q0 87 -59.5 146t-146.5 59q-86 0 -144.5 -58.5t-58.5 -146.5z" />
<glyph unicode="&#xb1;" d="M68 0v176h1048v-176h-1048zM68 618v177h436v354h176v-354h436v-177h-436v-352h-176v352h-436z" />
<glyph unicode="&#xb4;" horiz-adv-x="737" d="M156 1163l256 340l170 -90l-336 -305z" />
<glyph unicode="&#xb6;" d="M84 1018q-6 93 24.5 187t87 169t143.5 122.5t185 47.5h578v-172h-125v-1685h-172v1685h-127v-1685h-172v893q-177 0 -291 116.5t-131 321.5z" />
<glyph unicode="&#xb7;" horiz-adv-x="591" d="M178 524q0 48 35 83.5t84 35.5t84 -35.5t35 -83.5q0 -49 -34.5 -83.5t-84.5 -34.5t-84.5 34.5t-34.5 83.5z" />
<glyph unicode="&#xb8;" horiz-adv-x="675" d="M176 -315l178 280l146 -59l-215 -277z" />
<glyph unicode="&#xba;" horiz-adv-x="663" d="M0 754v98h666v-98h-666zM0 1270q0 130 96 218.5t236 88.5q141 0 237.5 -88.5t96.5 -218.5q0 -129 -96.5 -217t-237.5 -88q-140 0 -236 88t-96 217zM121 1270q0 -81 61.5 -140t149.5 -59q89 0 151 59t62 140q0 85 -61 142.5t-152 57.5q-90 0 -150.5 -57.5t-60.5 -142.5z " />
<glyph unicode="&#xbb;" horiz-adv-x="1071" d="M129 264l305 391l-305 408l115 84l372 -492l-372 -475zM522 264l305 391l-305 408l115 84l373 -492l-373 -475z" />
<glyph unicode="&#xbf;" horiz-adv-x="927" d="M86 -186q0 73 29 140t82 114q31 27 81 51t78.5 33.5t94.5 29.5q68 21 108.5 55t40.5 95q0 62 -41 104.5t-102 42.5q-65 0 -106.5 -45t-39.5 -112h-186q-4 132 97 230.5t235 98.5q137 0 233 -95t96 -232q0 -57 -15.5 -102.5t-37 -74t-60 -54t-67.5 -39t-78 -31.5 q-14 -5 -52.5 -19.5t-54 -21t-45.5 -21t-43.5 -27.5t-30.5 -32t-23.5 -42.5t-6.5 -52.5q0 -84 52.5 -133t136.5 -49q72 0 124 52t52 124q0 20 -12 66h192l4 -68q7 -146 -104.5 -247t-261.5 -101q-156 0 -262.5 104t-106.5 259zM338 922q0 48 35 83t84 35t83.5 -35t34.5 -83 q0 -50 -34.5 -84.5t-83.5 -34.5t-84 34.5t-35 84.5z" />
<glyph unicode="&#xc0;" horiz-adv-x="1439" d="M-16 0l737 1610l737 -1610h-207l-176 387h-708l-177 -387h-206zM446 563h549l-274 625zM508 1999l170 90l256 -340l-90 -55z" />
<glyph unicode="&#xc1;" horiz-adv-x="1439" d="M-16 0l737 1610l737 -1610h-207l-176 387h-708l-177 -387h-206zM446 563h549l-274 625zM508 1749l256 340l170 -90l-336 -305z" />
<glyph unicode="&#xc2;" horiz-adv-x="1439" d="M-16 0l737 1610l737 -1610h-207l-176 387h-708l-177 -387h-206zM393 1792l326 297l330 -297l-121 -94l-209 196l-207 -196zM446 563h549l-274 625z" />
<glyph unicode="&#xc3;" horiz-adv-x="1439" d="M-16 0l737 1610l737 -1610h-207l-176 387h-708l-177 -387h-206zM330 1841l6 10q49 74 99 115t122 41q88 0 182 -53q99 -56 148 -56q66 0 131 99l96 -80q-38 -77 -99 -122.5t-143 -45.5q-62 0 -170 53q-5 2 -22.5 10t-24 11t-21 9t-23.5 9t-21.5 6t-24 4.5t-22.5 1.5 q-35 0 -66 -28t-51 -66zM446 563h549l-274 625z" />
<glyph unicode="&#xc4;" horiz-adv-x="1439" d="M-16 0l737 1610l737 -1610h-207l-176 387h-708l-177 -387h-206zM381 1884q0 52 35.5 87.5t89.5 35.5q51 0 87 -36t36 -87q0 -54 -35.5 -89.5t-87.5 -35.5q-54 0 -89.5 35.5t-35.5 89.5zM446 563h549l-274 625zM813 1884q0 52 35.5 87.5t89.5 35.5q51 0 87 -36t36 -87 q0 -54 -35.5 -89.5t-87.5 -35.5q-54 0 -89.5 35.5t-35.5 89.5z" />
<glyph unicode="&#xc5;" horiz-adv-x="1439" d="M-16 0l737 1610l737 -1610h-207l-176 387h-708l-177 -387h-206zM446 563h549l-274 625zM537 1903q0 78 53 132t131 54t132 -54t54 -132t-54 -131.5t-132 -53.5t-131 53.5t-53 131.5zM629 1903q0 -38 27.5 -65.5t64.5 -27.5q38 0 66 27.5t28 65.5t-28 66t-66 28 q-37 0 -64.5 -28t-27.5 -66z" />
<glyph unicode="&#xc6;" horiz-adv-x="2041" d="M0 0l741 1544h676l78 -176h-633l187 -432h616l82 -176h-619l248 -584h637l78 -176h-831l-170 387h-703l-176 -387h-211zM469 563h549l-266 598z" />
<glyph unicode="&#xc7;" horiz-adv-x="1353" d="M61 764q0 169 65 320t175.5 259t262.5 171t319 63q220 0 389 -104v-224q-84 73 -190.5 112.5t-217.5 39.5q-169 0 -309.5 -85.5t-220.5 -230.5t-80 -315q0 -167 79 -311t219 -230t308 -86q235 0 412 160v-227q-183 -109 -406 -109q-163 0 -311.5 62t-257 167.5 t-172.5 254t-64 313.5zM688 -336l178 281l146 -60l-215 -276z" />
<glyph unicode="&#xc8;" horiz-adv-x="1067" d="M147 0v1544h830v-176h-637v-432h618v-176h-618v-584h637v-176h-830zM322 1999l170 90l256 -340l-91 -55z" />
<glyph unicode="&#xc9;" horiz-adv-x="1067" d="M147 0v1544h830v-176h-637v-432h618v-176h-618v-584h637v-176h-830zM346 1749l256 340l170 -90l-336 -305z" />
<glyph unicode="&#xca;" horiz-adv-x="1067" d="M147 0v1544h830v-176h-637v-432h618v-176h-618v-584h637v-176h-830zM207 1792l325 297l330 -297l-121 -94l-209 196l-206 -196z" />
<glyph unicode="&#xcb;" horiz-adv-x="1067" d="M147 0v1544h830v-176h-637v-432h618v-176h-618v-584h637v-176h-830zM219 1884q0 52 35.5 87.5t89.5 35.5q51 0 87 -36t36 -87q0 -54 -35.5 -89.5t-87.5 -35.5q-54 0 -89.5 35.5t-35.5 89.5zM651 1884q0 52 35.5 87.5t89.5 35.5q51 0 87 -36t36 -87q0 -54 -35.5 -89.5 t-87.5 -35.5q-54 0 -89.5 35.5t-35.5 89.5z" />
<glyph unicode="&#xcc;" horiz-adv-x="475" d="M25 1999l170 90l256 -340l-91 -55zM141 0v1544h193v-1544h-193z" />
<glyph unicode="&#xcd;" horiz-adv-x="475" d="M25 1749l256 340l170 -90l-336 -305zM141 0v1544h193v-1544h-193z" />
<glyph unicode="&#xce;" horiz-adv-x="475" d="M-90 1792l326 297l329 -297l-121 -94l-208 196l-207 -196zM141 0v1544h193v-1544h-193z" />
<glyph unicode="&#xcf;" horiz-adv-x="475" d="M-102 1884q0 52 36 87.5t89 35.5q51 0 86.5 -36t35.5 -87q0 -54 -35.5 -89.5t-86.5 -35.5q-54 0 -89.5 35.5t-35.5 89.5zM141 0v1544h193v-1544h-193zM330 1884q0 52 36 87.5t89 35.5q51 0 87 -36t36 -87q0 -54 -36 -89.5t-87 -35.5q-54 0 -89.5 35.5t-35.5 89.5z" />
<glyph unicode="&#xd1;" horiz-adv-x="1607" d="M129 0v1618l1159 -1215v1141h193v-1607l-1159 1214v-1151h-193zM414 1841l6 10q49 74 99 115t122 41q88 0 182 -53q99 -56 148 -56q66 0 131 99l96 -80q-38 -77 -99 -122.5t-143 -45.5q-62 0 -170 53q-5 2 -22.5 10t-24 11t-21 9t-23.5 9t-21.5 6t-24 4.5t-22.5 1.5 q-35 0 -66 -28t-51 -66z" />
<glyph unicode="&#xd2;" horiz-adv-x="1695" d="M39 772q0 130 41.5 253t116.5 222t174.5 173.5t223 115.5t253.5 41t253.5 -41t223 -115.5t174.5 -173.5t116.5 -222t41.5 -253q0 -169 -63.5 -319t-172 -256t-258 -168t-315.5 -62t-315.5 62t-258 168t-172 256t-63.5 319zM231 772q0 -129 49.5 -245.5t133 -199.5 t197.5 -131.5t237 -48.5q165 0 306.5 82t225.5 226.5t84 316.5q0 168 -77.5 311t-220 228.5t-318.5 85.5q-133 0 -249 -50.5t-196 -135.5t-126 -199t-46 -240zM635 1999l170 90l256 -340l-90 -55z" />
<glyph unicode="&#xd3;" horiz-adv-x="1695" d="M39 772q0 130 41.5 253t116.5 222t174.5 173.5t223 115.5t253.5 41t253.5 -41t223 -115.5t174.5 -173.5t116.5 -222t41.5 -253q0 -169 -63.5 -319t-172 -256t-258 -168t-315.5 -62t-315.5 62t-258 168t-172 256t-63.5 319zM231 772q0 -129 49.5 -245.5t133 -199.5 t197.5 -131.5t237 -48.5q165 0 306.5 82t225.5 226.5t84 316.5q0 168 -77.5 311t-220 228.5t-318.5 85.5q-133 0 -249 -50.5t-196 -135.5t-126 -199t-46 -240zM635 1749l256 340l170 -90l-336 -305z" />
<glyph unicode="&#xd4;" horiz-adv-x="1695" d="M39 772q0 130 41.5 253t116.5 222t174.5 173.5t223 115.5t253.5 41t253.5 -41t223 -115.5t174.5 -173.5t116.5 -222t41.5 -253q0 -169 -63.5 -319t-172 -256t-258 -168t-315.5 -62t-315.5 62t-258 168t-172 256t-63.5 319zM231 772q0 -129 49.5 -245.5t133 -199.5 t197.5 -131.5t237 -48.5q165 0 306.5 82t225.5 226.5t84 316.5q0 168 -77.5 311t-220 228.5t-318.5 85.5q-133 0 -249 -50.5t-196 -135.5t-126 -199t-46 -240zM520 1792l326 297l330 -297l-121 -94l-209 196l-207 -196z" />
<glyph unicode="&#xd5;" horiz-adv-x="1695" d="M39 772q0 130 41.5 253t116.5 222t174.5 173.5t223 115.5t253.5 41t253.5 -41t223 -115.5t174.5 -173.5t116.5 -222t41.5 -253q0 -169 -63.5 -319t-172 -256t-258 -168t-315.5 -62t-315.5 62t-258 168t-172 256t-63.5 319zM231 772q0 -129 49.5 -245.5t133 -199.5 t197.5 -131.5t237 -48.5q165 0 306.5 82t225.5 226.5t84 316.5q0 168 -77.5 311t-220 228.5t-318.5 85.5q-133 0 -249 -50.5t-196 -135.5t-126 -199t-46 -240zM457 1841l6 10q49 74 99 115t122 41q88 0 182 -53q99 -56 148 -56q66 0 131 99l96 -80q-38 -77 -99 -122.5 t-143 -45.5q-62 0 -170 53q-5 2 -22.5 10t-24 11t-21 9t-23.5 9t-21.5 6t-24 4.5t-22.5 1.5q-35 0 -66 -28t-51 -66z" />
<glyph unicode="&#xd6;" horiz-adv-x="1695" d="M39 772q0 130 41.5 253t116.5 222t174.5 173.5t223 115.5t253.5 41t253.5 -41t223 -115.5t174.5 -173.5t116.5 -222t41.5 -253q0 -169 -63.5 -319t-172 -256t-258 -168t-315.5 -62t-315.5 62t-258 168t-172 256t-63.5 319zM231 772q0 -129 49.5 -245.5t133 -199.5 t197.5 -131.5t237 -48.5q165 0 306.5 82t225.5 226.5t84 316.5q0 168 -77.5 311t-220 228.5t-318.5 85.5q-133 0 -249 -50.5t-196 -135.5t-126 -199t-46 -240zM508 1884q0 52 36 87.5t89 35.5q51 0 87 -36t36 -87q0 -54 -36 -89.5t-87 -35.5q-54 0 -89.5 35.5t-35.5 89.5z M940 1884q0 52 36 87.5t89 35.5q51 0 87 -36t36 -87q0 -54 -36 -89.5t-87 -35.5q-54 0 -89.5 35.5t-35.5 89.5z" />
<glyph unicode="&#xd8;" horiz-adv-x="1695" d="M27 43l202 203q-97 106 -143.5 233.5t-46.5 292.5q0 130 41.5 253t116.5 222t174.5 173.5t223 115.5t253.5 41q145 0 287.5 -53.5t246.5 -151.5l205 205l82 -84l-205 -205q91 -114 142 -246.5t51 -269.5q0 -169 -63.5 -319t-172 -256t-258 -168t-315.5 -62 q-154 0 -282 49t-251 146l-204 -205zM231 772q0 -226 134 -401l884 876q-77 76 -182 114t-219 36q-133 0 -249 -50.5t-196 -135.5t-126 -199t-46 -240zM457 291q150 -144 391 -144q165 0 306.5 82t225.5 226.5t84 316.5q0 214 -135 387z" />
<glyph unicode="&#xd9;" horiz-adv-x="1370" d="M121 567v977h192v-911q0 -486 373 -486t373 486v911h192v-977q0 -170 -67 -305t-196.5 -215t-301.5 -80t-301.5 80t-196.5 215t-67 305zM449 1999l169 90l256 -340l-90 -55z" />
<glyph unicode="&#xda;" horiz-adv-x="1370" d="M121 567v977h192v-911q0 -486 373 -486t373 486v911h192v-977q0 -170 -67 -305t-196.5 -215t-301.5 -80t-301.5 80t-196.5 215t-67 305zM473 1749l256 340l170 -90l-336 -305z" />
<glyph unicode="&#xdb;" horiz-adv-x="1370" d="M121 567v977h192v-911q0 -486 373 -486t373 486v911h192v-977q0 -170 -67 -305t-196.5 -215t-301.5 -80t-301.5 80t-196.5 215t-67 305zM358 1792l326 297l330 -297l-121 -94l-209 196l-207 -196z" />
<glyph unicode="&#xdc;" horiz-adv-x="1370" d="M121 567v977h192v-911q0 -486 373 -486t373 486v911h192v-977q0 -170 -67 -305t-196.5 -215t-301.5 -80t-301.5 80t-196.5 215t-67 305zM346 1884q0 52 36 87.5t89 35.5q51 0 87 -36t36 -87q0 -54 -36 -89.5t-87 -35.5q-54 0 -89.5 35.5t-35.5 89.5zM778 1884 q0 52 36 87.5t89 35.5q51 0 87 -36t36 -87q0 -54 -36 -89.5t-87 -35.5q-54 0 -89.5 35.5t-35.5 89.5z" />
<glyph unicode="&#xdf;" horiz-adv-x="1187" d="M57 791v172h82v303q0 536 455 536q190 0 317 -125t127 -317q0 -228 -196 -342q147 -48 233 -188t86 -302q0 -117 -47 -224t-126 -182.5t-186.5 -118t-223.5 -36.5v172q161 0 280 115t119 274q0 172 -111 269t-288 110v180q117 0 196.5 82t79.5 201q0 112 -77.5 186 t-188.5 74q-64 0 -111.5 -19.5t-75 -61t-44.5 -80t-23.5 -104t-8 -103t-1.5 -104.5v-13v-1145h-185v791h-82z" />
<glyph unicode="&#xe0;" horiz-adv-x="1138" d="M53 485q0 132 54 245.5t159 185t240 71.5q103 0 188 -49.5t144 -138.5h4v159h184v-958h-184v150h-4q-58 -85 -141.5 -134t-184.5 -49q-141 0 -247.5 73t-159 189.5t-52.5 255.5zM238 479q0 -92 34 -170t104.5 -128t164.5 -50q145 0 228 100t83 248q0 146 -83.5 245 t-227.5 99q-137 0 -220 -102t-83 -242zM356 1413l170 90l256 -340l-90 -55z" />
<glyph unicode="&#xe1;" horiz-adv-x="1138" d="M53 485q0 132 54 245.5t159 185t240 71.5q103 0 188 -49.5t144 -138.5h4v159h184v-958h-184v150h-4q-58 -85 -141.5 -134t-184.5 -49q-141 0 -247.5 73t-159 189.5t-52.5 255.5zM238 479q0 -92 34 -170t104.5 -128t164.5 -50q145 0 228 100t83 248q0 146 -83.5 245 t-227.5 99q-137 0 -220 -102t-83 -242zM356 1163l256 340l170 -90l-336 -305z" />
<glyph unicode="&#xe2;" horiz-adv-x="1138" d="M53 485q0 132 54 245.5t159 185t240 71.5q103 0 188 -49.5t144 -138.5h4v159h184v-958h-184v150h-4q-58 -85 -141.5 -134t-184.5 -49q-141 0 -247.5 73t-159 189.5t-52.5 255.5zM238 479q0 -92 34 -170t104.5 -128t164.5 -50q145 0 228 100t83 248q0 146 -83.5 245 t-227.5 99q-137 0 -220 -102t-83 -242zM242 1206l325 297l330 -297l-121 -94l-209 197l-207 -197z" />
<glyph unicode="&#xe3;" horiz-adv-x="1138" d="M53 485q0 132 54 245.5t159 185t240 71.5q103 0 188 -49.5t144 -138.5h4v159h184v-958h-184v150h-4q-58 -85 -141.5 -134t-184.5 -49q-141 0 -247.5 73t-159 189.5t-52.5 255.5zM178 1255l6 11q48 73 99 114t123 41q88 0 182 -53q50 -28 82.5 -41.5t64.5 -13.5 q66 0 131 98l97 -80q-38 -77 -99 -122.5t-143 -45.5q-60 0 -170 54q-3 1 -22.5 10t-24.5 11t-21 9t-24 9t-21 6t-24.5 5t-22.5 1q-35 0 -66 -28t-51 -66zM238 479q0 -92 34 -170t104.5 -128t164.5 -50q145 0 228 100t83 248q0 146 -83.5 245t-227.5 99q-137 0 -220 -102 t-83 -242z" />
<glyph unicode="&#xe4;" horiz-adv-x="1138" d="M53 485q0 132 54 245.5t159 185t240 71.5q103 0 188 -49.5t144 -138.5h4v159h184v-958h-184v150h-4q-58 -85 -141.5 -134t-184.5 -49q-141 0 -247.5 73t-159 189.5t-52.5 255.5zM229 1298q0 52 35.5 87.5t89.5 35.5q51 0 87 -36t36 -87q0 -53 -35.5 -88.5t-87.5 -35.5 q-54 0 -89.5 35t-35.5 89zM238 479q0 -92 34 -170t104.5 -128t164.5 -50q145 0 228 100t83 248q0 146 -83.5 245t-227.5 99q-137 0 -220 -102t-83 -242zM662 1298q0 52 35.5 87.5t88.5 35.5q51 0 87 -36t36 -87q0 -53 -35.5 -88.5t-87.5 -35.5q-54 0 -89 35t-35 89z" />
<glyph unicode="&#xe5;" horiz-adv-x="1138" d="M53 485q0 132 54 245.5t159 185t240 71.5q103 0 188 -49.5t144 -138.5h4v159h184v-958h-184v150h-4q-58 -85 -141.5 -134t-184.5 -49q-141 0 -247.5 73t-159 189.5t-52.5 255.5zM238 479q0 -92 34 -170t104.5 -128t164.5 -50q145 0 228 100t83 248q0 146 -83.5 245 t-227.5 99q-137 0 -220 -102t-83 -242zM385 1317q0 78 53 132t131 54t132.5 -54t54.5 -132t-54.5 -131t-132.5 -53t-131 53t-53 131zM477 1317q0 -38 27.5 -65t64.5 -27q39 0 67 27t28 65t-28.5 66t-66.5 28q-37 0 -64.5 -28t-27.5 -66z" />
<glyph unicode="&#xe6;" horiz-adv-x="1652" d="M53 281q0 101 50.5 175t132 110t180.5 36q184 0 291 -88v66q0 247 -252 247q-169 0 -262 -30v164q139 26 288 26q99 0 193 -40t135 -118q62 77 157.5 117.5t207.5 40.5q111 0 197.5 -39.5t140.5 -109t82 -161t28 -200.5v-28h-731q0 -128 81.5 -223t207.5 -95 q99 0 163 45.5t123 140.5l156 -88q-67 -124 -184.5 -193t-259.5 -69q-107 0 -202 47.5t-167 130.5q-58 -87 -157.5 -132.5t-209.5 -45.5q-72 0 -139.5 19.5t-124 56.5t-91 99t-34.5 139zM225 285q0 -41 23 -72.5t60 -48t75.5 -25t75.5 -8.5q53 0 104.5 14.5t92 52.5t40.5 93 q0 53 -43.5 90.5t-96 51t-103.5 13.5q-53 0 -103 -16t-87.5 -54t-37.5 -91zM905 588h537q-18 111 -87 175t-177 64q-107 0 -181 -66.5t-92 -172.5z" />
<glyph unicode="&#xe7;" horiz-adv-x="903" d="M53 471q0 221 152 368.5t373 147.5q145 0 253 -63v-238q-114 129 -274 129q-133 0 -226 -101t-93 -235q0 -148 92.5 -244t238.5 -96q148 0 262 127v-235q-114 -64 -264 -64q-140 0 -258 66t-187 182t-69 256zM389 -330l178 281l146 -60l-215 -276z" />
<glyph unicode="&#xe8;" horiz-adv-x="999" d="M53 471q0 230 121.5 373t345.5 143q147 0 250 -69t151 -182t48 -259v-28h-731q0 -128 81 -223t207 -95q99 0 163.5 45.5t123.5 140.5l156 -88q-67 -124 -185 -193t-260 -69q-215 0 -343 142.5t-128 361.5zM248 588h536q-18 111 -87 175t-177 64q-107 0 -180.5 -66.5 t-91.5 -172.5zM287 1413l170 90l256 -340l-90 -55z" />
<glyph unicode="&#xe9;" horiz-adv-x="999" d="M53 471q0 230 121.5 373t345.5 143q147 0 250 -69t151 -182t48 -259v-28h-731q0 -128 81 -223t207 -95q99 0 163.5 45.5t123.5 140.5l156 -88q-67 -124 -185 -193t-260 -69q-215 0 -343 142.5t-128 361.5zM248 588h536q-18 111 -87 175t-177 64q-107 0 -180.5 -66.5 t-91.5 -172.5zM287 1163l256 340l170 -90l-336 -305z" />
<glyph unicode="&#xea;" horiz-adv-x="999" d="M53 471q0 230 121.5 373t345.5 143q147 0 250 -69t151 -182t48 -259v-28h-731q0 -128 81 -223t207 -95q99 0 163.5 45.5t123.5 140.5l156 -88q-67 -124 -185 -193t-260 -69q-215 0 -343 142.5t-128 361.5zM172 1206l326 297l329 -297l-120 -94l-209 197l-207 -197z M248 588h536q-18 111 -87 175t-177 64q-107 0 -180.5 -66.5t-91.5 -172.5z" />
<glyph unicode="&#xeb;" horiz-adv-x="999" d="M53 471q0 230 121.5 373t345.5 143q147 0 250 -69t151 -182t48 -259v-28h-731q0 -128 81 -223t207 -95q99 0 163.5 45.5t123.5 140.5l156 -88q-67 -124 -185 -193t-260 -69q-215 0 -343 142.5t-128 361.5zM160 1298q0 52 36 87.5t89 35.5q51 0 87 -36t36 -87 q0 -53 -35.5 -88.5t-87.5 -35.5q-54 0 -89.5 35t-35.5 89zM248 588h536q-18 111 -87 175t-177 64q-107 0 -180.5 -66.5t-91.5 -172.5zM592 1298q0 52 36 87.5t89 35.5q51 0 87 -36t36 -87q0 -53 -35.5 -88.5t-87.5 -35.5q-54 0 -89.5 35t-35.5 89z" />
<glyph unicode="&#xec;" horiz-adv-x="520" d="M47 1413l170 90l256 -340l-90 -55zM168 0v958h184v-958h-184z" />
<glyph unicode="&#xed;" horiz-adv-x="520" d="M47 1163l256 340l170 -90l-336 -305zM168 0v958h184v-958h-184z" />
<glyph unicode="&#xee;" horiz-adv-x="520" d="M-68 1206l326 297l330 -297l-121 -94l-209 197l-207 -197zM168 0v958h184v-958h-184z" />
<glyph unicode="&#xef;" horiz-adv-x="520" d="M-80 1298q0 52 36 87.5t89 35.5q51 0 87 -36t36 -87q0 -53 -35.5 -88.5t-87.5 -35.5q-54 0 -89.5 35t-35.5 89zM168 0v958h184v-958h-184zM352 1298q0 52 36 87.5t89 35.5q51 0 87 -36t36 -87q0 -53 -35.5 -88.5t-87.5 -35.5q-54 0 -89.5 35t-35.5 89z" />
<glyph unicode="&#xf1;" horiz-adv-x="1071" d="M127 0v958h184v-129h4q42 76 120 117t169 41q98 0 166.5 -31t105.5 -89.5t52.5 -130t15.5 -165.5v-571h-184v549q0 55 -4 92.5t-16.5 74.5t-35 58.5t-61.5 35t-94 13.5q-39 0 -71 -8t-55 -20t-41.5 -34t-30 -40.5t-19.5 -50.5t-12 -53.5t-6 -59.5t-2.5 -58t-0.5 -59v-440 h-184zM145 1255l7 11q31 47 57.5 77t70 54t93.5 24q88 0 182 -53q50 -28 82.5 -41.5t64.5 -13.5q67 0 132 98l96 -80q-38 -77 -99 -122.5t-143 -45.5q-60 0 -170 54q-3 1 -22.5 10t-24.5 11t-21 9t-24 9t-21 6t-24.5 5t-22.5 1q-35 0 -65 -28t-51 -66z" />
<glyph unicode="&#xf2;" horiz-adv-x="1105" d="M41 477q0 216 148 363t364 147t364 -147t148 -363t-148 -363t-364 -147t-364 147t-148 363zM225 477q0 -136 96 -235t232 -99t232 99t96 235q0 137 -96 235.5t-232 98.5t-232 -98.5t-96 -235.5zM340 1413l170 90l256 -340l-90 -55z" />
<glyph unicode="&#xf3;" horiz-adv-x="1105" d="M41 477q0 216 148 363t364 147t364 -147t148 -363t-148 -363t-364 -147t-364 147t-148 363zM225 477q0 -136 96 -235t232 -99t232 99t96 235q0 137 -96 235.5t-232 98.5t-232 -98.5t-96 -235.5zM340 1163l256 340l170 -90l-336 -305z" />
<glyph unicode="&#xf4;" horiz-adv-x="1105" d="M41 477q0 216 148 363t364 147t364 -147t148 -363t-148 -363t-364 -147t-364 147t-148 363zM225 477q0 -136 96 -235t232 -99t232 99t96 235q0 137 -96 235.5t-232 98.5t-232 -98.5t-96 -235.5zM225 1206l326 297l330 -297l-121 -94l-209 197l-207 -197z" />
<glyph unicode="&#xf5;" horiz-adv-x="1105" d="M41 477q0 216 148 363t364 147t364 -147t148 -363t-148 -363t-364 -147t-364 147t-148 363zM162 1255l6 11q31 47 57.5 77t70 54t93.5 24q88 0 182 -53q98 -55 148 -55q66 0 131 98l96 -80q-38 -77 -98.5 -122.5t-142.5 -45.5q-60 0 -170 54q-3 1 -22.5 10t-24.5 11 t-21 9t-24 9t-21 6t-24.5 5t-22.5 1q-35 0 -66 -28t-51 -66zM225 477q0 -136 96 -235t232 -99t232 99t96 235q0 137 -96 235.5t-232 98.5t-232 -98.5t-96 -235.5z" />
<glyph unicode="&#xf6;" horiz-adv-x="1105" d="M41 477q0 216 148 363t364 147t364 -147t148 -363t-148 -363t-364 -147t-364 147t-148 363zM213 1298q0 52 35.5 87.5t89.5 35.5q51 0 87 -36t36 -87q0 -53 -35.5 -88.5t-87.5 -35.5q-54 0 -89.5 35t-35.5 89zM225 477q0 -136 96 -235t232 -99t232 99t96 235 q0 137 -96 235.5t-232 98.5t-232 -98.5t-96 -235.5zM645 1298q0 52 35.5 87.5t89.5 35.5q51 0 87 -36t36 -87q0 -53 -35.5 -88.5t-87.5 -35.5q-54 0 -89.5 35t-35.5 89z" />
<glyph unicode="&#xf7;" d="M68 436v176h1048v-176h-1048zM465 125q0 54 36.5 91.5t90.5 37.5t90.5 -37.5t36.5 -91.5t-36.5 -89.5t-90.5 -35.5t-90.5 35.5t-36.5 89.5zM465 920q0 54 36.5 91.5t90.5 37.5t90.5 -37.5t36.5 -91.5t-36.5 -89.5t-90.5 -35.5t-90.5 35.5t-36.5 89.5z" />
<glyph unicode="&#xf8;" horiz-adv-x="1105" d="M31 18l125 127q-115 160 -115 332q0 216 148 363t364 147q87 0 174 -31.5t152 -87.5l135 138l63 -66l-133 -131q121 -161 121 -332q0 -216 -148 -363t-364 -147q-192 0 -334 119l-125 -131zM225 477q0 -106 66 -203l457 469q-86 68 -195 68q-136 0 -232 -98.5t-96 -235.5 zM354 209q79 -66 199 -66q136 0 232 99t96 235q0 117 -72 199z" />
<glyph unicode="&#xf9;" horiz-adv-x="1048" d="M119 408v550h184v-530q0 -63 9.5 -111t33 -90.5t68.5 -65t110 -22.5t110 22.5t68.5 65t33 90.5t9.5 111v530h185v-550q0 -206 -100 -323.5t-306 -117.5t-305.5 117.5t-99.5 323.5zM311 1413l170 90l256 -340l-90 -55z" />
<glyph unicode="&#xfa;" horiz-adv-x="1048" d="M119 408v550h184v-530q0 -63 9.5 -111t33 -90.5t68.5 -65t110 -22.5t110 22.5t68.5 65t33 90.5t9.5 111v530h185v-550q0 -206 -100 -323.5t-306 -117.5t-305.5 117.5t-99.5 323.5zM311 1163l256 340l170 -90l-336 -305z" />
<glyph unicode="&#xfb;" horiz-adv-x="1048" d="M119 408v550h184v-530q0 -63 9.5 -111t33 -90.5t68.5 -65t110 -22.5t110 22.5t68.5 65t33 90.5t9.5 111v530h185v-550q0 -206 -100 -323.5t-306 -117.5t-305.5 117.5t-99.5 323.5zM197 1206l325 297l330 -297l-121 -94l-209 197l-207 -197z" />
<glyph unicode="&#xfc;" horiz-adv-x="1048" d="M119 408v550h184v-530q0 -63 9.5 -111t33 -90.5t68.5 -65t110 -22.5t110 22.5t68.5 65t33 90.5t9.5 111v530h185v-550q0 -206 -100 -323.5t-306 -117.5t-305.5 117.5t-99.5 323.5zM184 1298q0 52 36 87.5t89 35.5q51 0 87 -36t36 -87q0 -53 -35.5 -88.5t-87.5 -35.5 q-54 0 -89.5 35t-35.5 89zM616 1298q0 52 36 87.5t89 35.5q51 0 87 -36t36 -87q0 -53 -35.5 -88.5t-87.5 -35.5q-54 0 -89.5 35t-35.5 89z" />
<glyph unicode="&#xff;" horiz-adv-x="991" d="M-27 958h215l324 -608l301 608h207l-776 -1507h-209l377 713zM156 1298q0 52 36 87.5t89 35.5q51 0 86.5 -36t35.5 -87q0 -54 -35.5 -89t-86.5 -35q-54 0 -89.5 35t-35.5 89zM588 1298q0 52 36 87.5t89 35.5q51 0 87 -36t36 -87q0 -53 -35.5 -88.5t-87.5 -35.5 q-54 0 -89.5 35t-35.5 89z" />
<glyph unicode="&#x11e;" horiz-adv-x="1597" d="M43 768q0 219 107 405t291.5 295t402.5 109q181 0 347.5 -78.5t281.5 -220.5l-136 -129q-82 115 -213.5 183.5t-271.5 68.5q-127 0 -241 -49.5t-196 -133.5t-130.5 -200t-48.5 -244q0 -119 47.5 -234t127 -202.5t191.5 -141t234 -53.5q88 0 178 36.5t161.5 97t117.5 147 t48 178.5h-399v176h612v-61q0 -157 -54 -295.5t-149 -238.5t-232 -158t-296 -58q-211 0 -391.5 110.5t-284.5 295t-104 395.5zM494 2025h147q32 -76 81.5 -114.5t127.5 -38.5q80 0 128 38t83 115h145q-25 -127 -125 -207.5t-231 -80.5q-129 0 -230 81t-126 207z" />
<glyph unicode="&#x11f;" horiz-adv-x="1136" d="M51 485q0 98 32 189t89.5 160.5t143 111t186.5 41.5q213 0 334 -192h4v163h184v-940q0 -132 -21 -229.5t-72 -176.5t-144.5 -120t-229.5 -41q-204 0 -331.5 117t-131.5 317h185q0 -127 78 -198.5t208 -71.5q82 0 138 26.5t85 77t40.5 109.5t11.5 139v183h-4 q-57 -85 -141.5 -134t-184.5 -49q-141 0 -247.5 73t-159 189.5t-52.5 255.5zM207 1432h147q33 -76 82 -115t127 -39q80 0 128 38t83 116h146q-25 -127 -125.5 -208t-231.5 -81q-129 0 -230 81.5t-126 207.5zM236 479q0 -92 34 -170t104.5 -128t164.5 -50q145 0 228 100 t83 248q0 146 -83.5 245t-227.5 99q-137 0 -220 -102t-83 -242z" />
<glyph unicode="&#x130;" horiz-adv-x="475" d="M113 1884q0 52 35.5 87.5t89.5 35.5q51 0 86.5 -36t35.5 -87q0 -54 -35.5 -89.5t-86.5 -35.5q-54 0 -89.5 35.5t-35.5 89.5zM141 0v1544h193v-1544h-193z" />
<glyph unicode="&#x131;" horiz-adv-x="520" d="M168 0v958h184v-958h-184z" />
<glyph unicode="&#x152;" horiz-adv-x="2340" d="M39 772q0 130 41.5 253t116.5 222t174.5 173.5t223 115.5t253.5 41q183 -5 351.5 -83.5t266.5 -219.5h4v270h809v-176h-634v-432h616v-176h-616v-584h634v-176h-809v258h-4q-103 -140 -267 -216.5t-351 -74.5q-166 0 -315.5 62t-258 168t-172 256t-63.5 319zM231 772 q0 -129 49.5 -245.5t133 -199.5t197.5 -131.5t237 -48.5q165 0 306.5 82t225.5 226.5t84 316.5q0 168 -77.5 311t-220 228.5t-318.5 85.5q-133 0 -249 -50.5t-196 -135.5t-126 -199t-46 -240z" />
<glyph unicode="&#x153;" horiz-adv-x="1837" d="M41 477q0 216 148 363t364 147q118 -5 232 -62.5t178 -152.5q132 206 395 215q111 0 197.5 -39.5t140.5 -109t82 -161t28 -200.5v-28h-731q0 -128 81.5 -223t207.5 -95q99 0 163.5 45.5t123.5 140.5l155 -88q-67 -124 -184.5 -193t-259.5 -69q-124 0 -231 55.5 t-168 155.5q-68 -102 -178.5 -157.5t-231.5 -53.5q-216 0 -364 147t-148 363zM225 477q0 -136 96 -235t232 -99t232 99t96 235q0 137 -96 235.5t-232 98.5t-232 -98.5t-96 -235.5zM1083 588h537q-18 111 -87 175t-177 64q-107 0 -181 -66.5t-92 -172.5z" />
<glyph unicode="&#x15e;" horiz-adv-x="1099" d="M66 399l194 41q0 -128 86 -210.5t213 -82.5q121 0 203 89t82 213q0 59 -21.5 106t-63 81.5t-82.5 57.5t-99 47l-107 45q-75 33 -128.5 65.5t-104 79t-77 108.5t-26.5 139q0 121 65 213.5t167.5 139t222.5 46.5q129 0 231.5 -60.5t165.5 -173.5l-153 -92q-44 74 -103 110 t-145 36q-98 0 -178 -61.5t-80 -157.5q0 -139 215 -222l110 -43q89 -36 153.5 -74.5t119 -93t82.5 -128.5t28 -168q0 -209 -141 -345.5t-352 -136.5q-186 0 -319 122t-158 310zM367 -332l178 281l145 -60l-215 -276z" />
<glyph unicode="&#x15f;" horiz-adv-x="786" d="M72 182l157 72q33 -60 72.5 -91.5t101.5 -31.5t104 37.5t42 97.5q0 35 -15.5 57t-52.5 48l-180 96q-48 27 -74 45t-55.5 47t-42 65.5t-12.5 84.5q0 117 82.5 197.5t199.5 80.5q87 0 155.5 -44.5t107.5 -123.5l-150 -80q-18 37 -50.5 60.5t-72.5 23.5t-70 -27t-30 -67 q0 -27 15.5 -50.5t46 -43t61.5 -34.5t76 -34q16 -7 24 -10q48 -21 84 -43t69 -54t50.5 -76t17.5 -99q0 -135 -97.5 -226.5t-232.5 -91.5q-107 0 -201.5 58t-129.5 157zM225 -330l178 281l146 -60l-215 -276z" />
<glyph unicode="&#x178;" horiz-adv-x="1173" d="M-12 1544h221l379 -659l379 659h221l-504 -872v-672h-192v672zM248 1884q0 52 36 87.5t89 35.5q51 0 87 -36t36 -87q0 -54 -36 -89.5t-87 -35.5q-54 0 -89.5 35.5t-35.5 89.5zM680 1884q0 52 36 87.5t89 35.5q51 0 87 -36t36 -87q0 -54 -36 -89.5t-87 -35.5 q-54 0 -89.5 35.5t-35.5 89.5z" />
<glyph unicode="&#x192;" d="M29 -305l30 176h39q58 0 102 13t74.5 44t50 58.5t34.5 83t21.5 88t17.5 100.5q1 4 1 6l109 631h-133l18 139h144l43 254q14 79 31.5 138t48.5 115.5t73 92t105 57t145 21.5q71 0 123 -14l-33 -172q-35 14 -84 14q-47 0 -82.5 -15.5t-56.5 -39t-36.5 -61t-23.5 -71.5 t-17 -80q-1 -5 -1 -7l-45 -232h264l-18 -139h-268l-113 -621q-12 -65 -20.5 -108t-22.5 -98.5t-28.5 -92t-37 -79t-48 -70t-61.5 -55t-78.5 -42.5t-97.5 -24.5t-120 -9.5h-49z" />
<glyph unicode="&#x2c6;" horiz-adv-x="962" d="M154 1206l325 297l330 -297l-121 -94l-209 197l-207 -197z" />
<glyph unicode="&#x2c7;" horiz-adv-x="966" d="M156 1409l118 94l207 -196l209 196l121 -94l-330 -297z" />
<glyph unicode="&#x2d8;" horiz-adv-x="1003" d="M145 1421h148q32 -76 81.5 -114.5t127.5 -38.5q80 0 128 38t83 115h145q-25 -127 -125 -207.5t-231 -80.5q-129 0 -230.5 81t-126.5 207z" />
<glyph unicode="&#x2d9;" horiz-adv-x="737" d="M246 1298q0 52 36 87.5t89 35.5q51 0 87 -36t36 -87q0 -53 -35.5 -88.5t-87.5 -35.5q-54 0 -89.5 35t-35.5 89z" />
<glyph unicode="&#x2da;" horiz-adv-x="737" d="M184 1317q0 78 53.5 132t131.5 54t132 -54t54 -132t-54 -131t-132 -53t-131.5 53t-53.5 131zM276 1317q0 -38 28 -65t65 -27q38 0 66 27t28 65t-28 66t-66 28q-37 0 -65 -28t-28 -66z" />
<glyph unicode="&#x2db;" horiz-adv-x="696" d="M172 -266q0 72 47.5 131.5t118.5 101.5h94v-4q-125 -89 -125 -174q0 -96 115 -96q67 0 102 26l-14 -118q-55 -35 -131 -35q-82 0 -144.5 45t-62.5 123z" />
<glyph unicode="&#x2dc;" horiz-adv-x="1044" d="M131 1255l6 11q31 47 57.5 77t70 54t93.5 24q89 0 183 -53q50 -28 82.5 -41.5t64.5 -13.5q66 0 131 98l96 -80q-38 -77 -98.5 -122.5t-142.5 -45.5q-60 0 -170 54q-3 1 -22.5 10t-24.5 11t-21 9t-24 9t-21 6t-24.5 5t-22.5 1q-35 0 -66 -28t-51 -66z" />
<glyph unicode="&#x2dd;" horiz-adv-x="962" d="M78 1163l256 340l170 -90l-336 -305zM459 1145l256 340l170 -90l-336 -305z" />
<glyph unicode="&#x394;" horiz-adv-x="1253" d="M12 0l656 1409l577 -1409h-1233zM147 100h844l-397 959z" />
<glyph unicode="&#x3a9;" horiz-adv-x="1572" d="M70 0v332h30q23 -78 47 -101.5t89 -23.5h323l-4 57q-126 37 -204 86t-138 137q-102 150 -102 324q0 159 69 281q15 27 32 51t31 41.5t33 35.5t30.5 28t31.5 24t27 18t27 16t22 13q157 90 374 90q218 0 375 -90q2 -1 22 -13t27 -16t27 -18t31.5 -24t30.5 -28t33 -35.5 t31 -41.5t32 -51q69 -122 69 -281q0 -174 -102 -324q-60 -88 -138 -137t-204 -86l-4 -57h323q64 0 91.5 25t44.5 100h30v-332h-604l33 311q5 2 26 10.5t29.5 12.5t29 15t32 21t30.5 27.5t33 37.5t30.5 48t31.5 62q26 62 38.5 149.5t8.5 185.5t-39.5 195t-100.5 162 q-106 106 -297 106q-190 0 -296 -106q-65 -65 -100.5 -162t-39.5 -195t8.5 -185.5t38.5 -149.5q15 -34 31.5 -62t30.5 -48t33 -37.5t30.5 -27.5t32 -21t29 -15t29.5 -12.5t26 -10.5l33 -311h-604z" />
<glyph unicode="&#x3bc;" horiz-adv-x="1048" d="M119 -549v1507h184v-530q0 -63 9.5 -111t33 -90.5t68.5 -65t110 -22.5t110 22.5t68.5 65t33 90.5t9.5 111v530h185v-550q0 -206 -100 -323.5t-306 -117.5q-58 0 -117 25.5t-104 64.5v-606h-184z" />
<glyph unicode="&#x3c0;" horiz-adv-x="1124" d="M20 690l6 18l9 28.5t11.5 31t17 38t21.5 39.5t28 44q76 106 192 106h764v-176h-258q-25 -240 -25 -481q0 -43 14.5 -85t37.5 -65q75 -65 151 -8q18 14 29 33.5t14.5 32t6 35t3.5 26.5h43q-4 -126 -48 -203.5t-99 -111.5q-22 -14 -50 -21.5t-62 -4t-60 21.5 q-66 50 -100 151q-19 55 -21.5 165t6.5 185l35 330h-231q-41 -473 -95 -719q-12 -62 -38 -94.5t-74 -44.5q-40 -10 -79.5 15.5t-47.5 62.5q-2 25 -3.5 38.5t6.5 30t13 24.5t15.5 21.5t15.5 20.5q7 9 27.5 32.5t33 39.5t25.5 44.5t16 59.5l60 469h-97q-41 0 -79 -19.5 t-56 -45.5l-43 -64h-35z" />
<glyph unicode="&#x2000;" horiz-adv-x="1044" />
<glyph unicode="&#x2001;" horiz-adv-x="2089" />
<glyph unicode="&#x2002;" horiz-adv-x="1044" />
<glyph unicode="&#x2003;" horiz-adv-x="2089" />
<glyph unicode="&#x2004;" horiz-adv-x="696" />
<glyph unicode="&#x2005;" horiz-adv-x="522" />
<glyph unicode="&#x2006;" horiz-adv-x="348" />
<glyph unicode="&#x2007;" horiz-adv-x="348" />
<glyph unicode="&#x2008;" horiz-adv-x="261" />
<glyph unicode="&#x2009;" horiz-adv-x="417" />
<glyph unicode="&#x200a;" horiz-adv-x="116" />
<glyph unicode="&#x2010;" horiz-adv-x="679" d="M117 580v153h448v-153h-448z" />
<glyph unicode="&#x2011;" horiz-adv-x="679" d="M117 580v153h448v-153h-448z" />
<glyph unicode="&#x2012;" horiz-adv-x="679" d="M117 580v153h448v-153h-448z" />
<glyph unicode="&#x2013;" horiz-adv-x="1024" d="M0 580v153h1024v-153h-1024z" />
<glyph unicode="&#x2014;" horiz-adv-x="2048" d="M0 580v153h2048v-153h-2048z" />
<glyph unicode="&#x2018;" horiz-adv-x="567" d="M123 1030l272 547l115 -47l-225 -563z" />
<glyph unicode="&#x2019;" horiz-adv-x="567" d="M57 1014l226 563l161 -64l-272 -546z" />
<glyph unicode="&#x201a;" horiz-adv-x="567" d="M111 -319l225 563l160 -64l-273 -547z" />
<glyph unicode="&#x201c;" horiz-adv-x="899" d="M123 1030l272 547l115 -47l-225 -563zM463 1030l272 547l115 -47l-225 -563z" />
<glyph unicode="&#x201d;" horiz-adv-x="899" d="M49 1014l225 563l162 -64l-272 -546zM389 1014l225 563l162 -64l-272 -546z" />
<glyph unicode="&#x201e;" horiz-adv-x="899" d="M102 -319l226 563l159 -64l-272 -547zM442 -319l226 563l159 -64l-272 -547z" />
<glyph unicode="&#x2020;" d="M129 1038v176h371v564h184v-564h371v-176h-371v-1218h-184v1218h-371z" />
<glyph unicode="&#x2021;" d="M129 686v176h371v250h-371v176h371v490h184v-490h371v-176h-371v-250h371v-176h-371v-864h-184v864h-371z" />
<glyph unicode="&#x2022;" d="M207 772q0 160 112 273.5t273 113.5q160 0 273.5 -113.5t113.5 -273.5t-114 -272.5t-273 -112.5t-272 112t-113 273z" />
<glyph unicode="&#x2026;" horiz-adv-x="2048" d="M221 86q0 48 35 83.5t84 35.5t84 -35.5t35 -83.5q0 -50 -34.5 -84.5t-84.5 -34.5t-84.5 34.5t-34.5 84.5zM905 86q0 48 35 83.5t84 35.5t84 -35.5t35 -83.5q0 -50 -34.5 -84.5t-84.5 -34.5t-84.5 34.5t-34.5 84.5zM1589 86q0 48 35 83.5t84 35.5t84 -35.5t35 -83.5 q0 -50 -34.5 -84.5t-84.5 -34.5t-84.5 34.5t-34.5 84.5z" />
<glyph unicode="&#x202f;" horiz-adv-x="417" />
<glyph unicode="&#x2030;" horiz-adv-x="2273" d="M45 1225q0 147 106 249.5t255 102.5t254.5 -102.5t105.5 -249.5q0 -145 -108 -248t-252 -103t-252.5 103t-108.5 248zM168 1225q0 -92 72 -160t166 -68t165.5 68t71.5 160q0 93 -71 161t-166 68t-166.5 -68t-71.5 -161zM238 18l903 1559l92 -53l-901 -1557zM707 317 q0 147 106 250t254 103t254 -103t106 -250q0 -145 -108 -247.5t-252 -102.5t-252 102.5t-108 247.5zM829 317q0 -92 72 -159.5t166 -67.5t166 67.5t72 159.5q0 93 -72 161.5t-166 68.5t-166 -68.5t-72 -161.5zM1509 317q0 147 106 250t255 103q148 0 254 -103t106 -250 q0 -145 -108 -247.5t-252 -102.5t-252.5 103t-108.5 247zM1632 317q0 -92 72 -159.5t166 -67.5t165.5 67.5t71.5 159.5q0 93 -71.5 161.5t-165.5 68.5t-166 -68.5t-72 -161.5z" />
<glyph unicode="&#x2039;" horiz-adv-x="475" d="M113 1884q0 52 35.5 87.5t89.5 35.5q51 0 86.5 -36t35.5 -87q0 -54 -35.5 -89.5t-86.5 -35.5q-54 0 -89.5 35.5t-35.5 89.5zM141 0v1544h193v-1544h-193z" />
<glyph unicode="&#x203a;" horiz-adv-x="520" d="M168 0v958h184v-958h-184z" />
<glyph unicode="&#x2044;" horiz-adv-x="1597" d="M43 768q0 219 107 405t291.5 295t402.5 109q181 0 347.5 -78.5t281.5 -220.5l-136 -129q-82 115 -213.5 183.5t-271.5 68.5q-127 0 -241 -49.5t-196 -133.5t-130.5 -200t-48.5 -244q0 -119 47.5 -234t127 -202.5t191.5 -141t234 -53.5q88 0 178 36.5t161.5 97t117.5 147 t48 178.5h-399v176h612v-61q0 -157 -54 -295.5t-149 -238.5t-232 -158t-296 -58q-211 0 -391.5 110.5t-284.5 295t-104 395.5zM494 2025h147q32 -76 81.5 -114.5t127.5 -38.5q80 0 128 38t83 115h145q-25 -127 -125 -207.5t-231 -80.5q-129 0 -230 81t-126 207z" />
<glyph unicode="&#x205f;" horiz-adv-x="522" />
<glyph unicode="&#x20ac;" horiz-adv-x="1136" d="M51 485q0 98 32 189t89.5 160.5t143 111t186.5 41.5q213 0 334 -192h4v163h184v-940q0 -132 -21 -229.5t-72 -176.5t-144.5 -120t-229.5 -41q-204 0 -331.5 117t-131.5 317h185q0 -127 78 -198.5t208 -71.5q82 0 138 26.5t85 77t40.5 109.5t11.5 139v183h-4 q-57 -85 -141.5 -134t-184.5 -49q-141 0 -247.5 73t-159 189.5t-52.5 255.5zM207 1432h147q33 -76 82 -115t127 -39q80 0 128 38t83 116h146q-25 -127 -125.5 -208t-231.5 -81q-129 0 -230 81.5t-126 207.5zM236 479q0 -92 34 -170t104.5 -128t164.5 -50q145 0 228 100 t83 248q0 146 -83.5 245t-227.5 99q-137 0 -220 -102t-83 -242z" />
<glyph unicode="&#x2122;" horiz-adv-x="1925" d="M70 1413v131h696v-131h-283v-731h-131v731h-282zM924 682v862h215l247 -608l256 608h213v-862h-131v731h-4l-295 -731h-79l-287 731h-4v-731h-131z" />
<glyph unicode="&#x2202;" horiz-adv-x="1011" d="M55 319q-7 76 13 154t45.5 124t54.5 81q125 153 291 145q90 -4 147.5 -30.5t159.5 -108.5q19 102 22 238q0 70 -21.5 170t-43.5 155q-23 59 -84.5 117.5t-144.5 65.5q-31 2 -54.5 2.5t-43.5 -2t-34 -5.5t-32.5 -9.5t-31.5 -12.5t-38.5 -17t-46.5 -20l-80 102 q213 86 371 48q218 -54 344 -275q42 -74 66 -176.5t28 -158t4 -101.5q0 -94 -26 -258t-80 -279q-47 -104 -90 -161t-123 -101q-69 -38 -143.5 -46t-138.5 9t-118 54q-155 107 -172 296zM229 303q0 -195 95 -256q77 -53 170 -10q56 24 94.5 70t70.5 120q64 161 91 385 q-3 4 -18.5 22.5t-23 25.5t-24 23.5t-30.5 24t-34 17.5t-43 14t-49 4q-117 -3 -196 -110q-103 -144 -103 -330z" />
<glyph unicode="&#x220f;" horiz-adv-x="1685" d="M51 -160q102 0 150.5 33.5t48.5 132.5v1282q0 54 -15.5 94t-36.5 60t-50.5 32t-50 14.5t-42.5 2.5v47h1583v-47q-22 0 -41.5 -2.5t-49 -14.5t-50.5 -32t-36 -60t-15 -94v-1282q0 -99 49 -132.5t150 -33.5v-47h-627v47q49 0 81.5 6.5t60.5 23.5t41 51t13 85v1419h-733 v-1419q0 -99 49 -132.5t150 -33.5v-47h-629v47z" />
<glyph unicode="&#x2211;" horiz-adv-x="1460" d="M29 -205l714 815l-710 930q168 -14 213 -14h1018l12 -326h-41q-28 97 -43 124q-41 76 -141 98q-53 12 -129 12h-539l559 -734l-602 -694h760q81 0 128 21.5t78.5 67.5t69.5 143h47q-31 -131 -40.5 -173t-22 -113t-25.5 -173q-18 3 -51 9t-58 9.5t-48 3.5h-1031 q-21 0 -59.5 -3t-58.5 -3z" />
<glyph unicode="&#x221a;" horiz-adv-x="1124" d="M20 922l299 147l404 -825l260 1634l72 -10l-307 -1946l-498 1028l-197 -96z" />
<glyph unicode="&#x221e;" horiz-adv-x="1460" d="M53 571q8 89 70.5 159t152 90.5t191.5 -19.5q68 -30 115.5 -65.5t148.5 -127.5q101 92 148.5 127.5t115.5 65.5q102 40 191.5 19.5t152 -90.5t70.5 -159q6 -58 -14.5 -116.5t-59.5 -104.5t-99 -73t-128 -21q-60 6 -114 26t-97 49t-71 52.5t-58.5 54t-36.5 35.5 q-6 -5 -36.5 -35.5t-58.5 -54t-71 -52.5t-97 -49t-114 -26q-68 -6 -128.5 21t-99 73.5t-59 105t-14.5 115.5zM156 530q4 -89 77.5 -141t159.5 -31q76 18 118.5 47.5t132.5 116.5q13 12 20 19q-94 80 -145 116t-99 50q-66 21 -115.5 11t-82.5 -42t-49.5 -70.5t-16.5 -75.5z M799 541q103 -100 134 -123q55 -41 136 -60q86 -21 160 31t78 141q0 51 -29.5 100.5t-88.5 78t-147 -1.5q-47 -14 -97 -49.5t-146 -116.5z" />
<glyph unicode="&#x222b;" horiz-adv-x="561" d="M10 -129q-26 75 49 113q17 9 32 10t30 -7t26.5 -17.5t28.5 -26.5q40 -45 65 32q22 70 17 177q-12 304 -12 643v295q0 254 11 391.5t42 242.5q13 37 38 76.5t54 57.5q26 17 59 18t57.5 -7.5t43.5 -21.5q17 -11 30.5 -33.5t15.5 -50.5t-19 -53q-24 -29 -67.5 -36t-78.5 22 q-35 33 -57.5 22.5t-24.5 -43.5q-2 -30 18.5 -276t20.5 -400l-2 -442q-2 -359 -70 -600q-5 -17 -9.5 -31t-9.5 -25t-8.5 -19t-9 -16.5t-7.5 -12t-8 -11.5t-7 -10q-15 -22 -75.5 -42.5t-104.5 1.5q-23 11 -42 35.5t-26 44.5z" />
<glyph unicode="&#x2248;" horiz-adv-x="1124" d="M29 332q160 212 399 147l309 -86q66 -22 162 19q27 12 57 35.5t48 50.5l75 -49q-59 -98 -163.5 -138t-200.5 -14l-307 88q-47 13 -88.5 12.5t-67.5 -7.5t-53 -26.5t-37 -30.5t-28 -34l-17 -23zM29 641q160 212 399 147l309 -86q66 -22 162 19q27 12 57 35.5t48 50.5 l75 -49q-59 -98 -163.5 -138t-200.5 -14l-307 88q-40 11 -76 13.5t-63.5 -5t-48.5 -16.5t-39 -26t-27.5 -27.5t-22 -27t-14.5 -19.5z" />
<glyph unicode="&#x2260;" horiz-adv-x="1124" d="M31 279v112h385l157 285h-542v112h606l186 336l101 -57l-156 -279h338v-112h-399l-160 -285h559v-112h-621l-184 -330l-100 57l151 273h-321z" />
<glyph unicode="&#x2264;" horiz-adv-x="1124" d="M59 0v113h1018v-113h-1018zM59 711v127l1018 471v-127l-887 -408l887 -407v-127z" />
<glyph unicode="&#x2265;" horiz-adv-x="1124" d="M59 0v113h1018v-113h-1018zM59 240v127l887 407l-887 408v127l1018 -471v-127z" />
<glyph unicode="&#x25ca;" horiz-adv-x="1011" d="M37 772l397 754h123l397 -754l-397 -772h-123zM160 772l336 -661l335 661l-335 643z" />
<glyph unicode="&#x25fc;" horiz-adv-x="962" d="M0 0v963h963v-963h-963z" />
<glyph unicode="&#xfb01;" horiz-adv-x="1099" d="M66 399l194 41q0 -128 86 -210.5t213 -82.5q121 0 203 89t82 213q0 59 -21.5 106t-63 81.5t-82.5 57.5t-99 47l-107 45q-75 33 -128.5 65.5t-104 79t-77 108.5t-26.5 139q0 121 65 213.5t167.5 139t222.5 46.5q129 0 231.5 -60.5t165.5 -173.5l-153 -92q-44 74 -103 110 t-145 36q-98 0 -178 -61.5t-80 -157.5q0 -139 215 -222l110 -43q89 -36 153.5 -74.5t119 -93t82.5 -128.5t28 -168q0 -209 -141 -345.5t-352 -136.5q-186 0 -319 122t-158 310zM367 -332l178 281l145 -60l-215 -276z" />
<glyph unicode="&#xfb02;" horiz-adv-x="786" d="M72 182l157 72q33 -60 72.5 -91.5t101.5 -31.5t104 37.5t42 97.5q0 35 -15.5 57t-52.5 48l-180 96q-48 27 -74 45t-55.5 47t-42 65.5t-12.5 84.5q0 117 82.5 197.5t199.5 80.5q87 0 155.5 -44.5t107.5 -123.5l-150 -80q-18 37 -50.5 60.5t-72.5 23.5t-70 -27t-30 -67 q0 -27 15.5 -50.5t46 -43t61.5 -34.5t76 -34q16 -7 24 -10q48 -21 84 -43t69 -54t50.5 -76t17.5 -99q0 -135 -97.5 -226.5t-232.5 -91.5q-107 0 -201.5 58t-129.5 157zM225 -330l178 281l146 -60l-215 -276z" />
<glyph horiz-adv-x="591" />
</font>
</defs>
</svg>
