<?xml version="1.0" standalone="no"?>
<!DOCTYPE svg PUBLIC "-//W3C//DTD SVG 1.1//EN" "http://www.w3.org/Graphics/SVG/1.1/DTD/svg11.dtd" >
<svg xmlns="http://www.w3.org/2000/svg" xmlns:xlink="http://www.w3.org/1999/xlink" version="1.1">
<metadata></metadata>
<defs>
<font id="gotham_blackregular" horiz-adv-x="1024" >
<font-face units-per-em="2048" ascent="1638" descent="-410" />
<missing-glyph horiz-adv-x="567" />
<glyph unicode="fi" horiz-adv-x="1441" d="M45 797v305h129v24q0 193 94 287q51 51 121 73.5t168 22.5q90 0 148.5 -8t105.5 -22v-275q-35 10 -69.5 16.5t-75.5 6.5q-111 0 -111 -105v-26h254v-299h-248v-797h-387v797h-129zM932 1208v287h405v-287h-405zM940 0v1108h389v-1108h-389z" />
<glyph unicode="fl" horiz-adv-x="1441" d="M45 797v305h129v24q0 193 94 287q51 51 121 73.5t168 22.5q90 0 148.5 -8t105.5 -22v-275q-35 10 -69.5 16.5t-75.5 6.5q-111 0 -111 -105v-26h254v-299h-248v-797h-387v797h-129zM940 0v1495h389v-1495h-389z" />
<glyph unicode="&#xd;" horiz-adv-x="567" />
<glyph unicode=" "  horiz-adv-x="567" />
<glyph unicode="&#x09;" horiz-adv-x="567" />
<glyph unicode="&#xa0;" horiz-adv-x="567" />
<glyph unicode="!" horiz-adv-x="663" d="M111 1260v174h442v-174l-119 -793h-205zM129 0v348h406v-348h-406z" />
<glyph unicode="&#x22;" horiz-adv-x="1099" d="M70 698l45 736h417v-11l-260 -725h-202zM594 698l47 736h418v-11l-260 -725h-205z" />
<glyph unicode="#" horiz-adv-x="1445" d="M59 276v330h217l39 230h-188v329h246l45 269h297l-47 -269h260l45 269h297l-45 -269h159v-329h-217l-39 -230h189v-330h-244l-49 -276h-297l49 276h-260l-47 -276h-297l47 276h-160zM563 598h275l41 246h-273z" />
<glyph unicode="$" horiz-adv-x="1363" d="M51 207l185 272q98 -70 191 -110.5t189 -57.5v246q-123 29 -216 65.5t-155.5 89t-94 122t-31.5 165.5v5q0 90 32.5 165.5t95 132t154 91t207.5 43.5v116h213v-122q127 -14 233.5 -55.5t198.5 -104.5l-168 -275q-63 45 -133.5 76t-140.5 47v-237q123 -29 214 -67 t152.5 -90t92 -124t30.5 -166v-4q0 -94 -34.5 -169t-98 -130t-152.5 -88t-198 -43v-201h-213v205q-152 16 -294 67.5t-259 135.5zM479 1030q0 -41 28 -66.5t111 -48.5v222q-76 -6 -107.5 -34t-31.5 -69v-4zM809 299q137 14 137 104v5q0 41 -28.5 67.5t-108.5 48.5v-225z" />
<glyph unicode="%" horiz-adv-x="1841" d="M72 1065v4q0 80 26.5 149.5t74.5 122t116.5 83t152.5 30.5t152 -30.5t116 -83t74.5 -122t26.5 -147.5v-4q0 -80 -26.5 -149.5t-76 -122t-118 -83t-150.5 -30.5q-84 0 -151.5 29.5t-115.5 82t-74.5 122t-26.5 149.5zM229 0l1106 1434h277l-1106 -1434h-277zM322 1067 q0 -70 34.5 -115t85.5 -45q53 0 86 45t33 113v4q0 68 -33.5 114t-87.5 46q-53 0 -85.5 -45t-32.5 -113v-4zM1030 362v5q0 80 26.5 149.5t75 121.5t117 83t152.5 31t151.5 -30t115.5 -82t74.5 -121.5t26.5 -149.5v-4q0 -78 -26.5 -149t-75.5 -123t-117.5 -82.5t-150.5 -30.5 q-84 0 -151.5 30.5t-116 82.5t-75 122t-26.5 147zM1280 365q0 -68 35 -114t86 -46q53 0 86 45t33 112v5q0 70 -34 114.5t-87 44.5q-55 0 -87 -44t-32 -113v-4z" />
<glyph unicode="&#x26;" horiz-adv-x="1429" d="M43 389v4q0 270 291 402q-49 72 -71.5 138t-22.5 136v4q0 78 30.5 148.5t89 124t142.5 85t188 31.5q98 0 177 -28.5t134.5 -77.5t85 -117t29.5 -145v-4q0 -133 -76.5 -223.5t-203.5 -149.5l159 -156q35 51 69 108.5t66 118.5l263 -131q-45 -82 -91.5 -157.5t-97.5 -145.5 l193 -190l-269 -193l-147 150q-92 -70 -196.5 -108t-229.5 -38q-111 0 -204 28t-161.5 81t-107.5 130t-39 175zM440 410q0 -63 47 -102.5t121 -39.5q43 0 86 16.5t84 45.5l-235 239q-53 -33 -78 -72.5t-25 -82.5v-4zM575 1059q0 -41 18.5 -79t55.5 -85q152 68 152 176v4 q0 53 -31 84t-80 31q-51 0 -83 -35t-32 -92v-4z" />
<glyph unicode="'" horiz-adv-x="581" d="M70 698l45 736h426v-11l-260 -725h-211z" />
<glyph unicode="(" horiz-adv-x="911" d="M90 588q0 156 40 283.5t116 234t187.5 195t254.5 163.5l162 -241q-98 -68 -170 -138.5t-118 -147.5t-68.5 -163t-22.5 -186t22.5 -186.5t68.5 -163t118 -147.5t170 -138l-162 -242q-143 76 -254.5 164t-187.5 194.5t-116 234.5t-40 284z" />
<glyph unicode=")" horiz-adv-x="911" d="M61 -47q98 68 170 138.5t118 147t68.5 162.5t22.5 187q0 100 -22.5 186t-68.5 163t-117.5 147.5t-170.5 138.5l162 241q143 -76 255 -164t187.5 -194.5t115.5 -234.5t40 -283q0 -156 -40 -284t-115.5 -234.5t-187 -194.5t-255.5 -164z" />
<glyph unicode="*" horiz-adv-x="870" d="M57 973l260 92l-260 92l111 191l211 -181l-51 271h215l-51 -271l210 181l111 -191l-260 -92l260 -92l-111 -189l-210 181l51 -271h-215l51 271l-211 -181z" />
<glyph unicode="+" horiz-adv-x="1310" d="M131 549v344h346v352h357v-352h346v-344h-346v-352h-357v352h-346z" />
<glyph unicode="," horiz-adv-x="581" d="M41 -188q211 25 205 192h-158v399h406v-325q0 -115 -30 -193t-85 -126t-133 -71.5t-174 -25.5z" />
<glyph unicode="-" horiz-adv-x="835" d="M82 469v342h672v-342h-672z" />
<glyph unicode="." horiz-adv-x="581" d="M88 0v399h406v-399h-406z" />
<glyph unicode="/" horiz-adv-x="1095" d="M-78 -262l907 1896h316l-907 -1896h-316z" />
<glyph unicode="0" horiz-adv-x="1495" d="M84 713v4q0 152 47 288t133 237t209 160.5t277 59.5t275.5 -58t207.5 -159.5t132 -237t46 -286.5v-4q0 -152 -46 -288t-133 -237.5t-210 -161t-277 -59.5t-276.5 58.5t-207.5 160t-131 236.5t-46 287zM483 717q0 -86 19.5 -159t54.5 -125t84.5 -80.5t108.5 -28.5 t108 28.5t83 80.5t52.5 123t18.5 157v4q0 86 -19.5 157.5t-54.5 124t-84 82t-109 29.5q-59 0 -107 -28.5t-83 -80t-53.5 -123t-18.5 -157.5v-4z" />
<glyph unicode="1" horiz-adv-x="864" d="M16 1325l420 119h289v-1444h-391v1073l-242 -55z" />
<glyph unicode="2" horiz-adv-x="1277" d="M68 0v299l536 410q100 78 142 135t42 123q0 68 -44 106.5t-115 38.5q-72 0 -136.5 -44t-148.5 -140l-268 223q57 74 116.5 131t128 96t151.5 59.5t187 20.5q117 0 214.5 -33.5t167 -93t108.5 -144.5t39 -186v-4q0 -86 -21.5 -153.5t-64.5 -126t-104.5 -111.5t-141.5 -110 l-246 -172h592v-324h-1134z" />
<glyph unicode="3" horiz-adv-x="1271" d="M37 225l250 250q78 -78 160.5 -121t181.5 -43q86 0 135 40t49 106v4q0 70 -60.5 108.5t-172.5 38.5h-168l-58 207l330 297h-549v322h1036v-285l-342 -293q76 -16 143.5 -47t119 -80t80 -116.5t28.5 -159.5v-4q0 -109 -42 -197t-115.5 -150.5t-175 -96.5t-220.5 -34 q-209 0 -357.5 69t-252.5 185z" />
<glyph unicode="4" horiz-adv-x="1411" d="M27 559l743 885h401v-869h183v-296h-183v-279h-385v279h-694zM444 573h342v412z" />
<glyph unicode="5" horiz-adv-x="1290" d="M39 199l227 266q88 -74 172 -115t176 -41q98 0 154.5 45t56.5 123v4q0 78 -58 122t-153 44q-66 0 -122 -20.5t-107 -51.5l-235 132l40 727h959v-328h-645l-12 -217q49 23 103 37t126 14q96 0 185 -27.5t156.5 -83t108.5 -141.5t41 -203v-4q0 -121 -44 -215t-121.5 -159.5 t-186 -100.5t-239.5 -35q-190 0 -329.5 61.5t-252.5 166.5z" />
<glyph unicode="6" horiz-adv-x="1355" d="M84 672v4q0 168 41 311t124 248.5t208 166t293 60.5q152 0 262 -40t215 -117l-187 -281q-66 49 -132 79t-152 30q-127 0 -191.5 -85t-79.5 -221q57 43 130 77t180 34q94 0 180 -29.5t150.5 -86t103.5 -140.5t39 -190v-5q0 -121 -45 -216t-122 -161.5t-181.5 -102.5 t-221.5 -36q-154 0 -257 43t-181 121q-80 80 -128 208t-48 329zM479 467q0 -78 54.5 -132t148.5 -54t146.5 53t52.5 131v4q0 78 -54.5 131t-148.5 53t-146.5 -52t-52.5 -130v-4z" />
<glyph unicode="7" horiz-adv-x="1257" d="M94 1100v334h1104v-299l-633 -1135h-438l631 1100h-664z" />
<glyph unicode="8" horiz-adv-x="1290" d="M55 395v4q0 131 64.5 213t181.5 131q-84 47 -140.5 121t-56.5 191v4q0 86 39 158.5t111 127t171 84t220 29.5t220.5 -29.5t171 -84t110.5 -127t39 -158.5v-4q0 -117 -56.5 -190.5t-140.5 -121.5q55 -25 100.5 -56.5t77 -72.5t50 -93t18.5 -120v-4q0 -96 -44 -174 t-122 -133t-186.5 -85t-237.5 -30t-237.5 31t-186.5 86t-122 132t-44 171zM438 434q0 -66 53.5 -114t153.5 -48t153.5 48.5t53.5 113.5v4q0 70 -57.5 113t-149.5 43t-149.5 -43t-57.5 -113v-4zM469 1010q0 -68 48 -113t128 -45t128 44t48 112v4q0 59 -47 105t-129 46 t-129 -45t-47 -104v-4z" />
<glyph unicode="9" horiz-adv-x="1355" d="M88 936v4q0 119 43 215t120 165t181.5 105.5t226.5 36.5q156 0 257.5 -43t183.5 -125q78 -78 125 -204.5t47 -325.5v-4q0 -176 -43 -321.5t-127 -249t-208 -161t-286 -57.5q-160 0 -280.5 46t-218.5 124l186 275q74 -59 147.5 -87t159.5 -28q123 0 189.5 80t80.5 219 q-55 -53 -130.5 -85t-172.5 -32q-104 0 -192 32t-152.5 90.5t-100.5 142t-36 188.5zM473 956q0 -82 55.5 -135t149.5 -53t147.5 54.5t53.5 131.5v4q0 84 -55.5 139.5t-149.5 55.5t-147.5 -54.5t-53.5 -137.5v-5z" />
<glyph unicode=":" horiz-adv-x="602" d="M98 0v399h406v-399h-406zM98 709v399h406v-399h-406z" />
<glyph unicode=";" horiz-adv-x="602" d="M51 -193q211 25 205 193h-158v399h406v-325q0 -115 -30 -193t-85 -126t-133 -71.5t-174 -25.5zM98 709v399h406v-399h-406z" />
<glyph unicode="&#x3c;" horiz-adv-x="1318" d="M133 539v362l1018 406v-363l-670 -223l670 -223v-365z" />
<glyph unicode="=" horiz-adv-x="1308" d="M152 274v342h1005v-342h-1005zM152 825v342h1005v-342h-1005z" />
<glyph unicode="&#x3e;" horiz-adv-x="1318" d="M168 133v363l670 223l-670 223v365l1018 -406v-362z" />
<glyph unicode="?" horiz-adv-x="1105" d="M20 1241q94 94 223.5 154.5t307.5 60.5q113 0 207 -29.5t161.5 -85t105.5 -135.5t38 -180v-4q0 -96 -31 -167t-84 -121t-125.5 -83t-158.5 -53l-25 -131h-248l-51 342l16 18q178 14 250 56.5t72 107.5v2q0 53 -40 83t-114 30q-72 0 -149.5 -35t-149.5 -100zM307 0v348 h404v-348h-404z" />
<glyph unicode="@" horiz-adv-x="1976" d="M92 563q0 184 69.5 348t190.5 287t287 193.5t360 70.5q190 0 352 -65.5t280 -175t184.5 -254t66.5 -301.5q0 -139 -37 -243t-97 -171.5t-139 -101t-163 -33.5q-129 0 -204 46t-112 109q-59 -68 -131.5 -109.5t-169.5 -41.5q-80 0 -148.5 28.5t-118.5 83t-78.5 130 t-28.5 169.5q0 111 36.5 207.5t98 169t143.5 114.5t174 42q100 0 167 -44t108 -108l24 125l318 -49l-94 -528q-4 -23 -6.5 -45.5t-2.5 -44.5q0 -51 35 -86t98 -35q100 0 171 105.5t71 310.5q0 141 -58.5 271t-165 228.5t-252.5 156.5t-321 58q-178 0 -329.5 -64.5t-260 -175 t-170 -259t-61.5 -318.5q0 -172 60.5 -320.5t170 -258t262 -172t335.5 -62.5q154 0 269.5 35t231.5 102l41 -65q-119 -72 -250.5 -113t-291.5 -41q-199 0 -366 69.5t-289 191.5t-190.5 285t-68.5 349zM782 557q0 -78 42 -119t108 -41q41 0 76.5 18.5t62.5 50.5t42 75t15 92 q0 72 -42 113.5t-107 41.5q-41 0 -77 -18t-62.5 -49t-42 -73t-15.5 -91z" />
<glyph unicode="A" horiz-adv-x="1628" d="M12 0l611 1444h383l610 -1444h-426l-105 256h-553l-102 -256h-418zM649 565h322l-160 408z" />
<glyph unicode="B" horiz-adv-x="1464" d="M127 0v1434h735q135 0 231.5 -33t159.5 -96q43 -43 68 -100.5t25 -131.5v-4q0 -125 -62.5 -201.5t-159.5 -117.5q131 -43 208 -124t77 -227v-4q0 -186 -142.5 -290.5t-400.5 -104.5h-739zM514 319h307q92 0 141.5 34t49.5 98v4q0 59 -47 94t-148 35h-303v-265zM514 862 h250q92 0 140 31t48 94v4q0 59 -45 91t-135 32h-258v-252z" />
<glyph unicode="C" horiz-adv-x="1495" d="M78 713v4q0 156 57.5 292t157.5 237.5t238.5 158.5t302.5 57q111 0 200.5 -21.5t164.5 -61.5t135.5 -95t107.5 -121l-299 -231q-61 78 -135 123t-179 45q-76 0 -138 -30t-107 -81t-71 -120.5t-26 -147.5v-4q0 -80 26 -150.5t71 -122t107.5 -81t137.5 -29.5q55 0 101.5 12 t84.5 36t71.5 55.5t66.5 70.5l299 -213q-51 -70 -111.5 -129.5t-137.5 -102.5t-172 -67.5t-214 -24.5q-154 0 -289 55.5t-234 155t-157.5 235.5t-58.5 296z" />
<glyph unicode="D" horiz-adv-x="1566" d="M127 0v1434h553q193 0 343.5 -52.5t253.5 -146.5t157.5 -224t54.5 -286v-4q0 -156 -55.5 -288t-160 -228t-257 -150.5t-344.5 -54.5h-545zM524 352h162q178 0 286.5 94.5t108.5 268.5v4q0 172 -108.5 267t-286.5 95h-162v-729z" />
<glyph unicode="E" horiz-adv-x="1366" d="M127 0v1434h1153v-338h-760v-217h688v-314h-688v-227h770v-338h-1163z" />
<glyph unicode="F" horiz-adv-x="1327" d="M127 0v1434h1147v-349h-750v-243h678v-330h-678v-512h-397z" />
<glyph unicode="G" horiz-adv-x="1574" d="M78 713v4q0 156 58.5 292t160.5 237.5t244.5 158.5t308.5 57q190 0 328.5 -55t253.5 -154l-234 -280q-78 66 -159 100.5t-187 34.5q-78 0 -144.5 -30.5t-115.5 -84t-78 -125t-29 -153.5v-4q0 -86 29 -160t81 -126t122.5 -82t156.5 -30q139 0 230 60v174h-283v291h660 v-645q-115 -94 -270.5 -158t-352.5 -64q-168 0 -310 54.5t-246.5 152.5t-164 234.5t-59.5 300.5z" />
<glyph unicode="H" horiz-adv-x="1558" d="M127 0v1434h397v-537h510v537h398v-1434h-398v545h-510v-545h-397z" />
<glyph unicode="I" horiz-adv-x="669" d="M135 0v1434h400v-1434h-400z" />
<glyph unicode="J" horiz-adv-x="1155" d="M8 217l256 242q53 -63 105.5 -98t117.5 -35q76 0 120 50t44 150v908h396v-910q0 -135 -35 -233t-107 -170t-171 -109t-222 -37q-94 0 -170 18.5t-137.5 51.5t-110.5 77t-86 95z" />
<glyph unicode="K" horiz-adv-x="1495" d="M127 0v1434h397v-582l494 582h471l-543 -617l561 -817h-477l-360 532l-146 -161v-371h-397z" />
<glyph unicode="L" horiz-adv-x="1261" d="M127 0v1434h397v-1086h695v-348h-1092z" />
<glyph unicode="M" horiz-adv-x="1777" d="M127 0v1434h420l342 -555l342 555h420v-1434h-396v823l-366 -561h-8l-365 557v-819h-389z" />
<glyph unicode="N" horiz-adv-x="1607" d="M127 0v1434h371l589 -758v758h394v-1434h-348l-613 786v-786h-393z" />
<glyph unicode="O" horiz-adv-x="1701" d="M78 713v4q0 154 58.5 290t162.5 237.5t245.5 159.5t307.5 58t307 -58t243.5 -158.5t161 -236t58.5 -288.5v-4q0 -154 -58.5 -290t-163 -237.5t-245.5 -160t-307 -58.5t-307.5 58.5t-243.5 159t-160.5 235.5t-58.5 289zM485 717q0 -78 27 -147.5t75 -123t115.5 -85 t149.5 -31.5t149.5 30.5t114.5 83t74 122t27 147.5v4q0 78 -27 147.5t-76 122.5t-116.5 85t-149.5 32t-148.5 -31t-114.5 -83t-74 -121.5t-26 -147.5v-4z" />
<glyph unicode="P" horiz-adv-x="1378" d="M127 0v1434h614q135 0 246 -34t188.5 -98.5t119.5 -158.5t42 -213v-4q0 -127 -46 -223.5t-128 -162t-195.5 -98t-246.5 -32.5h-197v-410h-397zM524 721h189q106 0 166.5 50t60.5 136v4q0 92 -60.5 140.5t-168.5 48.5h-187v-379z" />
<glyph unicode="Q" horiz-adv-x="1701" d="M78 713v4q0 154 58.5 290t162.5 237.5t245.5 159.5t307.5 58t307 -58t243.5 -158.5t161 -236t58.5 -288.5v-4q0 -115 -33 -219.5t-94 -192.5l147 -125l-200 -223l-158 141q-92 -59 -202.5 -93t-233.5 -34q-166 0 -307.5 58.5t-243.5 159t-160.5 235.5t-58.5 289zM485 713 q0 -78 27 -148.5t75 -124t115.5 -85t149.5 -31.5q76 0 145 26l-198 170l200 225l195 -176q25 63 25 140v4q0 78 -27 148.5t-76 124.5t-117.5 86t-150.5 32t-148.5 -32t-114.5 -85t-74 -122.5t-26 -147.5v-4z" />
<glyph unicode="R" horiz-adv-x="1472" d="M127 0v1434h678q166 0 280.5 -41t186.5 -115q127 -123 127 -334v-4q0 -166 -80 -274.5t-215 -165.5l342 -500h-459l-289 434h-4h-170v-434h-397zM524 745h262q102 0 157.5 46.5t55.5 123.5v5q0 86 -57 128t-158 42h-260v-345z" />
<glyph unicode="S" horiz-adv-x="1335" d="M18 213l222 264q215 -172 465 -172q80 0 121.5 25.5t41.5 72.5v5q0 23 -10 40t-37.5 33.5t-74 31.5t-119.5 32q-115 27 -213.5 58.5t-171 81.5t-114.5 125t-42 185v4q0 100 38 184.5t110.5 146t175 95t231.5 33.5q184 0 328.5 -48t261.5 -142l-199 -281 q-98 70 -201.5 105.5t-199.5 35.5q-72 0 -108 -26.5t-36 -65.5v-4q0 -25 11.5 -43t39 -33.5t76 -31t121.5 -31.5q123 -27 222.5 -62.5t169 -87t106.5 -124t37 -173.5v-4q0 -111 -42 -196.5t-118 -146t-182.5 -92.5t-237.5 -32q-193 0 -365.5 59.5t-306.5 178.5z" />
<glyph unicode="T" horiz-adv-x="1351" d="M47 1085v349h1258v-349h-431v-1085h-397v1085h-430z" />
<glyph unicode="U" horiz-adv-x="1552" d="M109 629v805h403v-797q0 -156 71.5 -230.5t192.5 -74.5t192.5 71.5t71.5 223.5v807h404v-795q0 -174 -48 -300t-135 -207t-211 -120t-278 -39t-276.5 39t-208.5 120t-132 205t-46 292z" />
<glyph unicode="V" horiz-adv-x="1556" d="M12 1434h445l325 -908l326 908h436l-581 -1444h-369z" />
<glyph unicode="W" horiz-adv-x="2287" d="M31 1434h420l249 -830l277 834h342l276 -834l250 830h412l-479 -1444h-346l-289 825l-287 -825h-346z" />
<glyph unicode="X" horiz-adv-x="1499" d="M23 0l491 729l-471 705h457l254 -404l256 404h446l-471 -701l492 -733h-457l-275 432l-276 -432h-446z" />
<glyph unicode="Y" horiz-adv-x="1480" d="M-4 1434h453l294 -523l297 523h445l-545 -891v-543h-399v537z" />
<glyph unicode="Z" horiz-adv-x="1429" d="M82 0v289l719 809h-695v336h1244v-289l-719 -809h719v-336h-1268z" />
<glyph unicode="[" horiz-adv-x="935" d="M135 -266v1700h709v-265h-361v-1171h361v-264h-709z" />
<glyph unicode="\" horiz-adv-x="1095" d="M-49 1634h315l908 -1896h-316z" />
<glyph unicode="]" horiz-adv-x="935" d="M92 -2h361v1171h-361v265h709v-1700h-709v264z" />
<glyph unicode="^" d="M86 1010l295 422h262l295 -422h-272l-156 198l-156 -198h-268z" />
<glyph unicode="_" horiz-adv-x="1228" d="M-4 -90h1237v-238h-1237v238z" />
<glyph unicode="`" d="M180 1464l363 117l213 -379h-275z" />
<glyph unicode="a" horiz-adv-x="1226" d="M49 317v5q0 86 32 151.5t88 108.5t136 65.5t178 22.5q78 0 148.5 -13.5t118.5 -29.5v18q0 86 -54.5 133t-167.5 47q-88 0 -159.5 -16t-145.5 -45l-80 274q94 39 200 62.5t249 23.5q150 0 253 -34.5t169 -100.5q63 -61 91 -148t28 -204v-637h-385v115q-57 -63 -136 -101.5 t-190 -38.5q-80 0 -147.5 22.5t-118 65.5t-79 106.5t-28.5 147.5zM424 340q0 -57 39 -89t98 -32q86 0 139.5 49t53.5 133v52q-29 12 -69 20t-83 8q-86 0 -132 -37.5t-46 -99.5v-4z" />
<glyph unicode="b" horiz-adv-x="1384" d="M104 0v1495h390v-534q29 35 61.5 65.5t72.5 54t90 38t111 14.5q98 0 187.5 -40t157 -114t107.5 -180.5t40 -239.5v-4q0 -135 -40 -242.5t-106.5 -182.5t-156 -115t-187.5 -40q-63 0 -113 13.5t-91 35t-74 51t-59 60.5v-135h-390zM485 553q0 -55 17.5 -101t48.5 -80 t72 -52.5t88 -18.5q96 0 161.5 69.5t65.5 182.5v4q0 111 -65.5 180.5t-161.5 69.5q-47 0 -88 -18.5t-72 -52.5t-48.5 -79t-17.5 -100v-4z" />
<glyph unicode="c" horiz-adv-x="1165" d="M59 549v4q0 117 44 222.5t122 184t187.5 124.5t240.5 46q172 0 287 -67.5t186 -179.5l-264 -197q-41 55 -88 86t-119 31q-47 0 -87 -19.5t-68.5 -53.5t-45 -78t-16.5 -95v-4q0 -53 16.5 -99t45 -80t69.5 -53.5t90 -19.5q70 0 118 30.5t95 84.5l261 -189 q-78 -115 -195 -184.5t-299 -69.5q-125 0 -231.5 46.5t-183.5 124t-121 183t-44 222.5z" />
<glyph unicode="d" horiz-adv-x="1384" d="M63 549v4q0 135 39 242.5t106.5 182.5t156 115t186.5 40q125 0 205 -48.5t135 -111.5v522h389v-1495h-389v147q-57 -70 -135 -121t-203 -51q-98 0 -187.5 40t-156 114t-106.5 180.5t-40 239.5zM444 553q0 -55 18.5 -101t49.5 -80t72 -52.5t88 -18.5t88 18.5t71.5 52.5 t48 80t17.5 101v4q0 55 -17.5 100t-48 79t-71.5 52.5t-88 18.5t-88 -18.5t-72 -51t-49.5 -79t-18.5 -101.5v-4z" />
<glyph unicode="e" horiz-adv-x="1239" d="M59 549v4q0 121 41 226.5t116 184t177.5 124t224.5 45.5q143 0 249 -49.5t174.5 -132.5t102.5 -192.5t34 -232.5v-38.5t-2 -41.5h-742q23 -92 85.5 -137t154.5 -45q70 0 128 26.5t118 86.5l215 -178q-80 -102 -198 -164t-284 -62q-131 0 -239.5 42t-187.5 117t-123 181.5 t-44 235.5zM428 645h385q-10 92 -61.5 146.5t-130.5 54.5q-78 0 -127.5 -54.5t-65.5 -146.5z" />
<glyph unicode="f" horiz-adv-x="827" d="M45 797v305h129v24q0 193 94 287q51 51 121 73.5t168 22.5q90 0 148.5 -8t105.5 -22v-275q-35 10 -69.5 16.5t-75.5 6.5q-111 0 -111 -105v-26h254v-299h-248v-797h-387v797h-129z" />
<glyph unicode="g" horiz-adv-x="1384" d="M63 612v4q0 119 39 215.5t104.5 163t152.5 102.5t184 36q125 0 204.5 -45.5t143.5 -110.5v131h389v-842q0 -154 -35 -261t-108 -181q-76 -76 -195 -116t-293 -40q-162 0 -298 33t-257 94l125 258q90 -49 182.5 -76.5t204.5 -27.5q147 0 219 69.5t72 202.5v43 q-59 -68 -139 -117t-203 -49q-102 0 -191.5 36t-156 102.5t-105.5 162t-39 213.5zM444 610q0 -92 64 -152.5t164 -60.5q98 0 161.5 61.5t63.5 153.5v4q0 92 -63.5 152.5t-161.5 60.5q-100 0 -164 -61t-64 -154v-4z" />
<glyph unicode="h" horiz-adv-x="1298" d="M104 0v1495h390v-539q53 70 133 123.5t198 53.5q178 0 277.5 -109t99.5 -299v-725h-389v600q0 92 -43 139t-113 47q-72 0 -117.5 -47t-45.5 -139v-600h-390z" />
<glyph unicode="i" horiz-adv-x="614" d="M104 1208v287h406v-287h-406zM113 0v1108h389v-1108h-389z" />
<glyph unicode="j" horiz-adv-x="618" d="M-53 -61q12 -2 25.5 -2h25.5q57 0 86 28.5t29 100.5v1042h389v-1059q0 -104 -26.5 -178t-77 -119t-124.5 -65.5t-168 -20.5q-47 0 -85.5 5t-73.5 10v258zM104 1208v287h406v-287h-406z" />
<glyph unicode="k" horiz-adv-x="1234" d="M104 0v1495h390v-758l301 371h440l-385 -444l395 -664h-428l-223 377l-100 -117v-260h-390z" />
<glyph unicode="l" horiz-adv-x="614" d="M113 0v1495h389v-1495h-389z" />
<glyph unicode="m" horiz-adv-x="1988" d="M104 0v1108h390v-152q53 70 133 123.5t196 53.5q111 0 193 -47.5t127 -133.5q72 84 160 132.5t210 48.5q178 0 278.5 -105.5t100.5 -300.5v-727h-389v602q0 92 -41 138t-110 46q-70 0 -115 -46t-45 -138v-602h-389v602q0 92 -41 138t-111 46t-113.5 -46t-43.5 -138v-602 h-390z" />
<glyph unicode="n" horiz-adv-x="1298" d="M104 0v1108h390v-156q27 35 59.5 68t73.5 57.5t90 40t108 15.5q178 0 277.5 -109t99.5 -299v-725h-389v600q0 92 -43 139t-113 47q-72 0 -117.5 -47t-45.5 -139v-600h-390z" />
<glyph unicode="o" horiz-adv-x="1343" d="M59 549v4q0 119 46.5 224.5t128 184t194.5 125t246 46.5t244.5 -46.5t193.5 -124t127 -182t45 -223.5v-4q0 -119 -46 -224.5t-128 -184t-194.5 -125t-245.5 -46.5t-245 45t-193.5 124t-127 183.5t-45.5 223.5zM438 553q0 -51 17.5 -96t49.5 -79t75 -54.5t94 -20.5 q53 0 96 19.5t72.5 53.5t46 79t16.5 94v4q0 51 -17.5 96t-49 79t-74.5 54.5t-94 20.5q-53 0 -96.5 -19.5t-73 -53.5t-46 -79t-16.5 -94v-4z" />
<glyph unicode="p" horiz-adv-x="1384" d="M104 -328v1436h390v-147q29 35 61.5 65.5t72.5 54t90 38t111 14.5q98 0 187.5 -40t157 -114t107.5 -180.5t40 -239.5v-4q0 -135 -40 -242.5t-106.5 -182.5t-155.5 -115t-188 -40q-63 0 -113 13.5t-91 35t-74 51t-59 60.5v-463h-390zM485 553q0 -55 17.5 -101t48.5 -80 t72 -52.5t88 -18.5q96 0 161.5 69.5t65.5 182.5v4q0 111 -65.5 180.5t-161.5 69.5q-47 0 -88 -18.5t-72 -52.5t-48.5 -79t-17.5 -100v-4z" />
<glyph unicode="q" horiz-adv-x="1384" d="M63 549v4q0 135 39 242.5t106.5 182.5t156 115t186.5 40q125 0 205 -48.5t135 -111.5v135h389v-1436h-389v475q-57 -70 -135 -121t-203 -51q-98 0 -187.5 40t-156 114t-106.5 180.5t-40 239.5zM444 553q0 -55 18.5 -101t49.5 -80t72 -52.5t88 -18.5t88 18.5t71.5 52.5 t48 80t17.5 101v4q0 55 -17.5 100t-48 79t-71.5 52.5t-88 18.5t-88 -18.5t-72 -51t-49.5 -79t-18.5 -101.5v-4z" />
<glyph unicode="r" horiz-adv-x="876" d="M104 0v1108h390v-223q47 113 129 181q74 61 195 61q13 0 26 -1v-409h-33q-154 0 -235.5 -90t-81.5 -283v-344h-390z" />
<glyph unicode="s" horiz-adv-x="1052" d="M20 139l146 236q96 -63 195.5 -95t185.5 -32q98 0 98 59v4q0 33 -45 51.5t-133 43.5q-82 20 -153.5 47.5t-125 67.5t-84 97.5t-30.5 141.5v4q0 88 33.5 156.5t93 114.5t140.5 70.5t177 24.5q123 0 242 -33.5t215 -95.5l-133 -245q-86 47 -174 74.5t-154 27.5 q-45 0 -67.5 -15.5t-22.5 -37.5v-4q0 -33 46 -52.5t134 -46.5q82 -23 153.5 -50t125 -67t84 -97.5t30.5 -137.5v-4q0 -92 -32.5 -160.5t-92 -115.5t-143.5 -71t-184 -24q-141 0 -274.5 40t-250.5 124z" />
<glyph unicode="t" horiz-adv-x="882" d="M41 795v313h131v281h389v-281h258v-313h-258v-375q0 -59 26.5 -85t80.5 -26q39 0 75.5 10.5t71.5 26.5v-305q-53 -29 -120.5 -46.5t-149.5 -17.5q-176 0 -274.5 84t-98.5 283v451h-131z" />
<glyph unicode="u" horiz-adv-x="1298" d="M96 383v725h389v-600q0 -92 43 -139t115 -47q70 0 116 47t46 139v600h389v-1108h-389v152q-53 -70 -133 -123.5t-199 -53.5q-178 0 -277.5 109t-99.5 299z" />
<glyph unicode="v" horiz-adv-x="1280" d="M20 1108h410l213 -647l213 647h404l-443 -1116h-354z" />
<glyph unicode="w" horiz-adv-x="1763" d="M25 1108h381l145 -557l170 561h321l172 -565l150 561h375l-342 -1116h-336l-180 575l-185 -575h-334z" />
<glyph unicode="x" horiz-adv-x="1206" d="M16 0l373 559l-366 549h419l164 -272l164 272h412l-365 -547l373 -561h-418l-172 285l-174 -285h-410z" />
<glyph unicode="y" horiz-adv-x="1282" d="M23 1108h407l221 -668l209 668h400l-406 -1081q-37 -96 -76 -165t-88 -112t-112.5 -63.5t-145.5 -20.5q-104 0 -191 26.5t-165 69.5l121 273q47 -29 92 -44.5t78 -15.5q29 0 50 9.5t40 35.5z" />
<glyph unicode="z" horiz-adv-x="1153" d="M66 0v256l512 543h-494v309h1010v-256l-514 -543h514v-309h-1028z" />
<glyph unicode="{" horiz-adv-x="1003" d="M70 459v258h32q121 0 181.5 42t60.5 159q0 12 -1 33.5t-2 44t-2 42t-1 31.5q0 84 26.5 149.5t90 113.5t167 81t257.5 51l59 -227q-82 -18 -132 -38.5t-77 -47.5t-36 -62.5t-9 -82.5q0 -27 3 -69t3 -75q0 -113 -58.5 -178.5t-170.5 -95.5q113 -31 171 -96.5t58 -178.5 q0 -33 -3 -74.5t-3 -68.5q0 -47 9 -83t36 -62.5t77 -47t132 -38.5l-59 -228q-154 18 -257.5 51t-167 81t-90 114t-26.5 149q0 12 1 32t2 42.5t2 44t1 33.5q0 117 -60.5 159t-181.5 42h-32z" />
<glyph unicode="|" horiz-adv-x="727" d="M215 -262v1896h297v-1896h-297z" />
<glyph unicode="}" horiz-adv-x="1003" d="M66 -61q82 18 132 38.5t76.5 47t35.5 62.5t9 83q0 27 -3 69t-3 74q0 113 58.5 178.5t171.5 96.5q-113 31 -171.5 96.5t-58.5 177.5q0 33 3 75t3 69q0 47 -9 82.5t-35.5 62.5t-77 47.5t-131.5 38.5l59 227q154 -18 257 -51t166.5 -81t90.5 -113.5t27 -149.5 q0 -12 -1 -31.5t-2 -42t-2.5 -44t-1.5 -33.5q0 -117 60.5 -159t181.5 -42h33v-258h-33q-121 0 -181.5 -42t-60.5 -159q0 -12 1.5 -33.5t2.5 -44t2 -42t1 -32.5q0 -84 -27 -149.5t-90.5 -113.5t-166.5 -80.5t-257 -51.5z" />
<glyph unicode="~" horiz-adv-x="1034" d="M84 502q35 154 92 229.5t162 75.5q45 0 92 -12.5t89 -27.5t78 -27.5t60 -12.5q43 0 63.5 23.5t41.5 70.5l188 -51q-35 -154 -92 -229.5t-162 -75.5q-47 0 -93 12t-88 27.5t-79 28t-61 12.5q-43 0 -62.5 -23.5t-40.5 -70.5z" />
<glyph unicode="&#xa1;" horiz-adv-x="663" d="M111 0v174l118 793h205l119 -793v-174h-442zM129 1085v349h406v-349h-406z" />
<glyph unicode="&#xa2;" horiz-adv-x="1177" d="M66 723v4q0 119 42 223.5t118.5 181t183 121.5t237.5 50l25 143h235l-30 -178q88 -33 152.5 -85.5t105.5 -113.5l-238 -182q-20 25 -44 45t-52 37l-94 -516q57 8 105 38.5t89 77.5l236 -172q-74 -109 -186.5 -174t-272.5 -69l-29 -166h-235l35 200q-86 29 -156 81.5 t-121 122t-78.5 154.5t-27.5 177zM403 727q0 -82 30 -143.5t85 -96.5l92 519q-94 -14 -150.5 -93t-56.5 -182v-4z" />
<glyph unicode="&#xa3;" horiz-adv-x="1308" d="M90 0v236l154 59v244h-154v278h154v105q0 123 35.5 224t105.5 171q141 141 391 141q168 0 283 -58.5t194 -148.5l-241 -264q-47 55 -96.5 86t-112.5 31q-78 0 -121 -48t-43 -134v-105h442v-278h-442v-226h600v-313h-1149z" />
<glyph unicode="&#xa4;" horiz-adv-x="1396" d="M76 457v213h139q-2 10 -2 21v22v4v27.5t2 27.5h-139v213h172q27 100 80 187.5t132 152t180 101t224 36.5q168 0 289 -63.5t203 -167.5l-252 -236q-45 57 -101.5 92t-136.5 35q-78 0 -134 -37.5t-89 -105.5h320v-207h-365q-2 -12 -2 -25.5v-25.5v-4v-23.5t2 -23.5h365 v-207h-324q35 -72 92 -112t143 -40q78 0 134.5 37t107.5 98l246 -231q-88 -115 -209 -179.5t-291 -64.5q-125 0 -227.5 36t-181 99.5t-132 152.5t-79.5 198h-166z" />
<glyph unicode="&#xa5;" horiz-adv-x="1449" d="M8 1434h451l270 -471l270 471h443l-428 -650h284v-245h-376v-103h376v-246h-376v-190h-394v190h-376v246h376v103h-376v245h282z" />
<glyph unicode="&#xa7;" horiz-adv-x="1282" d="M86 694v4q0 92 52 144.5t134 81.5q-96 74 -96 202v4q0 68 30 128.5t89 105.5t147 70.5t207 25.5q154 0 281 -46t205 -116l-158 -223q-78 55 -165 88t-171 33q-59 0 -85 -16.5t-26 -44.5v-5q0 -29 44 -49t155 -43q96 -23 181 -47t148.5 -58t100.5 -81t37 -113v-4 q0 -90 -52 -143t-134 -82q45 -35 70.5 -86t25.5 -115v-4q0 -68 -29.5 -128t-88 -105t-147.5 -72t-208 -27q-154 0 -281 46.5t-205 115.5l158 223q78 -55 165 -87.5t171 -32.5q59 0 85 16t26 45v4q0 29 -47.5 49.5t-151.5 42.5q-96 20 -181 46t-148.5 60t-100.5 81t-37 112z M383 750q0 -35 55.5 -58.5t151.5 -46.5q148 -37 203 -37q47 0 75.5 18.5t28.5 53.5v4q0 35 -54.5 58.5t-152.5 45.5q-145 37 -203 37q-47 0 -75.5 -18.5t-28.5 -52.5v-4z" />
<glyph unicode="&#xa8;" d="M119 1202v293h338v-293h-338zM567 1202v293h338v-293h-338z" />
<glyph unicode="&#xa9;" horiz-adv-x="1699" d="M109 713v4q0 152 57 287t157.5 237t236.5 161.5t292 59.5t291 -59.5t234.5 -160.5t156.5 -235.5t57 -285.5v-4q0 -152 -57 -287t-157.5 -237.5t-236.5 -162t-292 -59.5t-291 59.5t-234.5 161t-156.5 235.5t-57 286zM195 713q0 -135 49 -256t137 -210t208 -141.5 t259 -52.5q141 0 261 52.5t208 143.5t138 212t50 256v4q0 135 -50 256t-137 210t-207 141t-259 52q-141 0 -261 -52t-208 -143t-138 -212t-50 -256v-4zM449 723v4q0 84 30.5 157.5t86 129t132 88.5t168.5 33q123 0 201 -45.5t131 -116.5l-166 -131q-35 41 -74.5 66.5 t-97.5 25.5q-82 0 -133 -59.5t-51 -145.5v-4q0 -86 51 -145.5t133 -59.5q61 0 101 26.5t75 67.5l168 -118q-57 -78 -137 -127.5t-207 -49.5q-90 0 -166 31t-130 85t-84.5 128t-30.5 160z" />
<glyph unicode="&#xaa;" horiz-adv-x="798" d="M84 553v158h612v-158h-612zM90 999v5q0 96 65.5 143t174.5 47q41 0 80 -6t65 -17v9q0 100 -123 100q-47 0 -87 -9t-81 -26l-43 152q53 23 110.5 35t135.5 12q84 0 140.5 -19.5t93.5 -56.5q35 -35 50 -82t15 -112v-349h-213v66q-31 -35 -75 -56.5t-103 -21.5 q-88 0 -146.5 47t-58.5 139zM297 1014q0 -31 20.5 -48.5t53.5 -17.5q47 0 76.5 26.5t29.5 74.5v26q-16 6 -37.5 11.5t-46.5 5.5q-45 0 -70.5 -20.5t-25.5 -53.5v-4z" />
<glyph unicode="&#xab;" horiz-adv-x="1292" d="M61 500v98l328 438l281 -137l-267 -350l267 -348l-281 -140zM592 541v16l360 479l279 -137l-266 -350l266 -348l-279 -140z" />
<glyph unicode="&#xad;" horiz-adv-x="835" d="M82 469v342h672v-342h-672z" />
<glyph unicode="&#xae;" horiz-adv-x="1699" d="M109 713v4q0 152 57 287t157.5 237t236.5 161.5t292 59.5t291 -59.5t234.5 -160.5t156.5 -235.5t57 -285.5v-4q0 -152 -57 -287t-157.5 -237.5t-236.5 -162t-292 -59.5t-291 59.5t-234.5 161t-156.5 235.5t-57 286zM195 713q0 -135 49 -256t137 -210t208 -141.5 t259 -52.5q141 0 261 52.5t208 143.5t138 212t50 256v4q0 135 -50 256t-137 210t-207 141t-259 52q-141 0 -261 -52t-208 -143t-138 -212t-50 -256v-4zM524 344v789h367q94 0 159.5 -24t106.5 -65q68 -68 68 -180v-4q0 -92 -44 -151.5t-118 -90.5l188 -274h-252l-159 240h-4 h-93v-240h-219zM743 754h144q57 0 88 24.5t31 67.5v4q0 47 -33 70.5t-88 23.5h-142v-190z" />
<glyph unicode="&#xaf;" d="M127 1212v238h770v-238h-770z" />
<glyph unicode="&#xb0;" horiz-adv-x="966" d="M111 1081v4q0 74 30.5 140.5t81.5 117t119 79t141 28.5q74 0 141.5 -28.5t119 -79t82 -117t30.5 -140.5v-4q0 -74 -29.5 -139t-81 -114.5t-119 -78t-143.5 -28.5t-143.5 28.5t-118.5 78t-80.5 115t-29.5 138.5zM311 1081q0 -72 49 -122t123 -50t123 50.5t49 121.5v4 q0 37 -13 69t-36.5 55.5t-55.5 37t-67 13.5q-72 0 -122 -51.5t-50 -123.5v-4z" />
<glyph unicode="&#xb1;" horiz-adv-x="1265" d="M33 225l248 244q78 -78 160.5 -120t187.5 -42q92 0 142 39t50 98v5q0 59 -55 91.5t-174 32.5h-150v299h146q109 0 156 36t47 89v4q0 55 -48.5 90t-132.5 35q-86 0 -155.5 -44t-130.5 -111l-246 229q47 55 103.5 103.5t125 84t151.5 55t187 19.5q119 0 217.5 -28.5 t167 -79.5t106.5 -122t38 -153v-4q0 -129 -59.5 -208t-156.5 -124q109 -37 180.5 -113.5t71.5 -207.5v-4q0 -96 -37.5 -178t-110.5 -141.5t-177.5 -93.5t-235.5 -34q-201 0 -353.5 67.5t-262.5 186.5z" />
<glyph unicode="&#xb4;" d="M268 1202l213 379l363 -117l-301 -262h-275z" />
<glyph unicode="&#xb5;" horiz-adv-x="1701" d="M78 713v4q0 154 58.5 290t162.5 237.5t245.5 159.5t307.5 58t307 -58t243.5 -158.5t161 -236t58.5 -288.5v-4q0 -147 -53 -278.5t-152 -229.5l359 -369v-20h-531l-184 180q-51 -12 -104.5 -19.5t-108.5 -7.5q-166 0 -307.5 57.5t-243.5 158t-160.5 235.5t-58.5 289z M485 717q0 -78 27 -147.5t75 -123t115.5 -85t149.5 -31.5t149.5 30.5t114.5 83t74 122t27 147.5v4q0 78 -27 147.5t-76 122.5t-116.5 85t-149.5 32t-148.5 -31t-114.5 -83t-74 -121.5t-26 -147.5v-4z" />
<glyph unicode="&#xb6;" horiz-adv-x="1220" d="M45 936v4q0 119 43 211t121 154.5t189.5 95.5t246.5 33h449v-1434h-400v451h-43q-133 0 -243.5 31.5t-191.5 93t-126 151.5t-45 209z" />
<glyph unicode="&#xb7;" horiz-adv-x="581" d="M88 440v400h406v-400h-406z" />
<glyph unicode="&#xb8;" d="M223 -223l189 254h256l-136 -385z" />
<glyph unicode="&#xba;" horiz-adv-x="798" d="M68 1122v4q0 66 24.5 124.5t69.5 101.5t106.5 67.5t132.5 24.5q72 0 132.5 -24.5t104.5 -66.5t68.5 -99.5t24.5 -123.5v-4q0 -66 -25.5 -124t-69.5 -101t-105.5 -67.5t-133.5 -24.5t-132 24.5t-104 66.5t-68.5 99.5t-24.5 122.5zM104 553v158h590v-158h-590zM276 1126 q0 -57 35 -96t90 -39t88 38t33 93v4q0 57 -34.5 97.5t-90.5 40.5q-55 0 -88 -39t-33 -95v-4z" />
<glyph unicode="&#xbb;" horiz-adv-x="1292" d="M61 199l267 350l-267 348l281 139l358 -479v-16l-358 -480zM625 199l266 350l-266 348l278 139l328 -438v-98l-328 -439z" />
<glyph unicode="&#xbf;" horiz-adv-x="1105" d="M45 408v4q0 96 29.5 166.5t84 121t127 83t158.5 53.5l23 131h248l53 -342l-18 -19q-178 -16 -250 -57t-72 -107v-2q0 -53 41 -82.5t115 -29.5q72 0 148.5 34.5t148.5 100.5l206 -270q-94 -94 -224 -155t-308 -61q-113 0 -206 30t-160.5 85t-105.5 135t-38 181zM395 1085 v349h406v-349h-406z" />
<glyph unicode="&#xc0;" horiz-adv-x="1628" d="M12 0l611 1444h383l610 -1444h-426l-105 256h-553l-102 -256h-418zM401 1792l363 117l213 -379h-275zM649 565h322l-160 408z" />
<glyph unicode="&#xc1;" horiz-adv-x="1628" d="M12 0l611 1444h383l610 -1444h-426l-105 256h-553l-102 -256h-418zM649 565h322l-160 408zM653 1530l213 379l363 -117l-301 -262h-275z" />
<glyph unicode="&#xc2;" horiz-adv-x="1628" d="M12 0l611 1444h383l610 -1444h-426l-105 256h-553l-102 -256h-418zM395 1530l262 338h316l262 -338h-250l-172 125l-172 -125h-246zM649 565h322l-160 408z" />
<glyph unicode="&#xc3;" horiz-adv-x="1628" d="M12 0l611 1444h383l610 -1444h-426l-105 256h-553l-102 -256h-418zM383 1567q33 154 90 229.5t164 75.5q45 0 92 -12.5t89 -27.5t78 -27.5t60 -12.5q43 0 63.5 23.5t41.5 70.5l186 -51q-33 -154 -90 -229.5t-164 -75.5q-47 0 -93 12t-88 27.5t-78 28t-60 12.5 q-43 0 -63.5 -23.5t-41.5 -70.5zM649 565h322l-160 408z" />
<glyph unicode="&#xc4;" horiz-adv-x="1628" d="M12 0l611 1444h383l610 -1444h-426l-105 256h-553l-102 -256h-418zM422 1530v293h338v-293h-338zM649 565h322l-160 408zM870 1530v293h338v-293h-338z" />
<glyph unicode="&#xc5;" horiz-adv-x="1628" d="M12 0l594 1407q-29 33 -46 73t-17 85v4q0 53 22.5 100t59.5 82t86 55.5t104 20.5q53 0 102.5 -20.5t86 -55.5t59 -82t22.5 -100v-4q0 -45 -17 -85t-46 -73l594 -1407h-426l-105 256h-553l-102 -256h-418zM649 565h322l-160 408zM678 1565q0 -55 40 -95t97 -40 q55 0 95 39.5t40 95.5v4q0 53 -40 93t-95 40q-57 0 -97 -40t-40 -93v-4z" />
<glyph unicode="&#xc6;" horiz-adv-x="2177" d="M-10 0l758 1434h1341v-338h-715v-217h643v-314h-643v-227h725v-338h-1112v256h-463l-133 -256h-401zM684 565h303v543h-24z" />
<glyph unicode="&#xc7;" horiz-adv-x="1495" d="M78 713v4q0 156 57.5 292t157.5 237.5t238.5 158.5t302.5 57q111 0 200.5 -21.5t164.5 -61.5t135.5 -95t107.5 -121l-299 -231q-61 78 -135 123t-179 45q-76 0 -138 -30t-107 -81t-71 -120.5t-26 -147.5v-4q0 -80 26 -150.5t71 -122t107.5 -81t137.5 -29.5q55 0 101.5 12 t84.5 36t71.5 55.5t66.5 70.5l299 -213q-47 -63 -101.5 -118.5t-122 -96.5t-150.5 -68.5t-183 -36.5l-115 -329l-309 131l160 217q-121 31 -222.5 95.5t-175 158.5t-114.5 212t-41 253z" />
<glyph unicode="&#xc8;" horiz-adv-x="1366" d="M127 0v1434h1153v-338h-760v-217h688v-314h-688v-227h770v-338h-1163zM340 1792l362 117l213 -379h-274z" />
<glyph unicode="&#xc9;" horiz-adv-x="1366" d="M127 0v1434h1153v-338h-760v-217h688v-314h-688v-227h770v-338h-1163zM516 1530l213 379l363 -117l-301 -262h-275z" />
<glyph unicode="&#xca;" horiz-adv-x="1366" d="M127 0v1434h1153v-338h-760v-217h688v-314h-688v-227h770v-338h-1163zM287 1530l262 338h315l262 -338h-249l-172 125l-173 -125h-245z" />
<glyph unicode="&#xcb;" horiz-adv-x="1366" d="M127 0v1434h1153v-338h-760v-217h688v-314h-688v-227h770v-338h-1163zM313 1530v293h338v-293h-338zM762 1530v293h338v-293h-338z" />
<glyph unicode="&#xcc;" horiz-adv-x="669" d="M-84 1792l363 117l213 -379h-275zM135 0v1434h400v-1434h-400z" />
<glyph unicode="&#xcd;" horiz-adv-x="669" d="M135 0v1434h400v-1434h-400zM178 1530l213 379l363 -117l-301 -262h-275z" />
<glyph unicode="&#xce;" horiz-adv-x="669" d="M-86 1530l264 338h316l262 -338h-250l-172 125l-172 -125h-248zM135 0v1434h400v-1434h-400z" />
<glyph unicode="&#xcf;" horiz-adv-x="669" d="M-59 1530v293h340v-293h-340zM135 0v1434h400v-1434h-400zM391 1530v293h338v-293h-338z" />
<glyph unicode="&#xd0;" horiz-adv-x="1669" d="M63 565v314h164v555h553q193 0 343.5 -52.5t254 -146.5t157.5 -224t54 -286v-4q0 -156 -55 -288t-159.5 -228t-257 -150.5t-345.5 -54.5h-545v565h-164zM612 342h174q184 0 290 97.5t106 275.5v4q0 176 -105.5 274.5t-290.5 98.5h-174v-213h244v-314h-244v-223z" />
<glyph unicode="&#xd1;" horiz-adv-x="1607" d="M127 0v1434h371l589 -758v758h394v-1434h-348l-613 786v-786h-393zM373 1567q33 154 90 229.5t164 75.5q45 0 92 -12.5t89 -27.5t78 -27.5t60 -12.5q43 0 63.5 23.5t41.5 70.5l186 -51q-33 -154 -90 -229.5t-164 -75.5q-47 0 -93 12t-88 27.5t-78 28t-60 12.5 q-43 0 -63.5 -23.5t-41.5 -70.5z" />
<glyph unicode="&#xd2;" horiz-adv-x="1701" d="M78 713v4q0 154 58.5 290t162.5 237.5t245.5 159.5t307.5 58t307 -58t243.5 -158.5t161 -236t58.5 -288.5v-4q0 -154 -58.5 -290t-163 -237.5t-245.5 -160t-307 -58.5t-307.5 58.5t-243.5 159t-160.5 235.5t-58.5 289zM418 1792l362 117l213 -379h-274zM485 717 q0 -78 27 -147.5t75 -123t115.5 -85t149.5 -31.5t149.5 30.5t114.5 83t74 122t27 147.5v4q0 78 -27 147.5t-76 122.5t-116.5 85t-149.5 32t-148.5 -31t-114.5 -83t-74 -121.5t-26 -147.5v-4z" />
<glyph unicode="&#xd3;" horiz-adv-x="1701" d="M78 713v4q0 154 58.5 290t162.5 237.5t245.5 159.5t307.5 58t307 -58t243.5 -158.5t161 -236t58.5 -288.5v-4q0 -154 -58.5 -290t-163 -237.5t-245.5 -160t-307 -58.5t-307.5 58.5t-243.5 159t-160.5 235.5t-58.5 289zM485 717q0 -78 27 -147.5t75 -123t115.5 -85 t149.5 -31.5t149.5 30.5t114.5 83t74 122t27 147.5v4q0 78 -27 147.5t-76 122.5t-116.5 85t-149.5 32t-148.5 -31t-114.5 -83t-74 -121.5t-26 -147.5v-4zM711 1530l213 379l362 -117l-301 -262h-274z" />
<glyph unicode="&#xd4;" horiz-adv-x="1701" d="M78 713v4q0 154 58.5 290t162.5 237.5t245.5 159.5t307.5 58t307 -58t243.5 -158.5t161 -236t58.5 -288.5v-4q0 -154 -58.5 -290t-163 -237.5t-245.5 -160t-307 -58.5t-307.5 58.5t-243.5 159t-160.5 235.5t-58.5 289zM432 1526l262 338h316l262 -338h-250l-172 125 l-172 -125h-246zM485 717q0 -78 27 -147.5t75 -123t115.5 -85t149.5 -31.5t149.5 30.5t114.5 83t74 122t27 147.5v4q0 78 -27 147.5t-76 122.5t-116.5 85t-149.5 32t-148.5 -31t-114.5 -83t-74 -121.5t-26 -147.5v-4z" />
<glyph unicode="&#xd5;" horiz-adv-x="1701" d="M78 713v4q0 154 58.5 290t162.5 237.5t245.5 159.5t307.5 58t307 -58t243.5 -158.5t161 -236t58.5 -288.5v-4q0 -154 -58.5 -290t-163 -237.5t-245.5 -160t-307 -58.5t-307.5 58.5t-243.5 159t-160.5 235.5t-58.5 289zM420 1567q33 154 90 229.5t164 75.5q45 0 92 -12.5 t89 -27.5t78 -27.5t60 -12.5q43 0 63.5 23.5t41.5 70.5l186 -51q-33 -154 -90 -229.5t-164 -75.5q-47 0 -93 12t-88 27.5t-78 28t-60 12.5q-43 0 -63.5 -23.5t-41.5 -70.5zM485 717q0 -78 27 -147.5t75 -123t115.5 -85t149.5 -31.5t149.5 30.5t114.5 83t74 122t27 147.5v4 q0 78 -27 147.5t-76 122.5t-116.5 85t-149.5 32t-148.5 -31t-114.5 -83t-74 -121.5t-26 -147.5v-4z" />
<glyph unicode="&#xd6;" horiz-adv-x="1701" d="M78 713v4q0 154 58.5 290t162.5 237.5t245.5 159.5t307.5 58t307 -58t243.5 -158.5t161 -236t58.5 -288.5v-4q0 -154 -58.5 -290t-163 -237.5t-245.5 -160t-307 -58.5t-307.5 58.5t-243.5 159t-160.5 235.5t-58.5 289zM459 1530v293h338v-293h-338zM485 717 q0 -78 27 -147.5t75 -123t115.5 -85t149.5 -31.5t149.5 30.5t114.5 83t74 122t27 147.5v4q0 78 -27 147.5t-76 122.5t-116.5 85t-149.5 32t-148.5 -31t-114.5 -83t-74 -121.5t-26 -147.5v-4zM907 1530v293h338v-293h-338z" />
<glyph unicode="&#xd8;" horiz-adv-x="1701" d="M61 -10l205 229q-90 98 -139 224t-49 270v4q0 154 58.5 290t162.5 237.5t245.5 159.5t307.5 58q115 0 217 -27.5t188 -80.5l80 90h301l-202 -232q88 -98 137 -223t49 -268v-4q0 -154 -58.5 -290t-163 -237.5t-245.5 -160t-307 -58.5q-113 0 -215.5 28t-190.5 81l-80 -90 h-301zM479 717q0 -111 49 -199l486 555q-74 39 -166 39q-84 0 -151.5 -31.5t-116 -85t-75 -124t-26.5 -150.5v-4zM686 360q78 -38 166 -38q84 0 152.5 31.5t116.5 85t75 124t27 150.5v4q0 109 -49 198z" />
<glyph unicode="&#xd9;" horiz-adv-x="1552" d="M109 629v805h403v-797q0 -156 71.5 -230.5t192.5 -74.5t192.5 71.5t71.5 223.5v807h404v-795q0 -174 -48 -300t-135 -207t-211 -120t-278 -39t-276.5 39t-208.5 120t-132 205t-46 292zM360 1782l363 116l213 -378h-274z" />
<glyph unicode="&#xda;" horiz-adv-x="1552" d="M109 629v805h403v-797q0 -156 71.5 -230.5t192.5 -74.5t192.5 71.5t71.5 223.5v807h404v-795q0 -174 -48 -300t-135 -207t-211 -120t-278 -39t-276.5 39t-208.5 120t-132 205t-46 292zM616 1520l213 378l363 -116l-301 -262h-275z" />
<glyph unicode="&#xdb;" horiz-adv-x="1552" d="M109 629v805h403v-797q0 -156 71.5 -230.5t192.5 -74.5t192.5 71.5t71.5 223.5v807h404v-795q0 -174 -48 -300t-135 -207t-211 -120t-278 -39t-276.5 39t-208.5 120t-132 205t-46 292zM356 1530l262 338h316l262 -338h-250l-172 125l-172 -125h-246z" />
<glyph unicode="&#xdc;" horiz-adv-x="1552" d="M109 629v805h403v-797q0 -156 71.5 -230.5t192.5 -74.5t192.5 71.5t71.5 223.5v807h404v-795q0 -174 -48 -300t-135 -207t-211 -120t-278 -39t-276.5 39t-208.5 120t-132 205t-46 292zM383 1530v293h338v-293h-338zM831 1530v293h338v-293h-338z" />
<glyph unicode="&#xdd;" horiz-adv-x="1480" d="M-4 1434h453l294 -523l297 523h445l-545 -891v-543h-399v537zM575 1526l213 379l363 -117l-301 -262h-275z" />
<glyph unicode="&#xde;" horiz-adv-x="1396" d="M127 0v1434h397v-205h217q135 0 246 -33t188.5 -96.5t119.5 -156.5t42 -212v-4q0 -127 -46 -223t-128 -160.5t-195.5 -96.5t-246.5 -32h-197v-215h-397zM524 532h189q106 0 166.5 50.5t60.5 136.5v4q0 92 -60.5 139t-168.5 47h-187v-377z" />
<glyph unicode="&#xdf;" horiz-adv-x="1300" d="M104 0v981q0 119 36 217t106.5 169t175 108.5t240.5 37.5q119 0 214 -33.5t161.5 -91t101.5 -136t35 -167.5v-4q0 -127 -62.5 -208.5t-150.5 -127.5q51 -16 102 -44.5t91 -71.5t65.5 -100.5t25.5 -131.5v-4q0 -102 -46 -180t-128 -129t-194.5 -74.5t-247.5 -15.5v278 q111 6 171 49.5t60 116.5v4q0 74 -63.5 115t-167.5 51v207q68 35 118 88t50 131v4q0 70 -40 110t-102 40q-72 0 -117.5 -50.5t-45.5 -148.5v-989h-388z" />
<glyph unicode="&#xe0;" horiz-adv-x="1226" d="M49 317v5q0 86 32 151.5t88 108.5t136 65.5t178 22.5q78 0 148.5 -13.5t118.5 -29.5v18q0 86 -54.5 133t-167.5 47q-88 0 -159.5 -16t-145.5 -45l-80 274q94 39 200 62.5t249 23.5q150 0 253 -34.5t169 -100.5q63 -61 91 -148t28 -204v-637h-385v115q-57 -63 -136 -101.5 t-190 -38.5q-80 0 -147.5 22.5t-118 65.5t-79 106.5t-28.5 147.5zM215 1468l363 117l213 -379h-275zM424 340q0 -57 39 -89t98 -32q86 0 139.5 49t53.5 133v52q-29 12 -69 20t-83 8q-86 0 -132 -37.5t-46 -99.5v-4z" />
<glyph unicode="&#xe1;" horiz-adv-x="1226" d="M49 317v5q0 86 32 151.5t88 108.5t136 65.5t178 22.5q78 0 148.5 -13.5t118.5 -29.5v18q0 86 -54.5 133t-167.5 47q-88 0 -159.5 -16t-145.5 -45l-80 274q94 39 200 62.5t249 23.5q150 0 253 -34.5t169 -100.5q63 -61 91 -148t28 -204v-637h-385v115q-57 -63 -136 -101.5 t-190 -38.5q-80 0 -147.5 22.5t-118 65.5t-79 106.5t-28.5 147.5zM424 340q0 -57 39 -89t98 -32q86 0 139.5 49t53.5 133v52q-29 12 -69 20t-83 8q-86 0 -132 -37.5t-46 -99.5v-4zM442 1206l213 379l363 -117l-301 -262h-275z" />
<glyph unicode="&#xe2;" horiz-adv-x="1226" d="M49 317v5q0 86 32 151.5t88 108.5t136 65.5t178 22.5q78 0 148.5 -13.5t118.5 -29.5v18q0 86 -54.5 133t-167.5 47q-88 0 -159.5 -16t-145.5 -45l-80 274q94 39 200 62.5t249 23.5q150 0 253 -34.5t169 -100.5q63 -61 91 -148t28 -204v-637h-385v115q-57 -63 -136 -101.5 t-190 -38.5q-80 0 -147.5 22.5t-118 65.5t-79 106.5t-28.5 147.5zM188 1202l263 338h315l262 -338h-250l-172 125l-172 -125h-246zM424 340q0 -57 39 -89t98 -32q86 0 139.5 49t53.5 133v52q-29 12 -69 20t-83 8q-86 0 -132 -37.5t-46 -99.5v-4z" />
<glyph unicode="&#xe3;" horiz-adv-x="1226" d="M49 317v5q0 86 32 151.5t88 108.5t136 65.5t178 22.5q78 0 148.5 -13.5t118.5 -29.5v18q0 86 -54.5 133t-167.5 47q-88 0 -159.5 -16t-145.5 -45l-80 274q94 39 200 62.5t249 23.5q150 0 253 -34.5t169 -100.5q63 -61 91 -148t28 -204v-637h-385v115q-57 -63 -136 -101.5 t-190 -38.5q-80 0 -147.5 22.5t-118 65.5t-79 106.5t-28.5 147.5zM180 1239q33 154 90.5 229.5t163.5 75.5q45 0 92 -12t89 -27.5t78 -28t61 -12.5q43 0 63.5 23.5t40.5 71.5l186 -52q-33 -154 -90 -229.5t-163 -75.5q-47 0 -93.5 12.5t-88.5 27.5t-77.5 27.5t-60.5 12.5 q-43 0 -63.5 -23.5t-40.5 -70.5zM424 340q0 -57 39 -89t98 -32q86 0 139.5 49t53.5 133v52q-29 12 -69 20t-83 8q-86 0 -132 -37.5t-46 -99.5v-4z" />
<glyph unicode="&#xe4;" horiz-adv-x="1226" d="M49 317v5q0 86 32 151.5t88 108.5t136 65.5t178 22.5q78 0 148.5 -13.5t118.5 -29.5v18q0 86 -54.5 133t-167.5 47q-88 0 -159.5 -16t-145.5 -45l-80 274q94 39 200 62.5t249 23.5q150 0 253 -34.5t169 -100.5q63 -61 91 -148t28 -204v-637h-385v115q-57 -63 -136 -101.5 t-190 -38.5q-80 0 -147.5 22.5t-118 65.5t-79 106.5t-28.5 147.5zM215 1206v293h338v-293h-338zM424 340q0 -57 39 -89t98 -32q86 0 139.5 49t53.5 133v52q-29 12 -69 20t-83 8q-86 0 -132 -37.5t-46 -99.5v-4zM664 1206v293h337v-293h-337z" />
<glyph unicode="&#xe5;" horiz-adv-x="1226" d="M49 317v5q0 86 32 151.5t88 108.5t136 65.5t178 22.5q78 0 148.5 -13.5t118.5 -29.5v18q0 86 -54.5 133t-167.5 47q-88 0 -159.5 -16t-145.5 -45l-80 274q94 39 200 62.5t249 23.5q150 0 253 -34.5t169 -100.5q63 -61 91 -148t28 -204v-637h-385v115q-57 -63 -136 -101.5 t-190 -38.5q-80 0 -147.5 22.5t-118 65.5t-79 106.5t-28.5 147.5zM336 1470v5q0 53 22.5 100t60.5 82t87 55.5t102 20.5t102.5 -20.5t87.5 -55.5t60.5 -82t22.5 -100v-5q0 -53 -22.5 -100t-60.5 -82t-87.5 -56.5t-102.5 -21.5t-102 21.5t-87 56.5t-60.5 82t-22.5 100z M424 340q0 -57 39 -89t98 -32q86 0 139.5 49t53.5 133v52q-29 12 -69 20t-83 8q-86 0 -132 -37.5t-46 -99.5v-4zM471 1470q0 -55 40 -95t97 -40t97 40t40 95v5q0 53 -39.5 93t-97.5 40q-57 0 -97 -40t-40 -93v-5z" />
<glyph unicode="&#xe6;" horiz-adv-x="1925" d="M49 317v5q0 86 32 151.5t88 108.5t136 65.5t178 22.5q78 0 148.5 -13.5t118.5 -29.5v18q0 86 -54.5 133t-167.5 47q-88 0 -159.5 -16t-145.5 -45l-80 274q94 39 200 62.5t249 23.5q135 0 225 -32.5t150 -92.5q66 63 152.5 98.5t193.5 35.5q139 0 242.5 -49.5t172 -132.5 t102.5 -192.5t34 -232.5q0 -18 -1 -38.5t-3 -41.5h-742q25 -92 87.5 -137t152.5 -45q72 0 129 26.5t117 86.5l215 -178q-80 -102 -197 -164t-283 -62q-135 0 -245.5 44t-188.5 122q-98 -74 -209.5 -119t-234.5 -45q-86 0 -161 21.5t-130 64.5t-88 106.5t-33 149.5zM424 340 q0 -55 41 -86t102 -31q111 0 224 90q-14 33 -24.5 68t-14.5 72q-29 12 -69 20t-81 8q-86 0 -132 -37.5t-46 -99.5v-4zM1114 645h385q-10 92 -62.5 146.5t-131.5 54.5q-78 0 -127.5 -54.5t-63.5 -146.5z" />
<glyph unicode="&#xe7;" horiz-adv-x="1165" d="M59 549v4q0 117 44 222.5t122 184t187.5 124.5t240.5 46q172 0 287 -67.5t186 -179.5l-264 -197q-41 55 -88 86t-119 31q-47 0 -87 -19.5t-68.5 -53.5t-45 -78t-16.5 -95v-4q0 -53 16.5 -99t45 -80t69.5 -53.5t90 -19.5q70 0 118 30.5t95 84.5l261 -189 q-70 -102 -168.5 -168.5t-249.5 -81.5l-117 -331l-309 131l166 225q-88 29 -161 82t-125 125t-81 158t-29 182z" />
<glyph unicode="&#xe8;" horiz-adv-x="1239" d="M59 549v4q0 121 41 226.5t116 184t177.5 124t224.5 45.5q143 0 249 -49.5t174.5 -132.5t102.5 -192.5t34 -232.5v-38.5t-2 -41.5h-742q23 -92 85.5 -137t154.5 -45q70 0 128 26.5t118 86.5l215 -178q-80 -102 -198 -164t-284 -62q-131 0 -239.5 42t-187.5 117t-123 181.5 t-44 235.5zM199 1468l362 117l213 -379h-274zM428 645h385q-10 92 -61.5 146.5t-130.5 54.5q-78 0 -127.5 -54.5t-65.5 -146.5z" />
<glyph unicode="&#xe9;" horiz-adv-x="1239" d="M59 549v4q0 121 41 226.5t116 184t177.5 124t224.5 45.5q143 0 249 -49.5t174.5 -132.5t102.5 -192.5t34 -232.5v-38.5t-2 -41.5h-742q23 -92 85.5 -137t154.5 -45q70 0 128 26.5t118 86.5l215 -178q-80 -102 -198 -164t-284 -62q-131 0 -239.5 42t-187.5 117t-123 181.5 t-44 235.5zM428 645h385q-10 92 -61.5 146.5t-130.5 54.5q-78 0 -127.5 -54.5t-65.5 -146.5zM467 1206l213 379l362 -117l-301 -262h-274z" />
<glyph unicode="&#xea;" horiz-adv-x="1239" d="M59 549v4q0 121 41 226.5t116 184t177.5 124t224.5 45.5q143 0 249 -49.5t174.5 -132.5t102.5 -192.5t34 -232.5v-38.5t-2 -41.5h-742q23 -92 85.5 -137t154.5 -45q70 0 128 26.5t118 86.5l215 -178q-80 -102 -198 -164t-284 -62q-131 0 -239.5 42t-187.5 117t-123 181.5 t-44 235.5zM201 1198l262 338h315l262 -338h-249l-173 125l-172 -125h-245zM428 645h385q-10 92 -61.5 146.5t-130.5 54.5q-78 0 -127.5 -54.5t-65.5 -146.5z" />
<glyph unicode="&#xeb;" horiz-adv-x="1239" d="M59 549v4q0 121 41 226.5t116 184t177.5 124t224.5 45.5q143 0 249 -49.5t174.5 -132.5t102.5 -192.5t34 -232.5v-38.5t-2 -41.5h-742q23 -92 85.5 -137t154.5 -45q70 0 128 26.5t118 86.5l215 -178q-80 -102 -198 -164t-284 -62q-131 0 -239.5 42t-187.5 117t-123 181.5 t-44 235.5zM227 1202v293h338v-293h-338zM428 645h385q-10 92 -61.5 146.5t-130.5 54.5q-78 0 -127.5 -54.5t-65.5 -146.5zM676 1202v293h338v-293h-338z" />
<glyph unicode="&#xec;" horiz-adv-x="614" d="M-106 1464l364 117l213 -379h-274zM113 0v1108h389v-1108h-389z" />
<glyph unicode="&#xed;" horiz-adv-x="614" d="M113 0v1108h389v-1108h-389zM150 1202l212 379l363 -117l-301 -262h-274z" />
<glyph unicode="&#xee;" horiz-adv-x="614" d="M-111 1202l263 338h315l262 -338h-250l-172 125l-172 -125h-246zM113 0v1108h389v-1108h-389z" />
<glyph unicode="&#xef;" horiz-adv-x="614" d="M-84 1202v293h338v-293h-338zM113 0v1108h389v-1108h-389zM365 1202v293h337v-293h-337z" />
<glyph unicode="&#xf0;" horiz-adv-x="1343" d="M66 510v4q0 96 34.5 181t98 147.5t153.5 98.5t201 36q131 0 221 -55l-164 219l-235 -90l-133 182l239 82l-131 180h414l43 -61l203 75l131 -182l-211 -72l131 -184q53 -78 91 -143.5t61.5 -129t35 -127t11.5 -136.5v-5q0 -117 -42 -218t-121 -176t-191 -119t-249 -44 q-131 0 -239.5 42t-187 114t-121.5 170t-43 211zM440 510q0 -43 16.5 -81t46 -67.5t72 -46t91.5 -16.5q104 0 161.5 61.5t57.5 147.5v4q0 43 -16.5 81t-45 66.5t-70.5 45t-91 16.5q-104 0 -163 -60.5t-59 -146.5v-4z" />
<glyph unicode="&#xf1;" horiz-adv-x="1298" d="M104 0v1108h390v-156q27 35 59.5 68t73.5 57.5t90 40t108 15.5q178 0 277.5 -109t99.5 -299v-725h-389v600q0 92 -43 139t-113 47q-72 0 -117.5 -47t-45.5 -139v-600h-390zM227 1239q33 154 90.5 229.5t163.5 75.5q45 0 92.5 -12t89.5 -27.5t77.5 -28t60.5 -12.5 q43 0 63.5 23.5t40.5 71.5l187 -52q-33 -154 -90.5 -229.5t-163.5 -75.5q-47 0 -93.5 12.5t-88.5 27.5t-77.5 27.5t-60.5 12.5q-43 0 -63.5 -23.5t-40.5 -70.5z" />
<glyph unicode="&#xf2;" horiz-adv-x="1343" d="M59 549v4q0 119 46.5 224.5t128 184t194.5 125t246 46.5t244.5 -46.5t193.5 -124t127 -182t45 -223.5v-4q0 -119 -46 -224.5t-128 -184t-194.5 -125t-245.5 -46.5t-245 45t-193.5 124t-127 183.5t-45.5 223.5zM246 1468l362 117l213 -379h-274zM438 553q0 -51 17.5 -96 t49.5 -79t75 -54.5t94 -20.5q53 0 96 19.5t72.5 53.5t46 79t16.5 94v4q0 51 -17.5 96t-49 79t-74.5 54.5t-94 20.5q-53 0 -96.5 -19.5t-73 -53.5t-46 -79t-16.5 -94v-4z" />
<glyph unicode="&#xf3;" horiz-adv-x="1343" d="M59 549v4q0 119 46.5 224.5t128 184t194.5 125t246 46.5t244.5 -46.5t193.5 -124t127 -182t45 -223.5v-4q0 -119 -46 -224.5t-128 -184t-194.5 -125t-245.5 -46.5t-245 45t-193.5 124t-127 183.5t-45.5 223.5zM438 553q0 -51 17.5 -96t49.5 -79t75 -54.5t94 -20.5 q53 0 96 19.5t72.5 53.5t46 79t16.5 94v4q0 51 -17.5 96t-49 79t-74.5 54.5t-94 20.5q-53 0 -96.5 -19.5t-73 -53.5t-46 -79t-16.5 -94v-4zM522 1206l213 379l363 -117l-301 -262h-275z" />
<glyph unicode="&#xf4;" horiz-adv-x="1343" d="M59 549v4q0 119 46.5 224.5t128 184t194.5 125t246 46.5t244.5 -46.5t193.5 -124t127 -182t45 -223.5v-4q0 -119 -46 -224.5t-128 -184t-194.5 -125t-245.5 -46.5t-245 45t-193.5 124t-127 183.5t-45.5 223.5zM252 1198l262 338h315l263 -338h-250l-172 125l-172 -125 h-246zM438 553q0 -51 17.5 -96t49.5 -79t75 -54.5t94 -20.5q53 0 96 19.5t72.5 53.5t46 79t16.5 94v4q0 51 -17.5 96t-49 79t-74.5 54.5t-94 20.5q-53 0 -96.5 -19.5t-73 -53.5t-46 -79t-16.5 -94v-4z" />
<glyph unicode="&#xf5;" horiz-adv-x="1343" d="M59 549v4q0 119 46.5 224.5t128 184t194.5 125t246 46.5t244.5 -46.5t193.5 -124t127 -182t45 -223.5v-4q0 -119 -46 -224.5t-128 -184t-194.5 -125t-245.5 -46.5t-245 45t-193.5 124t-127 183.5t-45.5 223.5zM240 1239q33 154 90 229.5t164 75.5q45 0 92 -12t89 -27.5 t77.5 -28t60.5 -12.5q43 0 63.5 23.5t41.5 71.5l186 -52q-33 -154 -90.5 -229.5t-163.5 -75.5q-47 0 -93 12.5t-88 27.5t-78 27.5t-61 12.5q-43 0 -63.5 -23.5t-40.5 -70.5zM438 553q0 -51 17.5 -96t49.5 -79t75 -54.5t94 -20.5q53 0 96 19.5t72.5 53.5t46 79t16.5 94v4 q0 51 -17.5 96t-49 79t-74.5 54.5t-94 20.5q-53 0 -96.5 -19.5t-73 -53.5t-46 -79t-16.5 -94v-4z" />
<glyph unicode="&#xf6;" horiz-adv-x="1343" d="M59 549v4q0 119 46.5 224.5t128 184t194.5 125t246 46.5t244.5 -46.5t193.5 -124t127 -182t45 -223.5v-4q0 -119 -46 -224.5t-128 -184t-194.5 -125t-245.5 -46.5t-245 45t-193.5 124t-127 183.5t-45.5 223.5zM279 1202v293h337v-293h-337zM438 553q0 -51 17.5 -96 t49.5 -79t75 -54.5t94 -20.5q53 0 96 19.5t72.5 53.5t46 79t16.5 94v4q0 51 -17.5 96t-49 79t-74.5 54.5t-94 20.5q-53 0 -96.5 -19.5t-73 -53.5t-46 -79t-16.5 -94v-4zM727 1202v293h338v-293h-338z" />
<glyph unicode="&#xf8;" horiz-adv-x="1343" d="M29 -10l170 188q-66 76 -103 170t-37 201v4q0 119 46.5 224.5t128 184t194.5 125t246 46.5q86 0 165 -20.5t144 -57.5l59 63h273q-37 -39 -70 -76q-29 -31 -56.5 -63.5t-43.5 -48.5q66 -76 102.5 -170t36.5 -203v-4q0 -119 -46 -224.5t-128 -184t-194.5 -125 t-245.5 -46.5q-88 0 -166 20.5t-146 57.5l-57 -61h-272zM422 553q0 -29 5 -55.5t15 -51.5l320 355q-41 18 -92 18q-55 0 -101.5 -21.5t-79 -57t-50 -83t-17.5 -100.5v-4zM584 303q43 -16 90 -16q55 0 101 21.5t79 57t50.5 83t17.5 100.5v4q0 29 -5.5 55.5t-15.5 50.5z" />
<glyph unicode="&#xf9;" horiz-adv-x="1298" d="M96 383v725h389v-600q0 -92 43 -139t115 -47q70 0 116 47t46 139v600h389v-1108h-389v152q-53 -70 -133 -123.5t-199 -53.5q-178 0 -277.5 109t-99.5 299zM256 1464l362 117l213 -379h-274z" />
<glyph unicode="&#xfa;" horiz-adv-x="1298" d="M96 383v725h389v-600q0 -92 43 -139t115 -47q70 0 116 47t46 139v600h389v-1108h-389v152q-53 -70 -133 -123.5t-199 -53.5q-178 0 -277.5 109t-99.5 299zM467 1202l213 379l362 -117l-301 -262h-274z" />
<glyph unicode="&#xfb;" horiz-adv-x="1298" d="M96 383v725h389v-600q0 -92 43 -139t115 -47q70 0 116 47t46 139v600h389v-1108h-389v152q-53 -70 -133 -123.5t-199 -53.5q-178 0 -277.5 109t-99.5 299zM229 1202l263 338h315l262 -338h-250l-172 125l-172 -125h-246z" />
<glyph unicode="&#xfc;" horiz-adv-x="1298" d="M96 383v725h389v-600q0 -92 43 -139t115 -47q70 0 116 47t46 139v600h389v-1108h-389v152q-53 -70 -133 -123.5t-199 -53.5q-178 0 -277.5 109t-99.5 299zM256 1202v293h338v-293h-338zM705 1202v293h337v-293h-337z" />
<glyph unicode="&#xfd;" horiz-adv-x="1282" d="M23 1108h407l221 -668l209 668h400l-406 -1081q-37 -96 -76 -165t-88 -112t-112.5 -63.5t-145.5 -20.5q-104 0 -191 26.5t-165 69.5l121 273q47 -29 92 -44.5t78 -15.5q29 0 50 9.5t40 35.5zM463 1202l213 379l362 -117l-301 -262h-274z" />
<glyph unicode="&#xfe;" horiz-adv-x="1384" d="M104 -328v1823h390v-534q29 35 61.5 65.5t72.5 54t90 38t111 14.5q98 0 187.5 -40t157 -114t107.5 -180.5t40 -239.5v-4q0 -135 -40 -242.5t-106.5 -182.5t-155.5 -115t-188 -40q-63 0 -113 13.5t-91 35t-74 51t-59 60.5v-463h-390zM485 553q0 -55 17.5 -101t48.5 -80 t72 -52.5t88 -18.5q96 0 161.5 69.5t65.5 182.5v4q0 111 -65.5 180.5t-161.5 69.5q-47 0 -88 -18.5t-72 -52.5t-48.5 -79t-17.5 -100v-4z" />
<glyph unicode="&#xff;" horiz-adv-x="1282" d="M23 1108h407l221 -668l209 668h400l-406 -1081q-37 -96 -76 -165t-88 -112t-112.5 -63.5t-145.5 -20.5q-104 0 -191 26.5t-165 69.5l121 273q47 -29 92 -44.5t78 -15.5q29 0 50 9.5t40 35.5zM246 1202v293h338v-293h-338zM694 1202v293h338v-293h-338z" />
<glyph unicode="&#x131;" horiz-adv-x="614" d="M113 0v1108h389v-1108h-389z" />
<glyph unicode="&#x141;" horiz-adv-x="1349" d="M63 457v354l156 45v578h395v-459l363 106v-356l-363 -107v-270h693v-348h-1088v502z" />
<glyph unicode="&#x142;" horiz-adv-x="821" d="M49 492v348l168 49v606h387v-496l168 50v-351l-168 -49v-649h-387v541z" />
<glyph unicode="&#x152;" horiz-adv-x="2207" d="M78 709v4q0 156 55 288t159.5 228t256 150.5t346.5 54.5h1225v-338h-715v-217h643v-314h-643v-227h725v-338h-1243q-190 0 -341 52t-255.5 146.5t-158.5 224.5t-54 286zM485 715q0 -172 107.5 -270.5t284.5 -98.5h135v741h-135q-88 0 -160 -24.5t-123 -72.5t-80 -116.5 t-29 -154.5v-4z" />
<glyph unicode="&#x153;" horiz-adv-x="2074" d="M59 549v4q0 119 46.5 224.5t128 184t191.5 125t239 46.5q127 0 231 -44.5t178 -121.5q72 78 170 122t217 44q141 0 244.5 -49.5t172.5 -132.5t102.5 -192.5t33.5 -232.5q0 -18 -1 -38.5t-3 -41.5h-739q23 -92 85 -137t152 -45q72 0 130.5 26.5t117.5 86.5l215 -178 q-82 -102 -197.5 -164t-277.5 -62q-135 0 -242.5 44t-183.5 122q-76 -78 -181.5 -122t-232.5 -44t-235.5 45t-188 124t-126 183.5t-46.5 223.5zM438 553q0 -51 17.5 -96t48.5 -79t73 -54.5t91 -20.5q51 0 94 19.5t71.5 53.5t45 79t16.5 94v4q0 51 -17.5 96t-48 79 t-72.5 54.5t-93 20.5t-93.5 -20.5t-71 -54.5t-45 -78t-16.5 -93v-4zM1264 645h385q-10 92 -61.5 146.5t-131.5 54.5q-78 0 -127 -54.5t-65 -146.5z" />
<glyph unicode="&#x160;" horiz-adv-x="1335" d="M18 213l222 264q215 -172 465 -172q80 0 121.5 25.5t41.5 72.5v5q0 23 -10 40t-37.5 33.5t-74 31.5t-119.5 32q-115 27 -213.5 58.5t-171 81.5t-114.5 125t-42 185v4q0 100 38 184.5t110.5 146t175 95t231.5 33.5q184 0 328.5 -48t261.5 -142l-199 -281 q-98 70 -201.5 105.5t-199.5 35.5q-72 0 -108 -26.5t-36 -65.5v-4q0 -25 11.5 -43t39 -33.5t76 -31t121.5 -31.5q123 -27 222.5 -62.5t169 -87t106.5 -124t37 -173.5v-4q0 -111 -42 -196.5t-118 -146t-182.5 -92.5t-237.5 -32q-193 0 -365.5 59.5t-306.5 178.5zM236 1868 h249l172 -125l172 125h246l-262 -338h-315z" />
<glyph unicode="&#x161;" horiz-adv-x="1052" d="M20 139l146 236q96 -63 195.5 -95t185.5 -32q98 0 98 59v4q0 33 -45 51.5t-133 43.5q-82 20 -153.5 47.5t-125 67.5t-84 97.5t-30.5 141.5v4q0 88 33.5 156.5t93 114.5t140.5 70.5t177 24.5q123 0 242 -33.5t215 -95.5l-133 -245q-86 47 -174 74.5t-154 27.5 q-45 0 -67.5 -15.5t-22.5 -37.5v-4q0 -33 46 -52.5t134 -46.5q82 -23 153.5 -50t125 -67t84 -97.5t30.5 -137.5v-4q0 -92 -32.5 -160.5t-92 -115.5t-143.5 -71t-184 -24q-141 0 -274.5 40t-250.5 124zM111 1540h249l172 -125l173 125h245l-262 -338h-315z" />
<glyph unicode="&#x178;" horiz-adv-x="1480" d="M-4 1434h453l294 -523l297 523h445l-545 -891v-543h-399v537zM348 1530v293h338v-293h-338zM797 1530v293h338v-293h-338z" />
<glyph unicode="&#x17d;" horiz-adv-x="1429" d="M82 0v289l719 809h-695v336h1244v-289l-719 -809h719v-336h-1268zM305 1868h250l172 -125l172 125h246l-262 -338h-316z" />
<glyph unicode="&#x17e;" horiz-adv-x="1153" d="M66 0v256l512 543h-494v309h1010v-256l-514 -543h514v-309h-1028zM162 1540h250l172 -125l172 125h245l-262 -338h-315z" />
<glyph unicode="&#x192;" horiz-adv-x="1132" d="M51 0v283q57 -12 96 -13q66 0 96.5 30t45.5 103l47 271h-125v295h176l27 133q33 180 140.5 266t305.5 86q66 0 124 -7t101 -20v-286q-74 18 -137 18q-72 0 -109.5 -29.5t-50.5 -99.5l-10 -61h234v-295h-287l-57 -322q-18 -102 -51 -172.5t-86.5 -116t-128.5 -64.5 t-175 -19q-47 0 -88 5t-88 15z" />
<glyph unicode="&#x2c6;" d="M92 1202l262 338h316l262 -338h-250l-172 125l-172 -125h-246z" />
<glyph unicode="&#x2c7;" d="M92 1540h250l172 -125l172 125h246l-262 -338h-316z" />
<glyph unicode="&#x2d8;" d="M109 1540h227q18 -53 58 -86t118 -33t118 33t58 86h227q-14 -164 -122.5 -253t-280.5 -89t-280.5 89t-122.5 253z" />
<glyph unicode="&#x2d9;" d="M338 1202v293h348v-293h-348z" />
<glyph unicode="&#x2da;" d="M240 1470v5q0 53 22.5 100t60 82t87 55.5t102.5 20.5t102.5 -20.5t87 -55.5t60 -82t22.5 -100v-5q0 -53 -22.5 -100t-60 -82t-87 -56.5t-102.5 -21.5t-102.5 21.5t-87 56.5t-60 82t-22.5 100zM375 1470q0 -55 40 -95t97 -40t97 40t40 95v5q0 53 -40 93t-97 40t-97 -40 t-40 -93v-5z" />
<glyph unicode="&#x2db;" d="M324 -119q0 70 38 139h250q-10 -37 -10 -69q0 -53 42 -85t136 -34v-168q-223 -23 -339.5 35.5t-116.5 181.5z" />
<glyph unicode="&#x2dc;" d="M80 1239q33 154 90 229.5t164 75.5q45 0 92 -12t89 -27.5t78 -28t60 -12.5q43 0 63.5 23.5t41.5 71.5l186 -52q-33 -154 -90 -229.5t-164 -75.5q-47 0 -93 12.5t-88 27.5t-78 27.5t-60 12.5q-43 0 -63.5 -23.5t-41.5 -70.5z" />
<glyph unicode="&#x2dd;" d="M61 1204l203 377l320 -111l61 111l340 -117l-293 -260h-252l121 221l-246 -221h-254z" />
<glyph unicode="&#x3c0;" horiz-adv-x="1699" d="M109 713v4q0 152 57 287t157.5 237t236.5 161.5t292 59.5t291 -59.5t234.5 -160.5t156.5 -235.5t57 -285.5v-4q0 -152 -57 -287t-157.5 -237.5t-236.5 -162t-292 -59.5t-291 59.5t-234.5 161t-156.5 235.5t-57 286zM195 713q0 -135 49 -256t137 -210t208 -141.5 t259 -52.5q141 0 261 52.5t208 143.5t138 212t50 256v4q0 135 -50 256t-137 210t-207 141t-259 52q-141 0 -261 -52t-208 -143t-138 -212t-50 -256v-4zM559 336v788h338q152 0 241 -72.5t89 -205.5v-4q0 -68 -25.5 -121t-71 -88t-107.5 -53.5t-134 -18.5h-109v-225h-221z M780 733h101q59 0 92 26.5t33 74.5v4q0 51 -33 76.5t-92 25.5h-101v-207z" />
<glyph unicode="&#x2000;" horiz-adv-x="954" />
<glyph unicode="&#x2001;" horiz-adv-x="1909" />
<glyph unicode="&#x2002;" horiz-adv-x="954" />
<glyph unicode="&#x2003;" horiz-adv-x="1909" />
<glyph unicode="&#x2004;" horiz-adv-x="636" />
<glyph unicode="&#x2005;" horiz-adv-x="477" />
<glyph unicode="&#x2006;" horiz-adv-x="318" />
<glyph unicode="&#x2007;" horiz-adv-x="318" />
<glyph unicode="&#x2008;" horiz-adv-x="238" />
<glyph unicode="&#x2009;" horiz-adv-x="381" />
<glyph unicode="&#x200a;" horiz-adv-x="106" />
<glyph unicode="&#x2010;" horiz-adv-x="835" d="M82 469v342h672v-342h-672z" />
<glyph unicode="&#x2011;" horiz-adv-x="835" d="M82 469v342h672v-342h-672z" />
<glyph unicode="&#x2012;" horiz-adv-x="835" d="M82 469v342h672v-342h-672z" />
<glyph unicode="&#x2013;" horiz-adv-x="1081" d="M82 473v334h917v-334h-917z" />
<glyph unicode="&#x2014;" horiz-adv-x="1839" d="M82 473v334h1675v-334h-1675z" />
<glyph unicode="&#x2018;" horiz-adv-x="581" d="M82 702v326q0 113 29.5 191.5t84 127t132.5 71t174 26.5l33 -150q-104 -12 -156.5 -60t-48.5 -132h155v-400h-403z" />
<glyph unicode="&#x2019;" horiz-adv-x="581" d="M47 842q104 10 156.5 59t48.5 133h-156v400h404v-326q0 -115 -30 -192.5t-84 -126t-132 -72t-174 -25.5z" />
<glyph unicode="&#x201a;" horiz-adv-x="581" d="M41 -193q211 25 205 193h-158v399h406v-325q0 -115 -30 -193t-85 -126t-133 -71.5t-174 -25.5z" />
<glyph unicode="&#x201c;" horiz-adv-x="1120" d="M82 702v326q0 111 28.5 188.5t83 127t131 73t173.5 27.5l30 -150q-209 -25 -198 -192h151v-400h-399zM625 702v326q0 111 29.5 188.5t83 127t130 73t172.5 27.5l33 -150q-207 -25 -201 -192h152v-400h-399z" />
<glyph unicode="&#x201d;" horiz-adv-x="1120" d="M47 842q207 23 201 192h-152v400h400v-326q0 -113 -29 -190.5t-83 -127t-131 -73t-173 -25.5zM592 842q207 23 201 192h-154v400h399v-326q0 -113 -28.5 -190.5t-83 -127t-131 -73t-170.5 -25.5z" />
<glyph unicode="&#x201e;" horiz-adv-x="1118" d="M41 -193q209 25 199 193h-152v399h399v-325q0 -113 -28.5 -191t-82.5 -127t-131 -72.5t-173 -25.5zM586 -193q209 25 198 193h-151v399h399v-325q0 -113 -28.5 -191t-83 -127t-131 -72.5t-173.5 -25.5z" />
<glyph unicode="&#x2020;" horiz-adv-x="839" d="M82 983v213l254 -27l-31 265h230l-31 -265l254 27v-213l-256 27l20 -553h-205l21 553z" />
<glyph unicode="&#x2021;" horiz-adv-x="880" d="M102 238v213l258 -27l-26 293l26 293l-258 -27v213l254 -27l-30 265h229l-31 -265l254 27v-213l-258 27l27 -293l-27 -293l258 27v-213l-254 26l31 -264h-229l30 264z" />
<glyph unicode="&#x2022;" d="M166 719v4q0 72 27.5 134.5t74.5 109.5t109.5 73.5t134.5 26.5t134.5 -26.5t109.5 -73.5t74.5 -109.5t27.5 -134.5v-4q0 -72 -27.5 -134.5t-74.5 -109.5t-109.5 -73.5t-134.5 -26.5t-134.5 26.5t-109.5 73.5t-74.5 109.5t-27.5 134.5z" />
<glyph unicode="&#x2026;" horiz-adv-x="1720" d="M88 0v393h397v-393h-397zM662 0v393h397v-393h-397zM1235 0v393h397v-393h-397z" />
<glyph unicode="&#x202f;" horiz-adv-x="381" />
<glyph unicode="&#x2030;" horiz-adv-x="2652" d="M72 1065v4q0 80 26.5 149.5t74.5 122t116.5 83t152.5 30.5t152 -30.5t116 -83t74.5 -122t26.5 -147.5v-4q0 -80 -26.5 -149.5t-76 -122t-118 -83t-150.5 -30.5q-84 0 -151.5 29.5t-115.5 82t-74.5 122t-26.5 149.5zM229 0l1106 1434h277l-1106 -1434h-277zM322 1067 q0 -70 34.5 -115t85.5 -45q53 0 86 45t33 113v4q0 68 -33.5 114t-87.5 46q-53 0 -85.5 -45t-32.5 -113v-4zM1030 362v5q0 80 26.5 149.5t75 121.5t117 83t152.5 31t151.5 -30t115.5 -82t74.5 -121.5t26.5 -149.5v-4q0 -78 -26.5 -149t-75.5 -123t-117.5 -82.5t-150.5 -30.5 q-84 0 -151.5 30.5t-116 82.5t-75 122t-26.5 147zM1280 365q0 -68 35 -114t86 -46q53 0 86 45t33 112v5q0 70 -34 114.5t-87 44.5q-55 0 -87 -44t-32 -113v-4zM1841 362v5q0 80 26.5 149.5t75 121.5t117 83t152.5 31t151.5 -30t115.5 -82t74.5 -121.5t26.5 -149.5v-4 q0 -78 -26.5 -149t-75.5 -123t-117.5 -82.5t-150.5 -30.5q-84 0 -151.5 30.5t-116 82.5t-75 122t-26.5 147zM2091 365q0 -68 35 -114t86 -46q53 0 86 45t33 112v5q0 70 -34 114.5t-87 44.5q-55 0 -87 -44t-32 -113v-4z" />
<glyph unicode="&#x2039;" horiz-adv-x="731" d="M61 500v98l328 438l281 -137l-267 -350l267 -348l-281 -140z" />
<glyph unicode="&#x203a;" horiz-adv-x="731" d="M61 199l267 350l-267 348l281 139l328 -438v-98l-328 -439z" />
<glyph unicode="&#x2044;" horiz-adv-x="1026" d="M-150 -201l955 1753h323l-952 -1753h-326z" />
<glyph unicode="&#x205f;" horiz-adv-x="477" />
<glyph unicode="&#x2122;" horiz-adv-x="1423" d="M33 1280v154h553v-154h-189v-477h-176v477h-188zM684 803v631h186l150 -244l151 244h185v-631h-174v368l-160 -249h-6l-160 249v-368h-172z" />
<glyph unicode="&#x2126;" horiz-adv-x="1654" d="M45 797v305h129v24q0 193 94 287q51 51 121 73.5t168 22.5q90 0 148.5 -8t105.5 -22v-275q-35 10 -69.5 16.5t-75.5 6.5q-111 0 -111 -105v-26h254v-299h-248v-797h-387v797h-129zM870 797v299h131v30q0 193 95 287q49 51 119.5 73.5t168.5 22.5q90 0 148.5 -8t105.5 -22 v-275q-35 10 -69.5 16.5t-75.5 6.5q-111 0 -111 -105v-26h254v-299h-247v-797h-388v797h-131z" />
<glyph unicode="&#x221a;" horiz-adv-x="2269" d="M45 797v305h129v24q0 193 94 287q51 51 121 73.5t168 22.5q90 0 148.5 -8t105.5 -22v-275q-35 10 -69.5 16.5t-75.5 6.5q-111 0 -111 -105v-26h254v-299h-248v-797h-387v797h-129zM870 797v299h131v30q0 193 95 287q49 51 119.5 73.5t168.5 22.5q90 0 148.5 -8t105.5 -22 v-275q-35 10 -69.5 16.5t-75.5 6.5q-111 0 -111 -105v-26h254v-299h-247v-797h-388v797h-131zM1767 0v1495h390v-1495h-390z" />
<glyph unicode="&#x2248;" horiz-adv-x="2269" d="M45 797v305h129v24q0 193 94 287q51 51 121 73.5t168 22.5q90 0 148.5 -8t105.5 -22v-275q-35 10 -69.5 16.5t-75.5 6.5q-111 0 -111 -105v-26h254v-299h-248v-797h-387v797h-129zM870 797v299h131v30q0 193 95 287q49 51 119.5 73.5t168.5 22.5q90 0 148.5 -8t105.5 -22 v-275q-35 10 -69.5 16.5t-75.5 6.5q-111 0 -111 -105v-26h254v-299h-247v-797h-388v797h-131zM1759 1208v287h406v-287h-406zM1767 0v1108h390v-1108h-390z" />
<glyph unicode="&#x25fc;" horiz-adv-x="1105" d="M0 0v1106h1106v-1106h-1106z" />
<glyph horiz-adv-x="0" />
<glyph horiz-adv-x="1980" d="M207 0v1536h1571v-1536h-1571zM221 -145l12 2l15 -47l20 47h2l21 -47l14 45h12l-24 -70h-2l-23 47l-20 -47h-2zM283 446l6 -2q0 12 16 13q20 0 31.5 -21.5t17.5 -46.5q4 -14 2 -19t-6 -10q-4 -4 -8 -2l2 -8h57l-2 8q-4 -2 -8 0q-10 4 -12 19q-10 35 -10 51q0 27 18 27 q10 0 15.5 -5.5l9.5 -9.5l4 4q-6 10 -13.5 18.5t-23.5 8.5q-31 0 -29 -47q-6 20 -16 33.5t-27 13.5q-10 0 -17 -6t-7 -19zM287 1069l2 -6h39l24 47q2 6 10 6l7 -31q2 -10 -7 -14q-4 -2 -8 -2l2 -6h60l-2 6q-4 0 -8 2t-7.5 4t-5.5 10l-14 72q-2 10 6 14q4 2 8 3l-2 6h-55 q-41 0 -41 -31q0 -12 11 -20.5t28 -10.5l-19 -33q-4 -8 -9 -10t-9 -4q-6 -2 -10 -2zM291 260h1403v12h-1403v-12zM291 555h1403v12h-1403v-12zM291 631h289v67h-29v133h29v70h-289v-127h84v57h67v-40h-49v-50h49v-43h-67v58h-84v-125zM291 973h1403v12h-1403v-12zM291 1266 h1403v12h-1403v-12zM319 1153q0 18 17 18q16 0 18 -10l6 -39h-10q-16 0 -23.5 10.5t-7.5 20.5zM336 -145l12 2l14 -47l21 47h2l21 -47l14 45h12l-24 -70h-2l-23 47l-21 -47h-2zM451 -145l12 2l14 -47l21 47h2l20 -47l15 45h12l-25 -70h-2l-22 47l-21 -47h-2zM500 356l2 -6 h39l24 47q2 6 10 6l7 -30q2 -10 -7 -15q-4 -2 -8 -2l2 -6h60l-2 6q-4 0 -9 2q-4 2 -7 4.5t-5 10.5l-14 71q-2 10 6 15q4 2 8 2l-2 6h-55q-41 0 -41 -31q0 -12 11 -20t28 -10l-19 -33q-4 -8 -9 -10.5l-9 -4.5q-6 -2 -10 -2zM516 1161q0 -12 10 -12q8 0 9 6q0 6 -3.5 7t-3.5 5 q0 10 15 11q20 0 20 -25q0 -8 -4 -12q-33 4 -33 -13q0 -12 17 -12q12 0 22 10q12 -10 13 -30q0 -29 -25 -29t-25 18q0 6 7 7q2 0 4 -2.5t6 -2.5q8 0 8 11q0 10 -14 10q-18 0 -19 -21q0 -27 33 -26q27 0 39 11.5t12 27.5q0 25 -29 35q10 6 11 18q0 10 -10.5 20.5t-32.5 10.5 q-27 0 -27 -23zM532 440q0 18 17 19q16 0 18 -10l6 -39h-10q-16 0 -23.5 10t-7.5 20zM535 1128q0 6 8 7q10 0 14 -2q-6 -8 -14 -9q-8 0 -8 4zM553 94h35v4q-4 0 -6 2t2 9l16 16q4 4 8 4v-18q0 -4 -6 -11q-4 -2 -6 -2v-4h37v4q-4 0 -6 2q-6 2 -6 11v41q0 4 6 8q2 2 6 2v4h-37 v-4q2 0 6 -2q6 -6 6 -8v-19q-4 0 -8 4l-16 17q-6 2 -2 6q2 2 4 2v4h-29v-4q2 0 6 -2t5 -3t5 -3l21 -19l-27 -26q-2 -2 -4 -3.5t-4 -3.5q-4 -2 -6 -4v-4zM565 -207q0 8 8 8q9 0 9 -8t-9 -8q-8 0 -8 8zM600 -145h62v-11h-25v-57h-12v57h-25v11zM645 819q0 -35 25.5 -58.5 t70.5 -23.5h62v-39h-31v-67h166v67h-29v133h29v70h-197q-45 0 -70.5 -23.5t-25.5 -58.5zM670 94h22l15 25q6 8 14 8v-18q0 -4 -2 -5.5t-4 -3.5t-4 -2v-4h34v4q-4 0 -6 2q-4 4 -4 9v41q0 6 4 10q2 2 6 2v4h-36q-27 0 -27 -19q0 -10 18 -18l-14 -20q-4 -4 -7 -5.5t-5 -3.5 l-4 -2v-4zM678 -145l12 2l23 -31l18 29h14l-26 -39v-29h-12v29zM698 147q0 12 15 13q8 0 8 -8v-21h-6q-16 0 -17 16zM705 1073q0 -10 10 -17t20 -7q27 0 31 13t20 13q6 -14 25 -14q8 0 8 6q0 4 -6 10t-20 8q-8 6 -9.5 21.5t-4.5 33t-12 31t-34 13.5q-10 0 -18 -7.5t-8 -13.5 q0 -10 10 -10q8 0 8 12t10 13q10 0 13.5 -10.5t5.5 -25t7 -29.5t17 -28q-23 0 -30 -13t-17 -13t-10 8q0 4 2 5t2 5q0 10 -10 10t-10 -14zM711 422q0 -33 22.5 -52.5t48.5 -19.5h66l-2 8q-4 -2 -8 0q-10 4 -13 19l-16 63q-6 18 16 21l-2 6h-61q-18 0 -34.5 -11.5t-16.5 -33.5 zM733 424q0 35 29 35h12q6 -2 7 -3t5 -12l19 -71q0 -14 -8 -15h-11q-23 0 -38 20.5t-15 45.5zM754 809q0 23 26 22h23v-45h-23q-27 0 -26 23zM772 -145q29 4 38 -4.5t9 -18.5q0 -25 -35 -25v-20h-12v68zM784 -156v-26q23 0 23 12q0 16 -23 14zM788 131q0 -16 10.5 -27.5 t30.5 -11.5t30.5 11.5t10.5 27.5t-10 26.5t-31 10.5q-20 0 -30.5 -10.5t-10.5 -26.5zM805 131q0 33 24 33q25 0 25 -33q0 -14 -5 -24.5t-20 -10.5q-12 0 -18 10.5t-6 24.5zM834 1378l4 -22h61v4q-4 -2 -6 0q-4 0 -4 10v43q0 6 4 10h6v4h-59l-4 -20l4 -2q0 4 4 8q4 8 14 8h8 q8 0 8 -6v-20h-8q-6 0 -10 4q-2 2 -2 6h-4v-27h4q0 2 2 6q6 6 10 7h8v-23q0 -6 -8 -6h-8q-8 0 -16 8q-4 4 -4 10zM846 -180q0 16 10 26.5t27 10.5q14 0 23 -10.5t9 -24.5q0 -16 -9 -26.5t-25 -10.5t-25.5 10t-9.5 25zM858 -178q0 -27 23 -27q22 0 22 25q0 27 -22 26 q-23 0 -23 -24zM903 1145h8q-2 6 2 12q4 14 25 14h8q10 0 12 -12l7 -33h-9q-10 0 -18 9q-4 4 -6 10h-6l10 -47h6q0 4 2 10q4 12 14 12h9l6 -35q2 -10 -6 -14q-4 -2 -9 -2l3 -6h59l-2 6q-4 0 -8 2t-7.5 4t-5.5 10l-14 72q-2 10 6 14q4 2 8 3l-2 6h-92v-21v-14zM905 162 q2 0 6 -2t11 -8l16 -25v-16q0 -4 -6 -11q-2 -2 -4 -2v-4h35v4q-4 0 -7 2q-4 4 -4 11v16l17 25q2 4 5 5t5 3t4 2v4h-31v-4q2 0 4 -2t-2 -8l-12 -19l-12 19q-4 4 0 8q2 2 6 2v4h-31v-4zM922 467l2 -6q4 0 8 -2q6 -4 10 -17l16 -92l7 -2l61 90l12 -61q2 -14 -4 -19q-4 -2 -8 -2 l2 -6h43l-2 6q-2 0 -6 2q-10 4 -12 19l-15 65q-2 12 6 17q4 2 11 2l-2 6h-29l-59 -86l-11 61q-2 12 6 17q4 2 9 2l-2 6h-43zM942 -180q0 16 11.5 26.5t27.5 10.5q12 0 25 -9l-5 -10q-8 8 -22 8q-25 0 -25 -26q0 -25 27 -25q4 0 12 4v15h-18v10h31v-31q-12 -8 -27 -8 q-16 0 -26.5 9t-10.5 26zM946 1356h35v4q-4 0 -6 2q-4 4 -4 8v21h35v-21q0 -10 -7 -10q-2 -2 -4 0v-4h37v4q-4 -2 -6 0q-6 0 -6 10v43q0 6 6 10h6v4h-37v-2v-2h4q6 -6 7 -10v-18h-35v18q0 6 4 10h6v2v2h-35v-4h4q6 -6 6 -10v-43q0 -4 -2 -5t-4 -3t-4 -2v-4zM1016 831h24 l76 -94v-39h-29v-67h166v67h-30v41l75 92h29v70h-166v-70h23l-31 -47l-31 47h21v70h-127v-70zM1040 -145q29 4 38 -3.5t9 -17.5q0 -14 -14 -20l21 -27h-15l-16 23h-10v-23h-13v68zM1053 -156v-24q22 -2 22 12q0 16 -22 12zM1069 1405h4q2 4 6 8q10 10 15 10q6 0 6 -6v-47 q0 -10 -6 -10q-2 -2 -4 0v-4h34v4q-4 -2 -6 0q-4 0 -4 10v47q0 6 6 6t17 -10q4 -4 4 -8h4v8q0 4 -1 8t-1 9q-4 -2 -35 -3q-31 0 -37 3q0 -4 -1 -8.5t-1 -8.5v-8zM1075 162q2 0 4 -2q6 -6 8 -10l27 -56h2q2 -2 2 0l17 33l18 -33h2l25 56q2 4 5 6t5 4t4 2v4h-31v-4q2 0 4 -2 t0 -8l-18 -39l-10 20l8 17q2 4 4 5t4 3l4 4v4h-53l2 -4q2 0 4 -2l4 -4l6 -6l6 -11l-14 -26l-16 37q-4 6 0 10q2 2 4 2v4h-27v-4zM1112 -213l31 70h4l33 -70h-13l-8 16h-29l-6 -16h-12zM1118 1161q0 -12 10 -12q8 0 9 6q0 6 -3.5 7t-3.5 5q0 10 15 11q20 0 20 -25 q0 -8 -4 -12q-33 4 -33 -13q0 -12 17 -12q12 0 22 10q12 -10 13 -30q0 -29 -25 -29t-25 18q0 6 7 7q2 0 4 -2.5t6 -2.5q8 0 8 11q0 10 -14 10q-18 0 -19 -21q0 -27 33 -26q27 0 39 11.5t12 27.5q0 25 -28 35q10 6 10 18q0 10 -10.5 20.5t-32.5 10.5q-27 0 -27 -23zM1133 143 q-10 19 0 19q8 0 0 -19zM1135 -188h20l-10 24zM1137 467l2 -6q4 0 10 -2q10 -4 12 -17l8 -39q4 -16 16.5 -35.5t41.5 -19.5q35 0 39 16.5t0 32.5l-11 45q-4 8 -1 12.5t8 6.5q4 2 10 0l-2 6h-60l2 -6q4 0 9 -2q10 -4 12 -17l10 -43q4 -20 2 -30.5t-24 -10.5q-16 0 -26.5 13.5 t-14.5 31.5l-9 39q-2 14 7 19q4 2 8 0v6h-49zM1137 1128q0 6 8 7q10 0 14 -2q-6 -8 -14 -9q-8 0 -8 4zM1206 -145q29 4 38 -4.5t9 -18.5q0 -25 -34 -25v-20h-13v68zM1219 -156v-26q22 0 22 12q0 16 -22 14zM1231 117l4 -23h61v4q-4 -2 -6 0q-4 0 -4 11v43q0 6 4 10h6v4h-59 l-4 -21l4 -2q0 4 4 9q4 8 14 8h9q8 0 8 -6v-21h-8q-6 0 -11 4q-2 2 -2 6h-4v-26h4q0 2 2 6q6 6 11 6h8v-23q0 -6 -8 -6h-9q-8 0 -16 9q-4 4 -4 10zM1286 -145h12v-27h33v27h12v-68h-12v31h-33v-31h-12v68zM1303 1139q0 -33 23.5 -55.5t51.5 -22.5q14 0 30.5 10t16.5 35 q0 31 -23.5 54.5t-51.5 23.5q-14 0 -30.5 -10.5t-16.5 -34.5zM1327 1147q0 29 23 29q18 0 34.5 -23.5t16.5 -56.5q0 -27 -23 -27q-18 0 -34.5 23.5t-16.5 54.5zM1333 162q2 0 6 -2q6 -6 7 -10v-58h6l51 58v-41q0 -2 -6 -9q-2 -2 -4 -2v-4h28v4q-4 0 -6 2q-6 2 -6 9v41 q0 4 6 8q2 2 6 4v4h-20l-49 -53v37q0 6 6 10q2 2 6 2v4h-31v-4zM1368 426q0 -33 23.5 -55.5t52.5 -22.5q14 0 30.5 10t16.5 35q0 31 -23.5 54.5t-52.5 23.5q-14 0 -30.5 -10t-16.5 -35zM1370 -145l12 2l23 -31l18 29h15l-27 -39v-29h-12v29zM1393 434q0 29 22 29 q18 0 34.5 -23.5t16.5 -56.5q0 -27 -22 -27q-18 0 -34.5 23.5t-16.5 54.5zM1393 774h73v57h23v-133h-29v-67h166v67h-29v133h23v-57h74v127h-301v-127zM1450 -207q0 8 8 8t8 -8t-8 -8t-8 8zM1493 -180q0 16 10 26.5t27 10.5q12 0 22 -7l-4 -10q-6 6 -18 6q-10 0 -17.5 -7 t-7.5 -17q0 -27 27 -27q8 0 20 8l-2 -12q-6 -6 -20 -6q-37 0 -37 35zM1524 1180l2 -6q4 0 8 -3q10 -4 12 -14l15 -72q2 -10 -7 -14q-4 -2 -8 -2l2 -6h60l-2 6q-4 0 -9 2q-4 2 -7 4t-5 10l-6 33h49l6 -33q2 -10 -6 -14q-4 -2 -8 -2l2 -6h59l-2 6q-4 0 -8 2t-7 4t-5 10l-14 72 q-2 10 6 14q4 2 8 3l-2 6h-58l3 -6q4 0 8 -3q8 -4 10 -14l6 -31h-49l-6 31q-2 10 6 14q4 2 8 3l-2 6h-59zM1569 432h8q-2 6 2 12q4 14 25 15h8q10 0 12 -13l6 -32h-8q-10 0 -18 8q-4 4 -7 10h-6l11 -47h6q0 4 2 10q4 12 14 13h8l6 -35q2 -10 -6 -15q-4 -2 -8 -2l2 -6h60 l-3 6q-4 0 -8 2t-7 4.5t-5 10.5l-14 71q-2 10 6 15q4 2 8 2l-2 6h-92v-21v-14zM1581 -180q0 16 10.5 26.5t26.5 10.5q14 0 23.5 -10.5t9.5 -24.5q0 -16 -9.5 -26.5t-25.5 -10.5t-25.5 10t-9.5 25zM1593 -178q0 -27 23 -27q22 0 22 25q0 27 -22 26q-23 0 -23 -24zM1677 -213 l13 70h2l26 -54l27 54h2l12 -70h-12l-6 41l-21 -43h-4l-20 43l-6 -41h-13z" />
</font>
</defs>
</svg>
