<?xml version="1.0" standalone="no"?>
<!DOCTYPE svg PUBLIC "-//W3C//DTD SVG 1.1//EN" "http://www.w3.org/Graphics/SVG/1.1/DTD/svg11.dtd" >
<svg xmlns="http://www.w3.org/2000/svg">
<metadata></metadata>
<defs>
<font id="pf_agora_sans_proregular" horiz-adv-x="1142" >
<font-face units-per-em="2048" ascent="1536" descent="-512" />
<missing-glyph horiz-adv-x="557" />
<glyph unicode="&#xfb01;" horiz-adv-x="1114" d="M55 877v90q35 10 71 18t71 19v126q0 102 26.5 172t75.5 112t122 59.5t165 17.5q72 -2 155.5 -11.5t153.5 -25.5l-25 -129q-70 10 -139 18.5t-127 8.5q-129 0 -187.5 -46t-58.5 -182v-125h592v-999h-166v877h-426q0 -219 -1 -438.5t-1 -438.5h-161v877h-140z" />
<glyph unicode="&#xfb02;" horiz-adv-x="1138" d="M55 877v90q35 10 71 18t71 19v106q0 104 26.5 175t77.5 112t128 58.5t175 17.5q63 -4 132 -9.5t128 -15.5l111 18q0 -369 -1 -733t-1 -733h-162v1315q-53 8 -107.5 14t-99.5 6q-129 0 -187.5 -47t-58.5 -182v-107h295v-122h-295q0 -219 -1 -438.5t-1 -438.5h-161v877 h-140z" />
<glyph unicode="&#xfb03;" horiz-adv-x="1712" d="M55 877v90q35 10 71 18t71 19v133q0 86 30.5 148.5t85 103.5t129 60t164.5 19q66 0 132.5 -9t140.5 -32q51 47 128.5 66.5t178.5 19.5q72 0 154.5 -10t152.5 -26l-25 -129q-66 12 -133 20t-121 8q-68 0 -116.5 -9t-80.5 -34.5t-47.5 -69.5t-15.5 -114v-148h594v-1001 h-166v877h-428v-877h-163v877h-433q0 -219 -1 -438.5t-1 -438.5h-161v877h-140zM358 1001h435v187q0 35 5 63.5t15 55.5q-53 14 -101 19t-85 5q-78 0 -129.5 -14t-82 -45t-44 -78t-13.5 -113v-80z" />
<glyph unicode="&#xfb04;" horiz-adv-x="1738" d="M55 877v90q35 10 71 18t71 19v88q-8 182 95 278t306 96q70 0 136.5 -8t144.5 -31q102 86 278 86q72 0 161 -6t165 -16l92 18v-1509h-166v1356q-53 8 -107.5 14t-99.5 6q-129 0 -187.5 -47t-58.5 -180q0 -39 -1 -76t-1 -74h297v-122h-297v-877h-163v877h-433 q0 -219 -1 -438.5t-1 -438.5h-161v877h-140zM358 999h435q0 39 -1 81t1 82t6 76t14 60v9q-53 14 -101 19t-85 5q-78 0 -129.5 -14t-82 -45t-44 -78t-13.5 -113v-82z" />
<glyph horiz-adv-x="0" />
<glyph horiz-adv-x="682" />
<glyph unicode=" "  horiz-adv-x="557" />
<glyph unicode="&#x09;" horiz-adv-x="557" />
<glyph unicode="&#xa0;" horiz-adv-x="557" />
<glyph unicode="!" horiz-adv-x="460" d="M121 86q0 43 31.5 73.5t78.5 30.5t78 -30.5t31 -73.5q0 -45 -32 -77t-77 -32q-47 0 -78.5 32t-31.5 77zM150 1425h163l-4 -608l-18 -469h-113l-20 469z" />
<glyph unicode="&#x22;" horiz-adv-x="557" d="M94 1403h152l-31 -416h-92zM317 1403h150l-27 -416h-94z" />
<glyph unicode="#" horiz-adv-x="1091" d="M94 399l19 97h155l76 344h-164l19 94h166l79 352h105l-78 -352h301l78 352h106l-77 -352h141l-19 -94h-145l-76 -344h154l-19 -97h-155l-86 -399h-107l86 399h-299l-88 -399h-106l88 399h-154zM375 496h301l74 344h-299z" />
<glyph unicode="$" d="M139 106l51 119q96 -49 157 -63.5t106 -20.5v533q-61 20 -116.5 49t-97.5 67.5t-65.5 92t-23.5 127.5q0 150 86 236.5t217 113.5v137h75v-1651h-75v164q-82 8 -162 30.5t-152 65.5zM291 1022q0 -92 45 -135t117 -72v416q-68 -18 -115 -67.5t-47 -141.5zM598 -154v1651h78 v-131q63 -4 130.5 -21.5t125.5 -52.5l-41 -114q-78 35 -125 47t-90 16v-493q66 -25 128 -52.5t111.5 -68.5t79 -99.5t29.5 -144.5q0 -84 -26.5 -146.5t-72.5 -107.5t-109.5 -72.5t-139.5 -40.5v-170h-78zM676 145q98 16 151.5 73.5t53.5 166.5q0 90 -58.5 139t-146.5 82 v-461z" />
<glyph unicode="%" horiz-adv-x="1679" d="M41 946q0 70 13.5 144.5t50 137t103 102.5t173.5 40q109 0 173 -41t98 -104.5t44.5 -137t10.5 -139.5q0 -74 -15.5 -147.5t-54.5 -132t-102.5 -95t-157.5 -36.5q-104 0 -170 34.5t-102.5 93t-50 131t-13.5 150.5zM180 944q0 -63 7.5 -118.5t29 -96.5t61 -64.5 t103.5 -23.5q57 0 94 27.5t57.5 71.5t27.5 98.5t7 107.5q0 43 -4 98.5t-22.5 103.5t-56.5 81t-103 33q-68 0 -108 -32t-60 -79t-26.5 -102.5t-6.5 -104.5zM483 -45l602 1481h111l-598 -1481h-115zM973 403q0 70 13 145t50 137.5t103.5 102t173.5 39.5q109 0 173 -41 t98 -104.5t44 -136.5t10 -139q0 -74 -15 -148t-54 -132t-102.5 -95t-157.5 -37q-104 0 -170 34.5t-103 93t-50 131.5t-13 150zM1112 401q0 -63 7 -118.5t28.5 -96.5t61.5 -64.5t104 -23.5q57 0 94 28t57.5 72t27.5 98t7 107q0 43 -4 98.5t-22.5 103.5t-56.5 81t-103 33 q-68 0 -108 -32t-60.5 -79t-26.5 -102t-6 -105z" />
<glyph unicode="&#x26;" horiz-adv-x="1486" d="M70 375q0 137 88 245.5t252 198.5q-61 86 -86 150.5t-25 128.5q0 57 18.5 110.5t55.5 94t92 65.5t131 25q80 0 136 -23.5t92 -61.5t53.5 -86t17.5 -100q0 -57 -20.5 -105t-57.5 -89t-89 -79t-116 -75q47 -70 104.5 -144.5t117.5 -150.5q37 -43 74.5 -87t78.5 -87 q43 41 81 90t67.5 112.5t50 143.5t28.5 183h138q-6 -111 -29 -202t-57.5 -166t-80.5 -136.5t-104 -114.5q74 -72 153 -125t155 -86l-64 -115q-35 14 -80 40t-92 57.5t-95 68.5t-87 74q-100 -74 -217 -113t-234 -39q-94 0 -176 25t-143.5 74t-96 123.5t-34.5 175.5zM221 383 q0 -72 23.5 -125t64.5 -88t96.5 -52.5t116.5 -17.5q86 0 177.5 31t177.5 88q-53 53 -98.5 108.5t-86.5 108.5q-55 72 -109.5 141.5t-99.5 133.5q-113 -61 -187.5 -139t-74.5 -189zM449 1108q0 -51 25.5 -105.5t70.5 -117.5q43 23 81 46t67.5 52t46 62.5t16.5 76.5 q0 68 -43 110t-121 42q-41 0 -67.5 -16.5t-44 -42t-24.5 -54t-7 -53.5z" />
<glyph unicode="'" horiz-adv-x="395" d="M123 1403h153l-30 -416h-94z" />
<glyph unicode="(" horiz-adv-x="583" d="M123 584q0 170 33.5 311t82 251.5t99.5 189.5t88 124l72 -45q-23 -35 -61 -105.5t-73.5 -175t-61.5 -242.5t-26 -306q0 -188 26 -336t61.5 -257.5t73.5 -181t63 -110.5l-74 -51q-35 43 -86 124t-99 197.5t-83 269.5t-35 343z" />
<glyph unicode=")" horiz-adv-x="587" d="M66 -299q25 39 62.5 110.5t73.5 181t61.5 257t25.5 336.5q0 168 -25.5 306t-61.5 242.5t-74 175t-60 105.5l71 45q37 -45 88.5 -124t99.5 -189.5t81.5 -251.5t33.5 -311q0 -190 -34.5 -343t-83 -269.5t-100.5 -197.5t-87 -124z" />
<glyph unicode="*" horiz-adv-x="796" d="M100 1135q4 49 16.5 88t37.5 75l206 -116q-10 57 -23 115.5t-24 115.5q23 6 45.5 8t44.5 2q23 0 43.5 -2t40.5 -8l-47 -231q51 27 102.5 54.5t104.5 55.5q35 -39 43 -76.5t12 -85.5q-61 -6 -120.5 -14t-120.5 -14l172 -162q-53 -68 -133 -100l-103 217l-100 -215 q-41 16 -72.5 37.5t-64.5 60.5l172 164z" />
<glyph unicode="+" d="M182 553v119h336v332h123v-332h334v-119h-334v-344h-123v344h-336z" />
<glyph unicode="," horiz-adv-x="430" d="M82 -201q82 80 92 191q-35 10 -55.5 36.5t-20.5 63.5q0 43 33 76t80 33q53 0 86 -38t33 -93q0 -43 -15.5 -90.5t-43 -91.5t-65.5 -80.5t-83 -59.5z" />
<glyph unicode="-" horiz-adv-x="749" d="M111 471v139h528v-139h-528z" />
<glyph unicode="." horiz-adv-x="425" d="M96 90q0 45 32 77t77 32q47 0 78.5 -32t31.5 -77q0 -47 -32.5 -78.5t-75.5 -31.5q-47 0 -79 31.5t-32 78.5z" />
<glyph unicode="/" horiz-adv-x="681" d="M31 -57l524 1493h111l-525 -1493h-110z" />
<glyph unicode="0" d="M70 670q0 115 20.5 240.5t75.5 230t154.5 172t259.5 67.5q109 0 186.5 -32.5t132.5 -87t89 -126t52.5 -150.5t24.5 -158.5t6 -151.5q0 -123 -24.5 -246t-81 -221t-151.5 -159.5t-236 -61.5q-160 0 -259.5 59t-154.5 155.5t-74.5 219.5t-19.5 250zM238 666 q0 -115 13 -215.5t50 -174t103.5 -116.5t175.5 -43q98 0 161.5 49t99.5 128t49 178.5t13 197.5q0 80 -7 180t-40 188t-97.5 148.5t-178.5 60.5q-115 0 -183.5 -57t-103.5 -144.5t-45 -189.5t-10 -190z" />
<glyph unicode="1" d="M201 1178v114l317 68h152v-1360h-164v1198z" />
<glyph unicode="2" d="M78 1233q61 45 122.5 73.5t118 45t105.5 22.5t88 6q92 0 170 -22.5t133 -69.5t87 -117.5t32 -164.5q0 -123 -67.5 -246t-164 -236.5t-204 -213t-187.5 -175.5l4 -10h672v-125h-903v113q55 53 127 118.5t147.5 139t148.5 152.5t130 159t92 158t35 149q0 131 -78 191.5 t-203 60.5q-51 0 -140 -17.5t-208 -88.5z" />
<glyph unicode="3" d="M90 61l41 119q113 -33 194 -47t142 -14q168 0 267.5 73.5t99.5 233.5q0 135 -99.5 202.5t-283.5 67.5q-29 0 -55.5 -2t-57.5 -6l-31 98l422 424l-8 15l-580 2v133h799q8 -27 14.5 -52.5t12.5 -50.5l-424 -421l6 -15h31q90 0 167.5 -23.5t134 -71.5t88 -122t31.5 -176 q0 -113 -40.5 -197t-109.5 -139t-160 -82.5t-191 -27.5q-117 2 -218.5 20t-191.5 59z" />
<glyph unicode="4" d="M66 377v119l639 864h174v-860h198v-123h-198v-377h-160q0 94 1 188.5t1 188.5h-655zM223 500h500v663h-12q-123 -166 -242 -331.5t-246 -331.5z" />
<glyph unicode="5" d="M100 63l39 119q115 -35 196 -48t144 -13q166 0 265.5 73.5t99.5 235.5q0 74 -26.5 129t-72 92t-105.5 55.5t-126 18.5q-59 0 -118.5 -14.5t-114.5 -40.5l-99 65l41 625h727v-133h-590l-26 -414q29 8 83 24.5t146 16.5q84 0 165 -23.5t143.5 -74.5t101.5 -132t39 -194 q0 -115 -41 -199t-108.5 -139t-157 -82.5t-185.5 -27.5q-113 0 -220 18t-200 63z" />
<glyph unicode="6" d="M106 621q0 166 33 305t99.5 240.5t168 157.5t240.5 56q109 0 185.5 -22.5t111.5 -40.5q-10 -29 -18 -58.5t-19 -58.5q-76 29 -141.5 39t-114.5 10q-115 0 -186.5 -55t-114.5 -134t-60.5 -163t-19.5 -141l11 -6q78 41 159.5 70.5t186.5 29.5q80 0 154.5 -23.5t132 -75 t91 -131t33.5 -192.5q0 -104 -33.5 -186t-94 -138.5t-145.5 -87t-187 -30.5q-139 0 -230.5 50t-144.5 136t-75 201.5t-22 247.5zM272 573q0 -66 9.5 -145.5t42 -149t93 -116.5t165.5 -47q145 0 220 86t75 219q0 66 -14.5 121t-47.5 95t-86 62.5t-133 22.5 q-76 0 -135.5 -15.5t-100.5 -35t-63.5 -36t-24.5 -18.5v-43z" />
<glyph unicode="7" d="M160 1227v133h829v-121l-559 -1239h-158l555 1227h-667z" />
<glyph unicode="8" d="M98 338q0 51 12.5 108.5t41 112.5t78 106.5t120.5 92.5q-98 57 -143 119.5t-45 162.5q0 74 31.5 136.5t88 108.5t134.5 72.5t170 26.5q72 0 144.5 -18t132 -58t97 -103.5t37.5 -151.5q0 -37 -8 -78t-30.5 -83t-61.5 -87t-102 -90q47 -25 91 -58.5t76.5 -79t52 -99.5 t19.5 -118q0 -80 -32.5 -148.5t-94 -119.5t-149.5 -79.5t-197 -28.5q-225 0 -344 98t-119 256zM266 358q0 -51 18.5 -97t56.5 -80t94 -53t132 -19q147 0 227 74.5t80 187.5q0 59 -28.5 103t-80.5 81t-127 70.5t-167 72.5q-61 -37 -100 -81t-62.5 -88t-33 -88t-9.5 -83z M332 1040q0 -51 24.5 -88t67.5 -65.5t100.5 -55t124.5 -57.5q106 72 148.5 132.5t42.5 123.5q0 35 -14.5 74t-45 71.5t-81 54t-119.5 21.5q-70 0 -117 -22.5t-77 -55t-42 -69.5t-12 -64z" />
<glyph unicode="9" d="M88 936q0 104 34 186t94 139.5t145 88t188 30.5q137 0 228 -50t145.5 -137t76 -203t21.5 -247q0 -166 -33 -304t-99.5 -238.5t-169 -156.5t-239.5 -56q-111 0 -195.5 21.5t-119.5 39.5q10 29 18 58.5t19 58.5q76 -29 150.5 -39t123.5 -10q113 0 185.5 55t114.5 134 t59.5 163t21.5 141l-10 6q-76 -45 -159 -73.5t-187 -28.5q-82 0 -157 23.5t-131 75t-90 131t-34 192.5zM250 944q0 -66 14.5 -121t47 -95t85.5 -62.5t133 -22.5q76 0 135.5 15.5t100.5 35t62.5 35.5t25.5 19v45q0 63 -9 141t-42 146.5t-93.5 115.5t-164.5 47 q-147 0 -221 -83t-74 -216z" />
<glyph unicode=":" horiz-adv-x="419" d="M104 94q0 45 32 77t77 32q47 0 79 -32t32 -77t-30 -77.5t-79 -32.5q-47 0 -79 32.5t-32 77.5zM104 737q0 47 32 78t77 31q47 0 79 -31t32 -78t-33 -78.5t-76 -31.5q-45 0 -78 32.5t-33 77.5z" />
<glyph unicode=";" horiz-adv-x="419" d="M82 -197q84 76 92 187q-35 10 -55.5 36.5t-20.5 63.5q0 43 33 76t80 33q53 0 86 -38t33 -93q0 -43 -15.5 -89.5t-43 -90.5t-65.5 -80.5t-83 -59.5zM104 737q0 47 32 78t77 31q47 0 79 -31t32 -78t-33 -78.5t-76 -31.5q-45 0 -78 32.5t-33 77.5z" />
<glyph unicode="&#x3c;" d="M172 557v102l815 410v-139l-665 -320l665 -327v-138z" />
<glyph unicode="=" d="M158 410v116h825v-116h-825zM158 707v118h825v-118h-825z" />
<glyph unicode="&#x3e;" d="M172 145v138l666 327l-666 320v139l815 -410v-102z" />
<glyph unicode="?" horiz-adv-x="903" d="M86 1376q98 35 195.5 50.5t175.5 15.5q197 0 294 -77t97 -214q0 -76 -33 -138.5t-82 -115.5t-106.5 -100t-106.5 -94.5t-81.5 -95.5t-32.5 -103q0 -35 6 -69t12 -79l-135 -18q-14 59 -19.5 106.5t-5.5 79.5q0 57 17.5 104.5t50.5 91.5t81 90t109 99q68 59 108 114.5 t40 123.5q0 43 -17.5 72.5t-47.5 48t-70.5 28t-88.5 9.5q-61 0 -138 -10.5t-183 -45.5q-10 33 -19.5 63.5t-19.5 63.5zM283 84q0 43 30.5 73.5t75.5 30.5q47 0 78 -30.5t31 -73.5q0 -45 -32 -74.5t-75 -29.5q-45 0 -76.5 30.5t-31.5 73.5z" />
<glyph unicode="@" horiz-adv-x="1896" d="M164 662q0 166 64.5 306t177 242.5t262 159.5t319.5 57q174 0 312.5 -51t234.5 -143t147.5 -222t51.5 -288q-2 -109 -34 -190.5t-84 -136t-118.5 -82t-136.5 -27.5q-66 0 -133.5 28.5t-98.5 90.5q-49 -49 -123.5 -81t-158.5 -32q-72 0 -117 23.5t-71.5 59.5t-36 76 t-9.5 74q0 102 66.5 163t189.5 73l234 20v45q0 96 -33 132t-125 36q-53 0 -115.5 -11t-130.5 -34l-16 54q-4 10 -8 25t-10 26q72 31 152.5 48t158.5 17q123 0 193.5 -59.5t70.5 -208.5v-326q0 -59 34 -93t105 -34q41 0 82 18.5t75 57.5t55.5 99.5t21.5 144.5 q0 139 -44 250.5t-126 188.5t-197 118t-258 41t-271 -49t-223.5 -137.5t-151.5 -207t-56 -257.5q0 -141 49 -260t136 -207t205 -137.5t255 -49.5q57 0 122.5 8.5t143.5 36.5l35 -100q-59 -27 -139 -42t-158 -15q-172 0 -314.5 57t-244 158.5t-156.5 241t-55 305.5zM764 539 q0 -63 31.5 -97t103.5 -34q96 0 203 88v186l-191 -16q-61 -6 -104 -39t-43 -88z" />
<glyph unicode="A" horiz-adv-x="1185" d="M20 0q125 381 242 731t221 672h222l458 -1403h-182q-29 92 -57.5 183t-57.5 184h-553q-29 -92 -57.5 -183.5t-56.5 -183.5h-179zM356 500h469q-47 156 -94 312.5t-96 309.5l-41 138h-6l-41 -140q-23 -76 -45.5 -148.5t-45 -147t-47 -154.5t-53.5 -170z" />
<glyph unicode="B" horiz-adv-x="1247" d="M164 0v1401h504q102 0 180 -26.5t129 -75t76.5 -114t25.5 -143.5q0 -86 -42 -170t-150 -139q70 -23 113.5 -64.5t70.5 -92t37 -102.5t10 -93q0 -86 -31.5 -156.5t-86 -121t-126 -77t-151.5 -26.5h-559zM336 133h330q76 0 129 21.5t86.5 57.5t49 84t15.5 101 q0 51 -17.5 99.5t-52 85t-88 58.5t-122.5 22h-330v-529zM336 793h293q135 0 205.5 63t70.5 172q0 104 -64.5 172t-211.5 68h-293v-475z" />
<glyph unicode="C" horiz-adv-x="1214" d="M123 692q0 76 11 159t39 165t74 155.5t113.5 130t160.5 90t216 33.5q115 0 203 -17t152 -40l-37 -129q-84 29 -160 38t-141 9q-115 0 -200 -41t-140.5 -117.5t-83 -187.5t-27.5 -248q0 -121 19.5 -224t70.5 -180t139.5 -121t225.5 -44q27 0 67.5 3t85.5 9t92.5 15.5 t88.5 21.5l32 -123q-37 -14 -85 -26.5t-101 -20.5t-107.5 -13t-103.5 -5q-168 0 -282.5 51t-186.5 144t-103.5 224.5t-31.5 288.5z" />
<glyph unicode="D" horiz-adv-x="1318" d="M164 0v1403h457q170 0 281.5 -56.5t177 -152.5t91 -222t25.5 -267q0 -143 -28.5 -271.5t-97.5 -224.5t-182.5 -152.5t-285.5 -56.5h-438zM342 135h240q31 0 75.5 4t93 20.5t95.5 51.5t85 96.5t61.5 154.5t23.5 228q0 137 -21.5 233.5t-56.5 161t-80 101.5t-92 55.5 t-92 23.5t-82 5h-250v-1135z" />
<glyph unicode="E" horiz-adv-x="1155" d="M164 0v1401h854v-131h-680v-465h573v-127h-573v-545h713v-133h-887z" />
<glyph unicode="F" horiz-adv-x="1093" d="M164 0v1401h848v-133h-674v-473h557v-131h-557v-664h-174z" />
<glyph unicode="G" horiz-adv-x="1288" d="M123 694q0 74 11 158t39 165t76 154.5t119.5 130t170 90t229.5 33.5q113 0 204 -17t154 -40l-34 -129q-88 29 -166 38t-144 9q-123 0 -214 -42t-149.5 -119.5t-87 -188.5t-28.5 -250q0 -117 19.5 -219t68.5 -177t133 -119t213 -44q27 0 59.5 2t66.5 6t66 9.5t56 13.5v563 h162v-672q-104 -35 -212 -50t-212 -15q-166 0 -279.5 52t-185.5 145t-103.5 224.5t-31.5 288.5z" />
<glyph unicode="H" horiz-adv-x="1337" d="M164 0v1401h178q0 -150 -1 -295t-1 -295h655v590h179v-1401h-179v670h-655q0 -168 1 -335t1 -335h-178z" />
<glyph unicode="I" horiz-adv-x="540" d="M184 0v1403h172v-1403h-172z" />
<glyph unicode="J" horiz-adv-x="632" d="M-96 -244q98 55 164.5 106.5t107.5 109t58.5 126t17.5 160.5l2 1145h174l-2 -1135q0 -133 -30.5 -233.5t-90 -176t-147.5 -131t-205 -96.5z" />
<glyph unicode="K" horiz-adv-x="1187" d="M164 0v1403h172v-637l612 637h197l-543 -559l563 -844h-194l-482 727l-153 -158v-569h-172z" />
<glyph unicode="L" horiz-adv-x="1099" d="M164 0v1401h174v-1272h741v-129h-915z" />
<glyph unicode="M" horiz-adv-x="1681" d="M164 0v1401h196l209 -475l267 -600h12q66 150 134.5 299t133.5 301l213 475h189v-1401h-168v1096h-4l-123 -281q-37 -80 -73 -161t-75 -162q-39 -90 -78 -176.5t-79 -176.5h-162l-133 303q-45 102 -90.5 201.5t-92.5 202.5q-27 63 -53.5 124.5t-52.5 123.5h-4 q0 -274 -1 -547t-1 -547h-164z" />
<glyph unicode="N" horiz-adv-x="1396" d="M164 0v1401h174q131 -201 257 -397.5t255 -397.5l205 -321h10v1116h168v-1401h-170l-541 846l-184 295q-2 0 -3 -1t-5 -1v-1139h-166z" />
<glyph unicode="O" horiz-adv-x="1429" d="M123 690q0 145 31.5 278.5t102.5 235t186.5 160.5t281.5 59q168 0 280.5 -60t179 -160.5t94.5 -232t28 -274.5q0 -152 -37 -282.5t-110 -226t-182.5 -149.5t-252.5 -54q-164 0 -277.5 50t-186.5 142t-105.5 222t-32.5 292zM303 688q0 -281 98.5 -426t323.5 -145 q102 0 178 45t125 122.5t72.5 182t23.5 223.5q0 104 -15 211t-58 194t-121 142t-205 55t-209 -51t-129 -136t-65.5 -193.5t-18.5 -223.5z" />
<glyph unicode="P" horiz-adv-x="1136" d="M164 0v1403h459q96 0 176 -25.5t138 -77t90 -128.5t32 -177q0 -63 -19.5 -137t-67.5 -136.5t-129 -104.5t-202 -42h-303l2 -575h-176zM338 707h278q49 0 96.5 13t85.5 46t60.5 87t22.5 136q0 72 -20.5 125t-57.5 88t-87 51.5t-108 16.5h-270v-563z" />
<glyph unicode="Q" horiz-adv-x="1431" d="M123 690q0 145 31.5 278.5t102.5 235t185.5 160.5t280.5 59q168 0 280.5 -60t179 -161.5t94.5 -233t28 -274.5q0 -113 -20.5 -214t-60.5 -185t-99.5 -148.5t-139.5 -103.5l315 -84q-16 -35 -28 -73t-27 -72q-117 39 -230.5 76.5t-230.5 78.5l-61 8q-162 10 -275.5 60.5 t-186.5 139.5t-105.5 218t-32.5 295zM301 686q0 -281 99.5 -426t322.5 -145q104 0 180 45t125 122.5t72.5 182t23.5 225.5q0 102 -15 209t-58 194t-122 142t-206 55t-209 -51t-129 -136t-65.5 -193.5t-18.5 -223.5z" />
<glyph unicode="R" horiz-adv-x="1202" d="M164 0v1403h481q207 0 312.5 -106.5t105.5 -280.5q0 -125 -62.5 -226.5t-185.5 -136.5q82 -25 119 -93t61 -154l115 -406h-174l-111 385q-20 68 -45.5 112t-57.5 69.5t-73 34.5t-92 9h-221v-610h-172zM336 743h282q41 0 88.5 10.5t87.5 40t65.5 81t25.5 133.5 q0 70 -20.5 120t-57.5 80.5t-86 45t-107 14.5h-278v-525z" />
<glyph unicode="S" horiz-adv-x="1173" d="M102 92l60 127q125 -59 221 -77.5t174 -18.5q160 0 249 56.5t89 205.5q0 63 -22.5 105t-63.5 70t-96.5 47.5t-118.5 35.5q-92 25 -176 51.5t-148.5 67.5t-102.5 104.5t-38 161.5q0 94 35 168t96.5 125t146.5 77.5t187 26.5q88 0 191.5 -17t193.5 -71l-55 -123 q-100 45 -184.5 58.5t-153.5 13.5q-123 0 -201 -62.5t-78 -191.5q0 -57 26.5 -96t72 -64.5t100.5 -43t115 -31.5q76 -18 155.5 -42t145 -68t107.5 -115.5t42 -186.5q0 -104 -38 -180t-106.5 -125t-163.5 -72.5t-208 -23.5q-111 0 -229.5 24.5t-223.5 83.5z" />
<glyph unicode="T" horiz-adv-x="1153" d="M41 1266v137h1071v-137h-448l-2 -1266h-170v1266h-451z" />
<glyph unicode="U" horiz-adv-x="1361" d="M147 504v899h172v-901q0 -193 94.5 -289t268.5 -96t269.5 95t95.5 290l-3 901h173v-899q0 -117 -33 -213t-99.5 -165t-167 -105.5t-237.5 -36.5q-281 0 -407 138t-126 382z" />
<glyph unicode="V" horiz-adv-x="1134" d="M20 1403h185l280 -938l80 -285h10l82 287l277 936h180l-444 -1403h-205z" />
<glyph unicode="W" horiz-adv-x="1714" d="M20 1401h181q47 -209 94 -417t96 -417q18 -88 38 -178t40 -178h10l74 334q25 115 49.5 221t48 210.5l47 209t47.5 215.5h185l225 -846q4 -12 16.5 -57t26.5 -100.5t28.5 -107.5t20.5 -77h13q20 92 40.5 186.5t38.5 186.5q45 205 90.5 407.5t92.5 407.5h172 q-88 -379 -175 -730.5t-165 -670.5h-205q-55 215 -110.5 416.5t-112.5 423.5q-20 78 -39 153.5t-41 153.5l-15 2q-16 -78 -33.5 -156t-33.5 -155q-4 -23 -52 -232t-137 -606h-210z" />
<glyph unicode="X" horiz-adv-x="1140" d="M16 0l449 729q-104 168 -208.5 336t-211.5 336h197q84 -141 165.5 -280.5t167.5 -280.5l338 561h195q-111 -172 -218.5 -340t-215.5 -340l448 -721h-192q-92 152 -183.5 302.5t-183.5 303.5l-356 -606h-191z" />
<glyph unicode="Y" horiz-adv-x="1097" d="M20 1403h183l192 -369l144 -284h8l155 297l195 356h178l-442 -789v-614h-182v606z" />
<glyph unicode="Z" horiz-adv-x="1089" d="M45 0v131l750 1133h-699v139h914v-131l-752 -1131l789 -2v-139h-1002z" />
<glyph unicode="[" horiz-adv-x="532" d="M111 -328v1755h350v-110h-199v-1532h199v-113h-350z" />
<glyph unicode="\" horiz-adv-x="681" d="M31 1436h108l527 -1493h-113z" />
<glyph unicode="]" horiz-adv-x="532" d="M68 -215h198v1532h-198v110h348v-1755h-348v113z" />
<glyph unicode="^" horiz-adv-x="907" d="M43 780q92 154 179 307.5t179 307.5h99l352 -615h-127l-276 486q-66 -119 -139.5 -244t-139.5 -242h-127z" />
<glyph unicode="_" horiz-adv-x="1024" d="M0 -174h1024v-96h-1024v96z" />
<glyph unicode="`" horiz-adv-x="997" d="M270 1380l123 117l252 -332l-78 -69z" />
<glyph unicode="a" horiz-adv-x="1085" d="M86 270q0 131 93 210t286 91l256 17v63q0 125 -45 176.5t-170 51.5q-74 0 -154 -14.5t-155 -41.5l-37 113q86 39 188.5 59.5t196.5 20.5q158 0 248 -74t90 -258v-559h135l10 -98q-37 -18 -85 -29.5t-89 -11.5q-59 0 -92 24.5t-37 102.5l-2 2q-57 -49 -110.5 -76 t-97.5 -39t-80 -14t-58 -2q-86 0 -142.5 28.5t-89 71.5t-46 93t-13.5 93zM264 287q0 -88 43 -131t142 -43q66 0 134 33.5t138 97.5v233l-256 -16q-102 -4 -151.5 -51.5t-49.5 -122.5z" />
<glyph unicode="b" horiz-adv-x="1067" d="M119 76v1380h168v-293l-6 -219l10 -8q88 49 162.5 68.5t138.5 19.5q109 0 181.5 -40t115.5 -110.5t61.5 -168t18.5 -209.5q0 -104 -21.5 -197.5t-72 -162t-133.5 -109.5t-205 -41q-102 0 -211 22.5t-207 67.5zM287 164q63 -29 124.5 -38t114.5 -9q63 0 113.5 18.5 t85.5 62.5t53.5 115.5t18.5 178.5q0 119 -17.5 195.5t-49.5 120.5t-76 60.5t-95 16.5q-72 0 -144.5 -25.5t-127.5 -58.5v-637z" />
<glyph unicode="c" horiz-adv-x="933" d="M98 487q0 80 18.5 173.5t69 174t139.5 134t230 53.5q68 0 139.5 -9t149.5 -42l-39 -121q-72 25 -129.5 31t-106.5 6q-145 0 -222 -104.5t-77 -278.5q0 -84 14.5 -153.5t47.5 -122t88 -81t139 -28.5q78 0 145.5 16.5t143.5 46.5l45 -110q-66 -35 -157 -59.5t-191 -24.5 q-125 0 -211 37.5t-138.5 105.5t-75 159t-22.5 197z" />
<glyph unicode="d" horiz-adv-x="1069" d="M98 481q0 115 21.5 213.5t70 171t126 114.5t188.5 42q29 0 64.5 -4t72.5 -13.5t73 -22.5t66 -34v508h168v-1456h-164v94l-4 4q-61 -51 -144 -80.5t-163 -29.5q-109 0 -180.5 40t-114.5 107.5t-61.5 156.5t-18.5 189zM270 479q0 -104 18.5 -173.5t50.5 -111.5t78 -59.5 t101 -17.5q31 0 69 9t74.5 24.5t68.5 33t50 35.5v598q-16 12 -44.5 24.5t-63.5 24t-73 17.5t-71 6q-53 0 -99 -19.5t-82 -66.5t-56.5 -126t-20.5 -198z" />
<glyph unicode="e" horiz-adv-x="1034" d="M98 498q0 45 6.5 101t23.5 113.5t48 114t80 99.5t118 69.5t163 26.5q100 0 168.5 -26.5t113.5 -69.5t69.5 -96.5t36 -106.5t13.5 -100.5t2 -77.5v-80h-670q0 -70 12.5 -133.5t45 -111.5t88 -76.5t139.5 -28.5q88 0 160.5 18.5t158.5 52.5l41 -106q-90 -47 -181 -69.5 t-191 -22.5q-133 0 -219 41t-136.5 109.5t-70 161.5t-19.5 198zM272 573h510q0 72 -12 132.5t-40 103.5t-73.5 66.5t-115.5 23.5q-72 0 -121 -26.5t-81 -71.5t-47.5 -104.5t-19.5 -123.5z" />
<glyph unicode="f" horiz-adv-x="747" d="M78 879v90l141 37v161q0 150 81 229t241 79q43 0 99 -5.5t110 -19.5l-23 -121q-37 6 -78 10t-74 4q-96 0 -145 -37.5t-49 -136.5v-168h293v-122h-293l-2 -879h-162v879h-139z" />
<glyph unicode="g" horiz-adv-x="1124" d="M90 -150q0 86 44 147.5t89 86.5q-59 12 -91 49t-32 96q0 45 14.5 75t38 50.5t51 30.5t52.5 16l4 7q-51 29 -91 89t-40 167q0 96 35 164.5t92 111.5t129 63.5t143 20.5q51 0 99.5 -5t91.5 -20h323v-106h-155l-4 -10q35 -37 52 -93.5t17 -117.5q0 -82 -31.5 -145.5 t-87 -107.5t-132 -66.5t-169.5 -22.5h-110q-74 0 -118 -14.5t-44 -61.5q0 -33 28.5 -50.5t76.5 -17.5h262q184 0 282.5 -77.5t98.5 -225.5q0 -74 -34 -134t-97.5 -103t-154.5 -65.5t-204 -22.5q-129 0 -212 24.5t-131 65.5t-66.5 93t-18.5 109zM254 -121q0 -39 11 -74.5 t44 -63.5t88.5 -44t145.5 -16q143 0 220 54t77 144q0 31 -8.5 63.5t-34 59.5t-72.5 43t-123 16h-227q-20 -6 -42 -24.5t-39.5 -44t-28.5 -55t-11 -58.5zM299 672q0 -102 59.5 -162.5t159.5 -60.5q57 0 105.5 13t83 40.5t55 70t20.5 99.5q0 39 -11 80t-40 73.5t-76 53 t-116 20.5q-119 0 -179.5 -59.5t-60.5 -167.5z" />
<glyph unicode="h" horiz-adv-x="1052" d="M119 0v1456h166v-323l-6 -213l16 -9q92 47 187.5 79t162.5 32q102 0 159.5 -29.5t86.5 -76t35 -103.5t6 -113v-700h-166v659q0 51 -5 93.5t-22.5 72t-52.5 45t-94 15.5q-72 0 -156 -31t-149 -68v-786h-168z" />
<glyph unicode="i" horiz-adv-x="520" d="M150 1262q0 47 32.5 78.5t75.5 31.5q47 0 80 -31.5t33 -78.5q0 -43 -33 -76t-80 -33q-43 0 -75.5 33t-32.5 76zM174 0v999h166v-999h-166z" />
<glyph unicode="j" horiz-adv-x="542" d="M-49 -332q74 43 121 79t73.5 76t37 89t10.5 115v972h165v-373.5v-260v-169v-100.5t-1 -55t-1 -33q-4 -92 -22.5 -160.5t-60.5 -121t-108.5 -93.5t-164.5 -77q-14 29 -25.5 56.5t-23.5 55.5zM170 1262q0 47 31.5 78.5t77.5 31.5q45 0 77.5 -31.5t32.5 -78.5 q0 -45 -32.5 -77t-77.5 -32t-77 32t-32 77z" />
<glyph unicode="k" horiz-adv-x="927" d="M119 0v1454h168v-635l-8 -227l14 -6q100 104 202.5 206.5t202.5 206.5h189q-94 -98 -192.5 -196t-194.5 -197q16 -23 33.5 -42t33.5 -42l351 -522h-185q-86 127 -168 253t-166 253l-112 -113v-393h-168z" />
<glyph unicode="l" horiz-adv-x="466" d="M150 0v1456h165l-2 -1456h-163z" />
<glyph unicode="m" horiz-adv-x="1656" d="M119 0v999h162l2 -90l8 -6q84 55 172 85t166 30q80 0 141 -28.5t100 -92.5q37 25 81 47.5t92.5 39.5t96.5 26.5t91 9.5q106 0 166.5 -32t91.5 -80t39 -107.5t8 -114.5v-686h-168v659q0 53 -7 95.5t-26.5 71t-55.5 43t-93 14.5q-33 0 -72 -7.5t-78 -18.5t-74.5 -27.5 t-64.5 -34.5q8 -35 10 -72t2 -64v-659h-166v692q0 98 -44 143.5t-117 45.5q-74 0 -153 -28t-144 -69v-784h-166z" />
<glyph unicode="n" horiz-adv-x="1052" d="M119 0v999h164l2 -86l6 -4q84 53 180 83t168 30q102 0 160.5 -29.5t88.5 -76t37 -103.5t7 -113v-700h-166v659q0 51 -5 93.5t-22.5 72t-52.5 45t-94 15.5q-72 0 -156 -31t-149 -68v-786h-168z" />
<glyph unicode="o" horiz-adv-x="1081" d="M98 494q0 100 24.5 194t78 168t139.5 119t209 45q125 0 209 -45t134 -118t70.5 -167t20.5 -192q0 -96 -21.5 -188.5t-73.5 -165t-140.5 -116.5t-219.5 -44q-123 0 -205.5 42t-132 111.5t-71 161.5t-21.5 195zM272 494q0 -74 10.5 -143.5t40 -122t84 -84t142.5 -31.5 q82 0 132 33.5t78.5 89t39 123t10.5 135.5t-9 137t-38 127.5t-80 95.5t-133 37q-84 0 -137.5 -36t-84 -92t-43 -128t-12.5 -141z" />
<glyph unicode="p" horiz-adv-x="1067" d="M119 -426v1425h162l2 -88l10 -8q61 49 140 79t159 30q106 0 179 -40t116 -108.5t61.5 -160t18.5 -191.5q0 -111 -21.5 -207t-69 -167.5t-124 -113.5t-187.5 -42q-29 0 -64.5 3t-73.5 10t-75 20.5t-67 35.5v-477h-166zM287 178q16 -12 44.5 -24.5t62.5 -23.5t71 -17.5 t72 -6.5q53 0 100 19.5t83 68t56.5 127t20.5 195.5q0 104 -18.5 173t-51.5 110t-79 58t-101 17q-31 0 -69 -9t-74.5 -24.5t-67.5 -32.5t-49 -36v-594z" />
<glyph unicode="q" horiz-adv-x="1069" d="M100 463q0 111 21.5 211t72 176t135.5 120t214 44q109 0 212 -23.5t193 -64.5q0 -340 -1 -677t-1 -675h-164v262v107.5t2 107.5l-16 8q-86 -47 -155.5 -64.5t-129.5 -17.5q-109 0 -181.5 36t-117.5 100.5t-64.5 153.5t-19.5 196zM270 496q0 -113 17.5 -186.5t48.5 -118 t75 -61.5t97 -17q72 0 144.5 25.5t127.5 56.5v645q-59 27 -117.5 36t-111.5 9q-125 0 -201 -91.5t-80 -297.5z" />
<glyph unicode="r" horiz-adv-x="718" d="M141 0v999h164l-6 -133l12 -8q37 33 82 62.5t92 52t92.5 37t84.5 14.5q23 0 37 -10t14 -41q0 -12 -5.5 -32.5t-12.5 -42t-17 -42t-23 -35.5q-86 -10 -173 -21.5t-173 -21.5v-778h-168z" />
<glyph unicode="s" horiz-adv-x="913" d="M80 66l53 114q96 -43 176 -55t133 -12q47 0 89 8t73 26.5t48.5 49t17.5 75.5q0 39 -17.5 67t-47.5 47.5t-68.5 33.5t-81.5 29q-66 23 -126.5 45t-107.5 54t-75.5 77t-28.5 114q0 72 28.5 125.5t77.5 88t114.5 51t141.5 16.5q31 0 70 -4t79 -12.5t78.5 -21.5t71.5 -34 l-51 -117q-78 31 -137.5 42.5t-112.5 11.5q-39 0 -75.5 -7.5t-64.5 -24.5t-45.5 -46t-17.5 -70q0 -33 21.5 -56.5t54.5 -41.5t70 -30.5t67 -22.5q63 -20 125 -42t111 -55.5t78.5 -84t29.5 -130.5q0 -76 -29.5 -130t-81.5 -89t-125 -51t-159 -16q-45 0 -93 5t-95 14t-91 24.5 t-77 34.5z" />
<glyph unicode="t" horiz-adv-x="729" d="M41 879v88l154 47l51 221l106 18v-254h301v-120h-303v-592q0 -72 28 -118t111 -46q68 0 189 35l27 -113q-55 -27 -122 -41t-128 -14q-268 0 -269 246v643h-145z" />
<glyph unicode="u" horiz-adv-x="1032" d="M119 297v702h166v-661q0 -53 5 -94t22.5 -70t51 -44t93.5 -15q57 0 138 30.5t153 96.5v757q41 0 81.5 1t81.5 1v-1001h-161l-2 113l-5 4q-49 -43 -98 -71t-93 -43t-80.5 -20.5t-63.5 -5.5q-102 0 -160 29t-86.5 75t-35.5 103.5t-7 112.5z" />
<glyph unicode="v" horiz-adv-x="948" d="M18 997h170q41 -131 85 -257t85 -255q29 -86 56.5 -178t56.5 -178h10q6 14 17.5 53t27 91.5t35 114t39.5 124.5l162 485h168l-361 -997h-200z" />
<glyph unicode="w" horiz-adv-x="1474" d="M18 999h168l142 -516l78 -317h10l84 330l143 503h162l166 -526l86 -307h12l74 305l143 528h168l-297 -999h-182l-146 463l-100 354h-10l-92 -354l-133 -463h-183z" />
<glyph unicode="x" horiz-adv-x="884" d="M8 0l336 522q-78 119 -152.5 238t-152.5 239h186q55 -92 108.5 -185t108.5 -185q57 92 110.5 185t111.5 185h184q-78 -121 -156 -237.5t-155 -235.5q86 -133 168.5 -263t168.5 -263h-186q-61 104 -122.5 208.5t-125.5 209.5q-66 -104 -126 -209t-126 -209h-180z" />
<glyph unicode="y" horiz-adv-x="942" d="M20 -406l27 117q55 -12 91 -17t71 -5q59 0 98 28.5t66 110.5l57 178h-80l-313 993h162l204 -686q20 -66 34 -123t22 -86h10l63 213q20 68 47 152t55 173t56.5 180t57.5 177h170q-47 -143 -96.5 -292.5t-99.5 -300t-100.5 -299t-97.5 -289.5q-37 -119 -104.5 -188.5 t-183.5 -69.5q-23 2 -73 5t-143 29z" />
<glyph unicode="z" horiz-adv-x="841" d="M25 0v104l559 758l-6 15h-492v122h711v-108l-557 -756l6 -12h573v-123h-794z" />
<glyph unicode="{" horiz-adv-x="542" d="M59 557v92q74 14 105 76.5t31 140.5v232q0 43 2 101t18 111.5t53 90.5t107 37h121v-111h-47q-55 0 -79 -38t-24 -97v-332q0 -41 -5 -82t-18.5 -74.5t-37 -59.5t-62.5 -38q45 -25 69.5 -54.5t37 -67.5t14.5 -86t2 -109v-391q0 -55 17.5 -94.5t76.5 -39.5h56v-110h-107 q-70 0 -108.5 27.5t-58 67.5t-23.5 84t-4 77v432q0 31 -4.5 64.5t-18.5 64.5t-41 54.5t-72 31.5z" />
<glyph unicode="|" horiz-adv-x="497" d="M182 -285v1719h119v-1719h-119z" />
<glyph unicode="}" horiz-adv-x="542" d="M49 -236h55q59 0 77 39t18 95v391q0 61 2 109t14 86t36.5 68t70.5 54q-39 12 -62.5 38t-37 59.5t-18.5 74.5t-5 82v332q0 59 -23.5 97t-79.5 38h-47v111h121q70 0 106.5 -37t53 -90.5t18.5 -111.5t2 -101v-232q0 -78 31 -140t104 -77v-92q-45 -8 -71.5 -31.5t-41 -54.5 t-18.5 -64.5t-4 -64.5v-432q0 -33 -4 -77t-23.5 -84t-58.5 -67.5t-108 -27.5h-107v110z" />
<glyph unicode="~" d="M154 563q35 80 95 127t138 47q47 0 104.5 -15t116 -32.5t111.5 -33t94 -15.5l139 98l68 -55q-33 -78 -92.5 -128t-139.5 -50q-61 0 -117.5 15.5t-108.5 32.5t-99 32.5t-90 15.5l-150 -96z" />
<glyph unicode="&#xa1;" horiz-adv-x="460" d="M121 907q0 45 31.5 77t78.5 32q43 0 75 -32t32 -77q0 -43 -31 -73.5t-78 -30.5t-77.5 30.5t-30.5 73.5zM147 -430q4 133 6.5 264t6.5 264q4 137 8 273.5t10 273.5h111q4 -166 8 -330.5t8 -330.5q0 -18 2 -79t3 -129.5t2 -128t1 -77.5h-166z" />
<glyph unicode="&#xa2;" d="M172 487q0 76 16.5 164t60.5 166t123 134.5t201 68.5v188h93v-186q59 -2 121.5 -12.5t130.5 -38.5l-39 -121q-66 23 -117 29t-96 8v-768q68 4 128 19.5t128 43.5l45 -110q-57 -33 -136 -55.5t-165 -26.5v-164h-93v164q-113 6 -189.5 46t-123.5 106.5t-67.5 154.5 t-20.5 190zM344 504q0 -76 11.5 -140.5t38 -114.5t70.5 -83t109 -43v756q-113 -25 -171 -124t-58 -251z" />
<glyph unicode="&#xa3;" d="M123 0l2 123q47 20 76.5 59t47 87t26 102.5t10.5 103.5l8 162h-137v108h143l10 220q6 86 29.5 161.5t72 131t121 87t175.5 31.5q45 0 91 -5t91 -14t84 -21.5t69 -26.5l-49 -125q-86 37 -154.5 46t-119.5 9q-74 0 -121 -20.5t-75.5 -58.5t-41 -90t-16.5 -116l-10 -209h379 v-108h-385l-9 -166q-2 -49 -8 -101.5t-18.5 -98.5t-32 -85t-45.5 -61h694v-125h-907z" />
<glyph unicode="&#xa4;" horiz-adv-x="1126" d="M119 268l131 125q-47 59 -63.5 118.5t-16.5 113.5q0 61 18.5 122.5t61.5 112.5l-129 131l76 78l131 -131q102 80 235 80q125 0 234 -80l129 131l80 -80l-134 -127q41 -55 59.5 -112.5t18.5 -120.5q0 -66 -20.5 -124.5t-57.5 -111.5l134 -123l-80 -82l-131 129 q-55 -45 -113.5 -61t-118.5 -16q-61 0 -118.5 16t-114.5 61l-133 -131zM287 627q0 -57 21.5 -106.5t58 -86.5t87 -58.5t107.5 -21.5q55 0 104.5 21.5t87.5 58.5t59.5 86t21.5 107q0 55 -21.5 105t-58.5 87t-87.5 58.5t-105.5 21.5q-57 0 -107.5 -21.5t-87 -58.5t-58 -87 t-21.5 -105z" />
<glyph unicode="&#xa5;" d="M86 1360h174l180 -389l123 -264h8q33 66 64 131t61 131l187 391h168l-353 -688h291v-82h-846v82h285q-86 174 -171 344t-171 344zM143 403v84h846v-84h-340v-403h-170v403h-336z" />
<glyph unicode="&#xa6;" horiz-adv-x="497" d="M182 -285v783h119v-783h-119zM182 700v734h119v-734h-119z" />
<glyph unicode="&#xa7;" horiz-adv-x="966" d="M119 647q0 76 37 145.5t114 125.5q-68 47 -98.5 96t-30.5 116q0 78 29 136.5t80 98.5t120.5 59.5t151.5 19.5q98 0 174 -14.5t129 -36.5l-39 -113q-84 27 -148.5 35t-117.5 8q-92 0 -159.5 -43t-67.5 -137q0 -43 30.5 -77t79 -62.5t105.5 -54t110 -50.5q43 -20 85 -45 t75 -57.5t53.5 -73.5t20.5 -94q0 -72 -29.5 -138.5t-111.5 -134.5q51 -31 80.5 -65.5t46 -68.5t21.5 -64.5t5 -51.5q0 -84 -32.5 -144t-89 -100t-131 -59.5t-158.5 -19.5q-102 0 -178 17.5t-136 35.5l33 111q94 -31 161.5 -40t121.5 -9q127 0 190.5 52t63.5 142 q0 72 -50.5 116t-136.5 85q-68 31 -138.5 60.5t-129.5 68.5t-97 92t-38 133zM268 682q0 -61 31 -100t80 -66t110.5 -50.5t120.5 -53.5q47 47 73 98t26 86q0 57 -32 96t-81 67.5t-107.5 52.5t-113.5 52q-51 -41 -79 -85t-28 -97z" />
<glyph unicode="&#xa8;" horiz-adv-x="962" d="M203 1235q0 39 28.5 64.5t63.5 25.5q43 0 69.5 -24.5t26.5 -65.5q0 -39 -26.5 -64.5t-67.5 -25.5t-67.5 25.5t-26.5 64.5zM588 1235q0 39 26.5 64.5t61.5 25.5q43 0 71.5 -24.5t28.5 -65.5q0 -39 -28.5 -64.5t-71.5 -25.5q-39 0 -63.5 25.5t-24.5 64.5z" />
<glyph unicode="&#xa9;" horiz-adv-x="1710" d="M102 682q0 154 59.5 289t162 236.5t238.5 159.5t292 58q154 0 291 -58t240.5 -159.5t163 -236.5t59.5 -289t-59.5 -290t-163 -237.5t-240.5 -159.5t-291 -58q-156 0 -292 58t-238.5 159.5t-162 237.5t-59.5 290zM190 682q0 -135 52.5 -255t143.5 -209t212 -140t256 -51 q137 0 259 51t211 140t141.5 209t52.5 255t-52.5 255t-141.5 209t-211 140t-259 51q-135 0 -256 -51t-212 -140t-143.5 -209t-52.5 -255zM434 666q0 80 19.5 173t69.5 170.5t136 130t222 52.5q86 0 147.5 -12.5t104.5 -28.5l-27 -98q-59 23 -114.5 28.5t-102.5 5.5 q-162 0 -243 -112t-81 -309q0 -86 14.5 -160t51.5 -128t100.5 -85t159.5 -31q20 0 50 2t62.5 6t65.5 10.5t61 14.5l23 -92q-51 -20 -132 -33.5t-153 -13.5q-121 0 -202.5 36.5t-134 104.5t-75 161t-22.5 208z" />
<glyph unicode="&#xaa;" horiz-adv-x="712" d="M41 731q0 74 40 115t102.5 61.5t138 25.5t145.5 7v35q0 78 -27.5 106.5t-105.5 28.5q-96 0 -213 -41q-6 23 -15.5 47.5t-17.5 46.5q63 29 135 43.5t139 14.5q113 0 175.5 -50.5t62.5 -177.5v-342h92l8 -88q-29 -12 -66.5 -18t-66.5 -6q-35 0 -61.5 14t-36.5 55 q-70 -53 -127 -63t-86 -10q-63 0 -105 19t-67 48t-34 63.5t-9 65.5zM184 741q0 -51 27 -77.5t86 -26.5q35 0 84 20.5t86 49.5v147q-53 0 -103.5 -4t-90.5 -15.5t-64.5 -33t-24.5 -60.5z" />
<glyph unicode="&#xab;" horiz-adv-x="886" d="M123 346v80l299 326l70 -54l-207 -313l207 -311l-68 -51zM424 346v80l301 326l70 -54l-207 -313l207 -311l-68 -51z" />
<glyph unicode="&#xac;" d="M182 553v119h793v-463h-125v344h-668z" />
<glyph unicode="&#xad;" horiz-adv-x="749" d="M111 471v139h528v-139h-528z" />
<glyph unicode="&#xae;" horiz-adv-x="1189" d="M88 965q0 102 39 191t105.5 155.5t157.5 105.5t196 39q102 0 192 -39t158 -105.5t106.5 -155.5t38.5 -191t-38.5 -191.5t-106.5 -155t-158 -104.5t-192 -39q-104 0 -194.5 39t-158 104.5t-106.5 154.5t-39 192zM162 965q0 -86 32.5 -163t90 -133.5t134.5 -90t167 -33.5 t167.5 33.5t134 90t88.5 133.5t32 163t-33 162.5t-89.5 134t-134 91t-165.5 33.5t-166 -33.5t-135.5 -91t-90 -134t-32.5 -162.5zM410 672v598h204q86 0 137.5 -41t51.5 -127q0 -39 -25.5 -87t-85.5 -73l125 -270h-98l-115 258h-104v-258h-90zM500 995h106q41 0 74 21t33 84 q0 57 -32 80.5t-73 23.5h-108v-209z" />
<glyph unicode="&#xaf;" horiz-adv-x="1030" d="M172 1212v131h674v-131h-674z" />
<glyph unicode="&#xb0;" horiz-adv-x="710" d="M90 1102q0 55 21.5 105t59.5 88t88 60.5t108 22.5q57 0 107 -22.5t87 -60.5t57.5 -88t20.5 -105q0 -57 -20.5 -107.5t-57.5 -87.5t-87 -57.5t-107 -20.5q-63 0 -114.5 20.5t-87.5 57.5t-55.5 86t-19.5 109zM190 1100q0 -72 50.5 -123t124.5 -51q35 0 66.5 13t56 36.5 t39 55.5t14.5 69q0 76 -52.5 128t-123.5 52q-74 0 -124.5 -52t-50.5 -128z" />
<glyph unicode="&#xb1;" d="M182 0v109h791v-109h-791zM182 549v121h334v321h125v-321h332v-121h-332v-332h-125v332h-334z" />
<glyph unicode="&#xb2;" horiz-adv-x="745" d="M37 1462q86 59 162.5 76.5t130.5 17.5q129 0 208.5 -56t79.5 -173q0 -68 -37.5 -136.5t-94 -132t-122 -120.5t-120.5 -102q104 0 205.5 -1t203.5 -1v-107h-608v92q68 51 143.5 118t140 136.5t106.5 134t42 111.5q0 66 -45 94.5t-119 28.5q-31 0 -85 -10.5t-138 -57.5z " />
<glyph unicode="&#xb3;" horiz-adv-x="745" d="M45 770l35 100q92 -29 149.5 -32.5t94.5 -3.5q88 0 143 40.5t55 118.5q0 74 -62.5 105.5t-154.5 31.5q-45 0 -94 -6l-27 74l250 229l-4 11h-348v106h539l20 -78q-23 -18 -45.5 -39.5t-52 -49t-67.5 -62.5t-89 -84q55 -4 105.5 -20.5t88 -45t59.5 -71.5t22 -101 q0 -66 -28 -117t-73 -85.5t-104.5 -53t-122.5 -18.5q-84 0 -154.5 11t-134.5 40z" />
<glyph unicode="&#xb4;" horiz-adv-x="1007" d="M397 1159l252 332l119 -111l-297 -284z" />
<glyph unicode="&#xb6;" horiz-adv-x="1073" d="M88 1036q0 78 27.5 147.5t78 122t119 83t148.5 30.5h422v-1816h-121v1695h-139l2 -1695h-125v1063h-39q-80 0 -148.5 28.5t-118 77.5t-78 116.5t-28.5 147.5z" />
<glyph unicode="&#xb7;" horiz-adv-x="419" d="M104 586q0 47 32 77.5t79 30.5q45 0 77 -30.5t32 -77.5t-33 -79t-76 -32q-45 0 -78 33t-33 78z" />
<glyph unicode="&#xb8;" horiz-adv-x="915" d="M319 -426q111 10 176.5 39t65.5 82q0 27 -18.5 44t-48 25.5t-66.5 11.5t-74 3l-26 39q51 66 99 129t99 127q16 -10 32 -19.5t32 -19.5q-31 -39 -63.5 -81t-63.5 -83q100 -4 161.5 -44t61.5 -118q0 -86 -89 -147.5t-278 -61.5v74z" />
<glyph unicode="&#xb9;" horiz-adv-x="745" d="M88 1475l242 69h119v-817h-138v686l-205 -29z" />
<glyph unicode="&#xba;" horiz-adv-x="722" d="M51 877q0 66 17.5 128t54.5 110t97.5 78t146.5 30q88 0 146 -30t94 -78t50.5 -110t14.5 -128q0 -63 -15.5 -125t-52.5 -109t-98.5 -76.5t-153.5 -29.5q-86 0 -143 27.5t-93 74.5t-50.5 108.5t-14.5 129.5zM190 874q0 -45 6.5 -87t25 -73.5t53 -51t92.5 -19.5 q51 0 83.5 20.5t51 54.5t26 76t7.5 83q0 39 -6.5 81.5t-25 77.5t-51 58.5t-85.5 23.5t-87 -22.5t-54.5 -57t-28 -77.5t-7.5 -87z" />
<glyph unicode="&#xbb;" horiz-adv-x="886" d="M104 74l207 311l-207 313l70 54l299 -326v-80l-301 -323zM408 74l204 311l-204 313l69 54l299 -326v-80l-301 -323z" />
<glyph unicode="&#xbc;" horiz-adv-x="1679" d="M184 1290l242 70h119v-817h-137v686l-205 -29zM467 -45l602 1481h111l-598 -1481h-115zM858 225v92l418 500h131v-487h127v-105h-127v-227h-133v227h-416zM1006 330h270v323h-8z" />
<glyph unicode="&#xbd;" horiz-adv-x="1679" d="M147 1290l242 70h119v-817h-137v686l-205 -29zM426 -45l602 1481h111l-598 -1481h-115zM946 735q86 59 163 76.5t130 17.5q129 0 209 -56t80 -173q0 -68 -38 -136.5t-94.5 -132t-122 -120.5t-120.5 -102q104 0 205.5 -1.5t204.5 -1.5v-106h-609v92q68 51 144 117.5 t140.5 136.5t106 134.5t41.5 111.5q0 66 -45 94.5t-118 28.5q-31 0 -85.5 -10.5t-138.5 -57.5z" />
<glyph unicode="&#xbe;" horiz-adv-x="1679" d="M98 586l35 100q92 -29 149.5 -33t94.5 -4q88 0 143 41t55 119q0 74 -62 105.5t-155 31.5q-45 0 -94 -6l-26 74l249 229l-4 10h-348v107h539l20 -78q-23 -18 -45 -39.5t-52 -49.5t-67.5 -62.5t-89.5 -83.5q55 -4 105.5 -20.5t88.5 -45.5t59.5 -72t21.5 -100 q0 -66 -28 -117t-73 -86t-104 -53t-123 -18q-84 0 -154.5 11t-134.5 40zM524 -45l602 1481h111l-598 -1481h-115zM924 225v92l417 500h132v-487h126v-105h-126v-227h-134v227h-415zM1071 330h270v323h-8z" />
<glyph unicode="&#xbf;" horiz-adv-x="903" d="M84 -170q0 98 53 175t127 136q68 53 117 98.5t81 85.5t48 79.5t16 82.5q0 35 -5 69t-11 79l135 18q25 -121 25 -186q0 -57 -18.5 -105.5t-52.5 -95.5t-82 -95t-109 -103q-68 -53 -106 -101.5t-38 -116.5q0 -86 61.5 -123.5t159.5 -37.5q63 0 139 9t185 44l37 -123 q-98 -35 -195.5 -51.5t-175.5 -16.5q-193 0 -290 75t-101 204zM434 907q0 45 32 77t75 32q47 0 78.5 -32t31.5 -77q0 -43 -31.5 -73.5t-76.5 -30.5t-77 30.5t-32 73.5z" />
<glyph unicode="&#xc0;" horiz-adv-x="1185" d="M20 0q125 381 242 731t221 672h222l458 -1403h-182q-29 92 -57.5 183t-57.5 184h-553q-29 -92 -57.5 -183.5t-56.5 -183.5h-179zM299 1778l123 112l252 -329l-80 -68zM356 500h469q-47 156 -94 312.5t-96 309.5l-41 138h-6l-41 -140q-23 -76 -45.5 -148.5t-45 -147 t-47 -154.5t-53.5 -170z" />
<glyph unicode="&#xc1;" horiz-adv-x="1185" d="M20 0q125 381 242 731t221 672h222l458 -1403h-182q-29 92 -57.5 183t-57.5 184h-553q-29 -92 -57.5 -183.5t-56.5 -183.5h-179zM356 500h469q-47 156 -94 312.5t-96 309.5l-41 138h-6l-41 -140q-23 -76 -45.5 -148.5t-45 -147t-47 -154.5t-53.5 -170zM530 1556l252 330 l123 -108l-297 -285z" />
<glyph unicode="&#xc2;" horiz-adv-x="1185" d="M20 0q125 381 242 731t221 672h222l458 -1403h-182q-29 92 -57.5 183t-57.5 184h-553q-29 -92 -57.5 -183.5t-56.5 -183.5h-179zM225 1550l307 283h113l311 -279l-51 -59l-317 182l-316 -184zM356 500h469q-47 156 -94 312.5t-96 309.5l-41 138h-6l-41 -140 q-23 -76 -45.5 -148.5t-45 -147t-47 -154.5t-53.5 -170z" />
<glyph unicode="&#xc3;" horiz-adv-x="1185" d="M20 0q125 381 242 731t221 672h222l458 -1403h-182q-29 92 -57.5 183t-57.5 184h-553q-29 -92 -57.5 -183.5t-56.5 -183.5h-179zM268 1606q25 70 72 111.5t106 41.5q37 0 77 -12t79 -27.5t75 -28t64 -12.5l117 82l57 -45q-23 -70 -70 -112.5t-106 -42.5q-47 0 -88 12 t-77.5 27.5t-69.5 27.5t-62 12l-116 -79zM356 500h469q-47 156 -94 312.5t-96 309.5l-41 138h-6l-41 -140q-23 -76 -45.5 -148.5t-45 -147t-47 -154.5t-53.5 -170z" />
<glyph unicode="&#xc4;" horiz-adv-x="1185" d="M20 0q125 381 242 731t221 672h222l458 -1403h-182q-29 92 -57.5 183t-57.5 184h-553q-29 -92 -57.5 -183.5t-56.5 -183.5h-179zM303 1579q0 37 27.5 63.5t62.5 26.5q43 0 71 -24.5t28 -65.5t-27 -65.5t-68 -24.5t-67.5 24.5t-26.5 65.5zM356 500h469q-47 156 -94 312.5 t-96 309.5l-41 138h-6l-41 -140q-23 -76 -45.5 -148.5t-45 -147t-47 -154.5t-53.5 -170zM688 1579q0 37 25.5 63.5t60.5 26.5q43 0 71.5 -24.5t28.5 -65.5t-28.5 -65.5t-71.5 -24.5q-37 0 -61.5 24.5t-24.5 65.5z" />
<glyph unicode="&#xc5;" horiz-adv-x="1185" d="M20 0q125 381 242 731t221 672h222l458 -1403h-182q-29 92 -57.5 183t-57.5 184h-553q-29 -92 -57.5 -183.5t-56.5 -183.5h-179zM356 500h469q-47 156 -94 312.5t-96 309.5l-41 138h-6l-41 -140q-23 -76 -45.5 -148.5t-45 -147t-47 -154.5t-53.5 -170zM371 1661 q0 43 17.5 82t47 68.5t70.5 47t88 17.5q45 0 85 -17.5t69.5 -46t46 -68.5t16.5 -83q0 -92 -62.5 -153.5t-154.5 -61.5q-47 0 -88 16.5t-70.5 46t-47 68.5t-17.5 84zM463 1655q0 -53 36 -90t95 -37q55 0 90 37t35 90q0 55 -35 94t-90 39q-59 0 -95 -38t-36 -95z" />
<glyph unicode="&#xc6;" horiz-adv-x="1937" d="M20 0l875 1401h911v-127h-637v-473h533v-125h-533v-547h670v-129h-844v420h-530l-260 -420h-185zM543 553h452v711h-10z" />
<glyph unicode="&#xc7;" horiz-adv-x="1214" d="M123 692q0 76 11 159t39 165t74 155.5t113.5 130t160.5 90t216 33.5q115 0 203 -17t152 -40l-37 -129q-84 29 -160 38t-141 9q-115 0 -200 -41t-140.5 -117.5t-83 -187.5t-27.5 -248q0 -121 19.5 -224t70.5 -180t139.5 -121t225.5 -44q27 0 67.5 3t85.5 9t92.5 15.5 t88.5 21.5l32 -123q-33 -12 -75.5 -23.5t-90 -19.5t-97.5 -13t-95 -7q-29 -35 -56.5 -74t-56.5 -76q100 -4 162 -44t62 -118q0 -86 -89.5 -147.5t-277.5 -61.5v74q111 10 176.5 39t65.5 82q0 27 -18.5 44t-48.5 25.5t-66.5 11.5t-73.5 3l-27 39q41 51 78 102.5t78 100.5 q-152 8 -257.5 62t-171 146.5t-94 219.5t-28.5 278z" />
<glyph unicode="&#xc8;" horiz-adv-x="1155" d="M164 0v1401h854v-131h-680v-465h573v-127h-573v-545h713v-133h-887zM362 1778l123 112l252 -329l-80 -68z" />
<glyph unicode="&#xc9;" horiz-adv-x="1155" d="M164 0v1401h854v-131h-680v-465h573v-127h-573v-545h713v-133h-887zM541 1556l252 330l122 -108l-297 -285z" />
<glyph unicode="&#xca;" horiz-adv-x="1155" d="M164 0v1401h854v-131h-680v-465h573v-127h-573v-545h713v-133h-887zM236 1550l307 283h112l312 -279l-52 -59l-317 182l-315 -184z" />
<glyph unicode="&#xcb;" horiz-adv-x="1155" d="M164 0v1401h854v-131h-680v-465h573v-127h-573v-545h713v-133h-887zM324 1579q0 37 27.5 63.5t62.5 26.5q43 0 70.5 -24.5t27.5 -65.5t-26.5 -65.5t-67.5 -24.5t-67.5 24.5t-26.5 65.5zM709 1579q0 37 25.5 63.5t60.5 26.5q43 0 71.5 -24.5t28.5 -65.5t-28.5 -65.5 t-71.5 -24.5q-37 0 -61.5 24.5t-24.5 65.5z" />
<glyph unicode="&#xcc;" horiz-adv-x="540" d="M-6 1778l123 112l252 -329l-80 -68zM184 0v1403h172v-1403h-172z" />
<glyph unicode="&#xcd;" horiz-adv-x="540" d="M184 0v1403h172v-1403h-172zM199 1556l252 330l122 -108l-297 -285z" />
<glyph unicode="&#xce;" horiz-adv-x="540" d="M-94 1550l307 283h113l311 -279l-51 -59l-318 182l-315 -184zM184 0v1403h172v-1403h-172z" />
<glyph unicode="&#xcf;" horiz-adv-x="540" d="M-12 1579q0 37 27.5 63.5t62.5 26.5q43 0 70.5 -24.5t27.5 -65.5t-26.5 -65.5t-67.5 -24.5t-67.5 24.5t-26.5 65.5zM184 0v1403h172v-1403h-172zM373 1579q0 37 25.5 63.5t60.5 26.5q43 0 71.5 -24.5t28.5 -65.5t-28.5 -65.5t-71.5 -24.5q-37 0 -61.5 24.5t-24.5 65.5z " />
<glyph unicode="&#xd0;" horiz-adv-x="1318" d="M37 674v125h127v604h457q170 0 281.5 -56.5t177 -152.5t91 -222t25.5 -267q0 -143 -28.5 -271.5t-97.5 -224.5t-182.5 -152.5t-285.5 -56.5h-438v674h-127zM342 135h240q31 0 75.5 4t93 20.5t95.5 51.5t85 96.5t61.5 154.5t23.5 228q0 137 -21.5 233.5t-56.5 161 t-80 101.5t-92 55.5t-92 23.5t-82 5h-250v-471h324v-125h-324v-539z" />
<glyph unicode="&#xd1;" horiz-adv-x="1396" d="M164 0v1401h174q131 -201 257 -397.5t255 -397.5l205 -321h10v1116h168v-1401h-170l-541 846l-184 295q-2 0 -3 -1t-5 -1v-1139h-166zM369 1612q25 70 71.5 111.5t106.5 41.5q37 0 77 -12t78.5 -27.5t74.5 -27.5t65 -12l116 81l58 -45q-23 -70 -70 -112.5t-106 -42.5 q-47 0 -88 12t-78 27.5t-70 28t-61 12.5l-117 -80z" />
<glyph unicode="&#xd2;" horiz-adv-x="1429" d="M123 690q0 145 31.5 278.5t102.5 235t186.5 160.5t281.5 59q168 0 280.5 -60t179 -160.5t94.5 -232t28 -274.5q0 -152 -37 -282.5t-110 -226t-182.5 -149.5t-252.5 -54q-164 0 -277.5 50t-186.5 142t-105.5 222t-32.5 292zM303 688q0 -281 98.5 -426t323.5 -145 q102 0 178 45t125 122.5t72.5 182t23.5 223.5q0 104 -15 211t-58 194t-121 142t-205 55t-209 -51t-129 -136t-65.5 -193.5t-18.5 -223.5zM436 1778l123 112l252 -329l-80 -68z" />
<glyph unicode="&#xd3;" horiz-adv-x="1429" d="M123 690q0 145 31.5 278.5t102.5 235t186.5 160.5t281.5 59q168 0 280.5 -60t179 -160.5t94.5 -232t28 -274.5q0 -152 -37 -282.5t-110 -226t-182.5 -149.5t-252.5 -54q-164 0 -277.5 50t-186.5 142t-105.5 222t-32.5 292zM303 688q0 -281 98.5 -426t323.5 -145 q102 0 178 45t125 122.5t72.5 182t23.5 223.5q0 104 -15 211t-58 194t-121 142t-205 55t-209 -51t-129 -136t-65.5 -193.5t-18.5 -223.5zM621 1556l251 330l123 -108l-297 -285z" />
<glyph unicode="&#xd4;" horiz-adv-x="1429" d="M123 690q0 145 31.5 278.5t102.5 235t186.5 160.5t281.5 59q168 0 280.5 -60t179 -160.5t94.5 -232t28 -274.5q0 -152 -37 -282.5t-110 -226t-182.5 -149.5t-252.5 -54q-164 0 -277.5 50t-186.5 142t-105.5 222t-32.5 292zM303 688q0 -281 98.5 -426t323.5 -145 q102 0 178 45t125 122.5t72.5 182t23.5 223.5q0 104 -15 211t-58 194t-121 142t-205 55t-209 -51t-129 -136t-65.5 -193.5t-18.5 -223.5zM367 1550l307 283h112l312 -279l-51 -59l-318 182l-315 -184z" />
<glyph unicode="&#xd5;" horiz-adv-x="1429" d="M123 690q0 145 31.5 278.5t102.5 235t186.5 160.5t281.5 59q168 0 280.5 -60t179 -160.5t94.5 -232t28 -274.5q0 -152 -37 -282.5t-110 -226t-182.5 -149.5t-252.5 -54q-164 0 -277.5 50t-186.5 142t-105.5 222t-32.5 292zM303 688q0 -281 98.5 -426t323.5 -145 q102 0 178 45t125 122.5t72.5 182t23.5 223.5q0 104 -15 211t-58 194t-121 142t-205 55t-209 -51t-129 -136t-65.5 -193.5t-18.5 -223.5zM406 1616q25 70 71.5 111.5t106.5 41.5q37 0 76.5 -12t78.5 -27.5t75 -27.5t65 -12l116 82l58 -46q-23 -70 -70 -112.5t-106 -42.5 q-47 0 -88 12t-78 27.5t-70 28t-61 12.5l-117 -80z" />
<glyph unicode="&#xd6;" horiz-adv-x="1429" d="M123 690q0 145 31.5 278.5t102.5 235t186.5 160.5t281.5 59q168 0 280.5 -60t179 -160.5t94.5 -232t28 -274.5q0 -152 -37 -282.5t-110 -226t-182.5 -149.5t-252.5 -54q-164 0 -277.5 50t-186.5 142t-105.5 222t-32.5 292zM303 688q0 -281 98.5 -426t323.5 -145 q102 0 178 45t125 122.5t72.5 182t23.5 223.5q0 104 -15 211t-58 194t-121 142t-205 55t-209 -51t-129 -136t-65.5 -193.5t-18.5 -223.5zM436 1599q0 37 28 64t62 27q43 0 71 -25t28 -66t-27 -65.5t-68 -24.5t-67.5 25t-26.5 65zM821 1599q0 37 25.5 64t60.5 27q43 0 72 -25 t29 -66t-29 -65.5t-72 -24.5q-37 0 -61.5 25t-24.5 65z" />
<glyph unicode="&#xd7;" d="M223 328l269 266l-265 264l86 84l262 -264l259 260l88 -88l-258 -260l262 -260l-86 -86l-260 262l-269 -268z" />
<glyph unicode="&#xd8;" horiz-adv-x="1388" d="M96 -12l144 188q-72 92 -105 222t-33 292q0 145 32 278.5t102.5 235t186.5 160.5t282 59q129 0 222 -34.5t160 -98.5l103 137h102l-149 -194q78 -104 110.5 -243.5t32.5 -293.5q0 -152 -37 -282.5t-109.5 -226t-182 -149.5t-252.5 -54q-137 0 -238.5 34.5t-173.5 100.5 l-98 -131h-99zM283 688q0 -119 16 -210t53 -159l635 844q-47 59 -115.5 94t-166.5 35q-127 0 -209 -51t-129.5 -136t-65.5 -193.5t-18 -223.5zM393 244q102 -127 312 -127q102 0 177.5 45t125 122.5t73 182t23.5 223.5q0 102 -15.5 208t-60.5 192z" />
<glyph unicode="&#xd9;" horiz-adv-x="1361" d="M147 504v899h172v-901q0 -193 94.5 -289t268.5 -96t269.5 95t95.5 290l-3 901h173v-899q0 -117 -33 -213t-99.5 -165t-167 -105.5t-237.5 -36.5q-281 0 -407 138t-126 382zM428 1778l123 112l252 -329l-80 -68z" />
<glyph unicode="&#xda;" horiz-adv-x="1361" d="M147 504v899h172v-901q0 -193 94.5 -289t268.5 -96t269.5 95t95.5 290l-3 901h173v-899q0 -117 -33 -213t-99.5 -165t-167 -105.5t-237.5 -36.5q-281 0 -407 138t-126 382zM575 1556l252 330l123 -108l-297 -285z" />
<glyph unicode="&#xdb;" horiz-adv-x="1361" d="M147 504v899h172v-901q0 -193 94.5 -289t268.5 -96t269.5 95t95.5 290l-3 901h173v-899q0 -117 -33 -213t-99.5 -165t-167 -105.5t-237.5 -36.5q-281 0 -407 138t-126 382zM299 1548l319 279h117l324 -275l-53 -57l-330 178l-328 -180z" />
<glyph unicode="&#xdc;" horiz-adv-x="1361" d="M147 504v899h172v-901q0 -193 94.5 -289t268.5 -96t269.5 95t95.5 290l-3 901h173v-899q0 -117 -33 -213t-99.5 -165t-167 -105.5t-237.5 -36.5q-281 0 -407 138t-126 382zM397 1591q0 37 28 63.5t62 26.5q43 0 71 -24.5t28 -65.5t-27 -65.5t-67 -24.5q-41 0 -68 24.5 t-27 65.5zM782 1591q0 37 26 63.5t60 26.5q43 0 72 -24.5t29 -65.5t-29 -65.5t-72 -24.5q-37 0 -61.5 24.5t-24.5 65.5z" />
<glyph unicode="&#xdd;" horiz-adv-x="1097" d="M20 1403h183l192 -369l144 -284h8l155 297l195 356h178l-442 -789v-614h-182v606zM457 1520l252 329l122 -108l-296 -285z" />
<glyph unicode="&#xde;" horiz-adv-x="1136" d="M164 0v1403h174v-293h285q96 0 176 -25.5t138 -77t90 -128.5t32 -177q0 -63 -19.5 -136.5t-67.5 -136t-129 -104.5t-202 -42h-303v-283h-174zM338 414h278q49 0 96.5 13t85.5 46t60.5 87t22.5 136q0 72 -20.5 125t-57.5 88t-87 51.5t-108 16.5h-270v-563z" />
<glyph unicode="&#xdf;" horiz-adv-x="1200" d="M51 786v111h146v221q0 47 16 108.5t59 117t118 94.5t194 39q104 0 172.5 -27t108.5 -67t56.5 -86t16.5 -83q0 -76 -34 -130t-73.5 -97t-72.5 -80t-33 -80q0 -53 46 -106t118 -109q45 -35 89 -70.5t78 -78.5t54 -97.5t20 -125.5q-4 -51 -23.5 -99.5t-60 -85.5t-104 -59.5 t-154.5 -22.5q-76 0 -155.5 14.5t-134.5 37.5l37 122q106 -37 161.5 -44t87.5 -7q86 0 132.5 39.5t46.5 102.5q0 51 -17.5 89t-44.5 68.5t-59.5 57t-63.5 55.5q-37 35 -75.5 71.5t-70.5 74.5t-51.5 80t-19.5 85q0 57 34 104.5t74 90.5t73.5 84t33.5 90q0 12 -5 38.5 t-24.5 53.5t-60.5 47.5t-111 20.5q-55 0 -96 -19.5t-66.5 -51.5t-38 -75t-12.5 -92v-1110h-165v786h-146z" />
<glyph unicode="&#xe0;" horiz-adv-x="1085" d="M86 270q0 131 93 210t286 91l256 17v63q0 125 -45 176.5t-170 51.5q-74 0 -154 -14.5t-155 -41.5l-37 113q86 39 188.5 59.5t196.5 20.5q158 0 248 -74t90 -258v-559h135l10 -98q-37 -18 -85 -29.5t-89 -11.5q-59 0 -92 24.5t-37 102.5l-2 2q-57 -49 -110.5 -76 t-97.5 -39t-80 -14t-58 -2q-86 0 -142.5 28.5t-89 71.5t-46 93t-13.5 93zM264 287q0 -88 43 -131t142 -43q66 0 134 33.5t138 97.5v233l-256 -16q-102 -4 -151.5 -51.5t-49.5 -122.5zM268 1380l123 117l252 -332l-78 -69z" />
<glyph unicode="&#xe1;" horiz-adv-x="1085" d="M86 270q0 131 93 210t286 91l256 17v63q0 125 -45 176.5t-170 51.5q-74 0 -154 -14.5t-155 -41.5l-37 113q86 39 188.5 59.5t196.5 20.5q158 0 248 -74t90 -258v-559h135l10 -98q-37 -18 -85 -29.5t-89 -11.5q-59 0 -92 24.5t-37 102.5l-2 2q-57 -49 -110.5 -76 t-97.5 -39t-80 -14t-58 -2q-86 0 -142.5 28.5t-89 71.5t-46 93t-13.5 93zM264 287q0 -88 43 -131t142 -43q66 0 134 33.5t138 97.5v233l-256 -16q-102 -4 -151.5 -51.5t-49.5 -122.5zM418 1159l252 332l118 -111l-296 -284z" />
<glyph unicode="&#xe2;" horiz-adv-x="1085" d="M86 270q0 131 93 210t286 91l256 17v63q0 125 -45 176.5t-170 51.5q-74 0 -154 -14.5t-155 -41.5l-37 113q86 39 188.5 59.5t196.5 20.5q158 0 248 -74t90 -258v-559h135l10 -98q-37 -18 -85 -29.5t-89 -11.5q-59 0 -92 24.5t-37 102.5l-2 2q-57 -49 -110.5 -76 t-97.5 -39t-80 -14t-58 -2q-86 0 -142.5 28.5t-89 71.5t-46 93t-13.5 93zM150 1145l307 293h112l312 -289l-52 -59l-317 190l-315 -193zM264 287q0 -88 43 -131t142 -43q66 0 134 33.5t138 97.5v233l-256 -16q-102 -4 -151.5 -51.5t-49.5 -122.5z" />
<glyph unicode="&#xe3;" horiz-adv-x="1085" d="M86 270q0 131 93 210t286 91l256 17v63q0 125 -45 176.5t-170 51.5q-74 0 -154 -14.5t-155 -41.5l-37 113q86 39 188.5 59.5t196.5 20.5q158 0 248 -74t90 -258v-559h135l10 -98q-37 -18 -85 -29.5t-89 -11.5q-59 0 -92 24.5t-37 102.5l-2 2q-57 -49 -110.5 -76 t-97.5 -39t-80 -14t-58 -2q-86 0 -142.5 28.5t-89 71.5t-46 93t-13.5 93zM197 1219q25 70 71.5 111.5t106.5 41.5q37 0 77 -12t78.5 -27.5t74.5 -28t65 -12.5l116 82l58 -45q-23 -70 -70 -112.5t-106 -42.5q-47 0 -88 12t-78 27.5t-70 27.5t-61 12l-117 -79zM264 287 q0 -88 43 -131t142 -43q66 0 134 33.5t138 97.5v233l-256 -16q-102 -4 -151.5 -51.5t-49.5 -122.5z" />
<glyph unicode="&#xe4;" horiz-adv-x="1085" d="M86 270q0 131 93 210t286 91l256 17v63q0 125 -45 176.5t-170 51.5q-74 0 -154 -14.5t-155 -41.5l-37 113q86 39 188.5 59.5t196.5 20.5q158 0 248 -74t90 -258v-559h135l10 -98q-37 -18 -85 -29.5t-89 -11.5q-59 0 -92 24.5t-37 102.5l-2 2q-57 -49 -110.5 -76 t-97.5 -39t-80 -14t-58 -2q-86 0 -142.5 28.5t-89 71.5t-46 93t-13.5 93zM240 1235q0 39 28.5 64.5t63.5 25.5q43 0 69.5 -24.5t26.5 -65.5q0 -39 -26.5 -64.5t-67.5 -25.5t-67.5 25.5t-26.5 64.5zM264 287q0 -88 43 -131t142 -43q66 0 134 33.5t138 97.5v233l-256 -16 q-102 -4 -151.5 -51.5t-49.5 -122.5zM625 1235q0 39 26.5 64.5t61.5 25.5q43 0 71.5 -24.5t28.5 -65.5q0 -39 -28.5 -64.5t-71.5 -25.5q-39 0 -63.5 25.5t-24.5 64.5z" />
<glyph unicode="&#xe5;" horiz-adv-x="1085" d="M86 270q0 131 93 210t286 91l256 17v63q0 125 -45 176.5t-170 51.5q-74 0 -154 -14.5t-155 -41.5l-37 113q86 39 188.5 59.5t196.5 20.5q158 0 248 -74t90 -258v-559h135l10 -98q-37 -18 -85 -29.5t-89 -11.5q-59 0 -92 24.5t-37 102.5l-2 2q-57 -49 -110.5 -76 t-97.5 -39t-80 -14t-58 -2q-86 0 -142.5 28.5t-89 71.5t-46 93t-13.5 93zM264 287q0 -88 43 -131t142 -43q66 0 134 33.5t138 97.5v233l-256 -16q-102 -4 -151.5 -51.5t-49.5 -122.5zM317 1343q0 43 17.5 82t47.5 69t71 47.5t88 17.5q45 0 85 -17.5t69.5 -46.5t46 -69 t16.5 -83q0 -92 -62.5 -153.5t-154.5 -61.5q-47 0 -88 16.5t-71 46.5t-47.5 68.5t-17.5 83.5zM410 1337q0 -53 35.5 -90t95.5 -37q55 0 90 37t35 90q0 55 -35 94t-90 39q-59 0 -95 -37.5t-36 -95.5z" />
<glyph unicode="&#xe6;" horiz-adv-x="1622" d="M68 270q0 129 94 212t268 85l293 2v84q0 129 -56.5 178.5t-179.5 49.5q-78 0 -157.5 -14.5t-153.5 -41.5l-37 113q86 39 187.5 59.5t195.5 20.5q104 0 187.5 -37t119.5 -123q47 72 126 118t202 46q96 0 164 -26.5t111 -69.5t67.5 -96.5t36.5 -106.5t14 -100.5t2 -77.5 v-80h-663q0 -70 12 -133.5t44 -110.5t87 -75.5t139 -28.5q88 0 159 17.5t157 51.5l39 -106q-88 -47 -178.5 -69.5t-188.5 -22.5q-139 0 -222 41t-132 112q-78 -59 -146.5 -91t-125 -47t-99.5 -17t-69 -2q-90 0 -147.5 28.5t-90.5 71.5t-46 93t-13 93zM246 289 q0 -90 44 -136.5t142 -46.5q27 0 69 8.5t87 25t90 40t80 53.5q-18 51 -26.5 108.5t-10.5 123.5h-264q-104 0 -157.5 -48t-53.5 -128zM893 569h502q0 72 -11.5 131.5t-39 102.5t-73.5 66.5t-114 23.5q-72 0 -120 -26.5t-78.5 -71.5t-46 -103.5t-19.5 -122.5z" />
<glyph unicode="&#xe7;" horiz-adv-x="933" d="M98 487q0 80 18.5 173.5t69 174t139.5 134t230 53.5q68 0 139.5 -9t149.5 -42l-39 -121q-72 25 -129.5 31t-106.5 6q-145 0 -222 -104.5t-77 -278.5q0 -84 14.5 -153.5t47.5 -122t88 -81t139 -28.5q78 0 145.5 16.5t143.5 46.5l45 -110q-63 -35 -152.5 -58.5 t-187.5 -25.5l-88 -117q100 -4 161.5 -44t61.5 -118q0 -86 -89 -147.5t-277 -61.5v74q111 10 176 39t65 82q0 27 -18.5 44t-48 25.5t-66.5 11.5t-74 3l-26 39l133 174q-102 12 -172 54t-113 107.5t-61.5 150.5t-18.5 183z" />
<glyph unicode="&#xe8;" horiz-adv-x="1034" d="M98 498q0 45 6.5 101t23.5 113.5t48 114t80 99.5t118 69.5t163 26.5q100 0 168.5 -26.5t113.5 -69.5t69.5 -96.5t36 -106.5t13.5 -100.5t2 -77.5v-80h-670q0 -70 12.5 -133.5t45 -111.5t88 -76.5t139.5 -28.5q88 0 160.5 18.5t158.5 52.5l41 -106q-90 -47 -181 -69.5 t-191 -22.5q-133 0 -219 41t-136.5 109.5t-70 161.5t-19.5 198zM266 1380l123 117l252 -332l-78 -69zM272 573h510q0 72 -12 132.5t-40 103.5t-73.5 66.5t-115.5 23.5q-72 0 -121 -26.5t-81 -71.5t-47.5 -104.5t-19.5 -123.5z" />
<glyph unicode="&#xe9;" horiz-adv-x="1034" d="M98 498q0 45 6.5 101t23.5 113.5t48 114t80 99.5t118 69.5t163 26.5q100 0 168.5 -26.5t113.5 -69.5t69.5 -96.5t36 -106.5t13.5 -100.5t2 -77.5v-80h-670q0 -70 12.5 -133.5t45 -111.5t88 -76.5t139.5 -28.5q88 0 160.5 18.5t158.5 52.5l41 -106q-90 -47 -181 -69.5 t-191 -22.5q-133 0 -219 41t-136.5 109.5t-70 161.5t-19.5 198zM272 573h510q0 72 -12 132.5t-40 103.5t-73.5 66.5t-115.5 23.5q-72 0 -121 -26.5t-81 -71.5t-47.5 -104.5t-19.5 -123.5zM436 1159l252 332l119 -111l-297 -284z" />
<glyph unicode="&#xea;" horiz-adv-x="1034" d="M98 498q0 45 6.5 101t23.5 113.5t48 114t80 99.5t118 69.5t163 26.5q100 0 168.5 -26.5t113.5 -69.5t69.5 -96.5t36 -106.5t13.5 -100.5t2 -77.5v-80h-670q0 -70 12.5 -133.5t45 -111.5t88 -76.5t139.5 -28.5q88 0 160.5 18.5t158.5 52.5l41 -106q-90 -47 -181 -69.5 t-191 -22.5q-133 0 -219 41t-136.5 109.5t-70 161.5t-19.5 198zM184 1145l308 293h112l311 -289l-51 -59l-317 190l-316 -193zM272 573h510q0 72 -12 132.5t-40 103.5t-73.5 66.5t-115.5 23.5q-72 0 -121 -26.5t-81 -71.5t-47.5 -104.5t-19.5 -123.5z" />
<glyph unicode="&#xeb;" horiz-adv-x="1034" d="M98 498q0 45 6.5 101t23.5 113.5t48 114t80 99.5t118 69.5t163 26.5q100 0 168.5 -26.5t113.5 -69.5t69.5 -96.5t36 -106.5t13.5 -100.5t2 -77.5v-80h-670q0 -70 12.5 -133.5t45 -111.5t88 -76.5t139.5 -28.5q88 0 160.5 18.5t158.5 52.5l41 -106q-90 -47 -181 -69.5 t-191 -22.5q-133 0 -219 41t-136.5 109.5t-70 161.5t-19.5 198zM264 1235q0 39 29 64.5t63 25.5q43 0 70 -24.5t27 -65.5q0 -39 -27 -64.5t-68 -25.5t-67.5 25.5t-26.5 64.5zM272 573h510q0 72 -12 132.5t-40 103.5t-73.5 66.5t-115.5 23.5q-72 0 -121 -26.5t-81 -71.5 t-47.5 -104.5t-19.5 -123.5zM649 1235q0 39 26.5 64.5t61.5 25.5q43 0 72 -24.5t29 -65.5q0 -39 -29 -64.5t-72 -25.5q-39 0 -63.5 25.5t-24.5 64.5z" />
<glyph unicode="&#xec;" horiz-adv-x="520" d="M-12 1380l123 117l251 -332l-77 -69zM174 0v999h166v-999h-166z" />
<glyph unicode="&#xed;" horiz-adv-x="520" d="M174 0v999h166v-999h-166zM190 1159l252 332l119 -111l-297 -284z" />
<glyph unicode="&#xee;" horiz-adv-x="557" d="M-88 1145l307 293h113l311 -289l-51 -59l-318 190l-315 -193zM199 0v999h166v-999h-166z" />
<glyph unicode="&#xef;" horiz-adv-x="520" d="M-33 1235q0 39 29 64.5t63 25.5q43 0 70 -24.5t27 -65.5q0 -39 -27 -64.5t-68 -25.5t-67.5 25.5t-26.5 64.5zM174 0v999h166v-999h-166zM352 1235q0 39 27 64.5t61 25.5q43 0 72 -24.5t29 -65.5q0 -39 -29 -64.5t-72 -25.5q-39 0 -63.5 25.5t-24.5 64.5z" />
<glyph unicode="&#xf0;" horiz-adv-x="1048" d="M86 438q0 92 26.5 178t81 154t134.5 109t184 41q59 0 123.5 -12.5t128.5 -47.5q-59 172 -160 295l-188 -127l-49 68l180 121q-47 49 -100.5 92t-110.5 80l55 94q147 -76 266 -191l187 125l49 -67l-176 -117q127 -143 189.5 -322.5t58.5 -382.5q0 -88 -20.5 -184t-71 -176 t-138.5 -132t-223 -52q-131 0 -214 43t-130 109.5t-64.5 147.5t-17.5 154zM250 444q0 -53 9 -111.5t38 -107.5t82 -80.5t143 -31.5q88 0 143.5 40t86 100t41 129t10.5 124q0 57 -6 105t-19 108q-72 47 -137.5 61.5t-116.5 14.5q-76 0 -128 -33t-84.5 -83t-47 -112.5 t-14.5 -122.5z" />
<glyph unicode="&#xf1;" horiz-adv-x="1052" d="M119 0v999h164l2 -86l6 -4q84 53 180 83t168 30q102 0 160.5 -29.5t88.5 -76t37 -103.5t7 -113v-700h-166v659q0 51 -5 93.5t-22.5 72t-52.5 45t-94 15.5q-72 0 -156 -31t-149 -68v-786h-168zM180 1243q25 70 72 112t106 42q37 0 77 -12.5t79 -28t75 -27.5t64 -12l117 82 l57 -45q-23 -70 -70 -113t-106 -43q-47 0 -88 12.5t-77.5 27.5t-69.5 27.5t-62 12.5l-116 -80z" />
<glyph unicode="&#xf2;" horiz-adv-x="1081" d="M98 494q0 100 24.5 194t78 168t139.5 119t209 45q125 0 209 -45t134 -118t70.5 -167t20.5 -192q0 -96 -21.5 -188.5t-73.5 -165t-140.5 -116.5t-219.5 -44q-123 0 -205.5 42t-132 111.5t-71 161.5t-21.5 195zM272 494q0 -74 10.5 -143.5t40 -122t84 -84t142.5 -31.5 q82 0 132 33.5t78.5 89t39 123t10.5 135.5t-9 137t-38 127.5t-80 95.5t-133 37q-84 0 -137.5 -36t-84 -92t-43 -128t-12.5 -141zM281 1380l122 117l252 -332l-77 -69z" />
<glyph unicode="&#xf3;" horiz-adv-x="1081" d="M98 494q0 100 24.5 194t78 168t139.5 119t209 45q125 0 209 -45t134 -118t70.5 -167t20.5 -192q0 -96 -21.5 -188.5t-73.5 -165t-140.5 -116.5t-219.5 -44q-123 0 -205.5 42t-132 111.5t-71 161.5t-21.5 195zM272 494q0 -74 10.5 -143.5t40 -122t84 -84t142.5 -31.5 q82 0 132 33.5t78.5 89t39 123t10.5 135.5t-9 137t-38 127.5t-80 95.5t-133 37q-84 0 -137.5 -36t-84 -92t-43 -128t-12.5 -141zM479 1159l252 332l119 -111l-297 -284z" />
<glyph unicode="&#xf4;" horiz-adv-x="1081" d="M98 494q0 100 24.5 194t78 168t139.5 119t209 45q125 0 209 -45t134 -118t70.5 -167t20.5 -192q0 -96 -21.5 -188.5t-73.5 -165t-140.5 -116.5t-219.5 -44q-123 0 -205.5 42t-132 111.5t-71 161.5t-21.5 195zM190 1145l308 293h112l312 -289l-52 -59l-317 190l-315 -193z M272 494q0 -74 10.5 -143.5t40 -122t84 -84t142.5 -31.5q82 0 132 33.5t78.5 89t39 123t10.5 135.5t-9 137t-38 127.5t-80 95.5t-133 37q-84 0 -137.5 -36t-84 -92t-43 -128t-12.5 -141z" />
<glyph unicode="&#xf5;" horiz-adv-x="1081" d="M98 494q0 100 24.5 194t78 168t139.5 119t209 45q125 0 209 -45t134 -118t70.5 -167t20.5 -192q0 -96 -21.5 -188.5t-73.5 -165t-140.5 -116.5t-219.5 -44q-123 0 -205.5 42t-132 111.5t-71 161.5t-21.5 195zM225 1217q25 70 72 111.5t106 41.5q37 0 77 -12t79 -27.5 t75 -28t64 -12.5l117 82l57 -45q-23 -70 -70 -113t-106 -43q-47 0 -88 12.5t-77.5 28t-69.5 27.5t-62 12l-116 -80zM272 494q0 -74 10.5 -143.5t40 -122t84 -84t142.5 -31.5q82 0 132 33.5t78.5 89t39 123t10.5 135.5t-9 137t-38 127.5t-80 95.5t-133 37q-84 0 -137.5 -36 t-84 -92t-43 -128t-12.5 -141z" />
<glyph unicode="&#xf6;" horiz-adv-x="1081" d="M98 494q0 100 24.5 194t78 168t139.5 119t209 45q125 0 209 -45t134 -118t70.5 -167t20.5 -192q0 -96 -21.5 -188.5t-73.5 -165t-140.5 -116.5t-219.5 -44q-123 0 -205.5 42t-132 111.5t-71 161.5t-21.5 195zM266 1235q0 39 29 64.5t63 25.5q43 0 70 -24.5t27 -65.5 q0 -39 -27 -64.5t-68 -25.5t-67.5 25.5t-26.5 64.5zM272 494q0 -74 10.5 -143.5t40 -122t84 -84t142.5 -31.5q82 0 132 33.5t78.5 89t39 123t10.5 135.5t-9 137t-38 127.5t-80 95.5t-133 37q-84 0 -137.5 -36t-84 -92t-43 -128t-12.5 -141zM651 1235q0 39 27 64.5t61 25.5 q43 0 72 -24.5t29 -65.5q0 -39 -29 -64.5t-72 -25.5q-39 0 -63.5 25.5t-24.5 64.5z" />
<glyph unicode="&#xf7;" d="M174 553v119h797v-119h-797zM471 287q0 43 29.5 71.5t72.5 28.5t73 -28.5t30 -71.5t-30 -74t-71 -31q-43 0 -73.5 32t-30.5 73zM471 936q0 43 29.5 72.5t72.5 29.5t73 -29.5t30 -72.5t-30 -74t-71 -31q-43 0 -73.5 32t-30.5 73z" />
<glyph unicode="&#xf8;" horiz-adv-x="1046" d="M74 -14l108 137q-55 72 -77.5 168t-22.5 203q0 100 24.5 194t78 168t138 119t207.5 45q94 0 163 -25.5t120 -72.5l74 96q20 0 40.5 1t41.5 1l-111 -143q59 -76 83 -175.5t24 -203.5q0 -96 -21.5 -188.5t-74 -164t-140.5 -115.5t-219 -44q-180 0 -281 88l-67 -86 q-23 0 -44.5 -1t-43.5 -1zM254 500q0 -63 9 -128t32 -116l418 549q-29 39 -73 61.5t-110 22.5q-82 0 -135 -35t-83.5 -90t-44 -125t-13.5 -139zM330 190q31 -35 80 -56t120 -21q82 0 132.5 33.5t79 89t39 123t10.5 135.5q0 61 -9.5 127.5t-36.5 121.5z" />
<glyph unicode="&#xf9;" horiz-adv-x="1032" d="M119 297v702h166v-661q0 -53 5 -94t22.5 -70t51 -44t93.5 -15q57 0 138 30.5t153 96.5v757q41 0 81.5 1t81.5 1v-1001h-161l-2 113l-5 4q-49 -43 -98 -71t-93 -43t-80.5 -20.5t-63.5 -5.5q-102 0 -160 29t-86.5 75t-35.5 103.5t-7 112.5zM262 1380l123 117l252 -332 l-78 -69z" />
<glyph unicode="&#xfa;" horiz-adv-x="1032" d="M119 297v702h166v-661q0 -53 5 -94t22.5 -70t51 -44t93.5 -15q57 0 138 30.5t153 96.5v757q41 0 81.5 1t81.5 1v-1001h-161l-2 113l-5 4q-49 -43 -98 -71t-93 -43t-80.5 -20.5t-63.5 -5.5q-102 0 -160 29t-86.5 75t-35.5 103.5t-7 112.5zM432 1159l252 332l119 -111 l-297 -284z" />
<glyph unicode="&#xfb;" horiz-adv-x="1032" d="M119 297v702h166v-661q0 -53 5 -94t22.5 -70t51 -44t93.5 -15q57 0 138 30.5t153 96.5v757q41 0 81.5 1t81.5 1v-1001h-161l-2 113l-5 4q-49 -43 -98 -71t-93 -43t-80.5 -20.5t-63.5 -5.5q-102 0 -160 29t-86.5 75t-35.5 103.5t-7 112.5zM154 1145l307 293h112l312 -289 l-51 -59l-318 190l-315 -193z" />
<glyph unicode="&#xfc;" horiz-adv-x="1032" d="M119 297v702h166v-661q0 -53 5 -94t22.5 -70t51 -44t93.5 -15q57 0 138 30.5t153 96.5v757q41 0 81.5 1t81.5 1v-1001h-161l-2 113l-5 4q-49 -43 -98 -71t-93 -43t-80.5 -20.5t-63.5 -5.5q-102 0 -160 29t-86.5 75t-35.5 103.5t-7 112.5zM244 1235q0 39 28.5 64.5 t63.5 25.5q43 0 69.5 -24.5t26.5 -65.5q0 -39 -26.5 -64.5t-67.5 -25.5t-67.5 25.5t-26.5 64.5zM629 1235q0 39 26.5 64.5t61.5 25.5q43 0 71.5 -24.5t28.5 -65.5q0 -39 -28.5 -64.5t-71.5 -25.5q-39 0 -63.5 25.5t-24.5 64.5z" />
<glyph unicode="&#xfd;" horiz-adv-x="942" d="M20 -406l27 117q55 -12 91 -17t71 -5q59 0 98 28.5t66 110.5l57 178h-80l-313 993h162l204 -686q20 -66 34 -123t22 -86h10l63 213q20 68 47 152t55 173t56.5 180t57.5 177h170q-47 -143 -96.5 -292.5t-99.5 -300t-100.5 -299t-97.5 -289.5q-37 -119 -104.5 -188.5 t-183.5 -69.5q-23 2 -73 5t-143 29zM375 1159l252 332l118 -111l-296 -284z" />
<glyph unicode="&#xfe;" horiz-adv-x="1067" d="M119 -426v1829h166v-500l2 -2q59 47 141 79t162 32q106 0 179 -40t118 -107.5t63.5 -157t18.5 -189.5q0 -115 -21.5 -214t-70 -171t-126 -112.5t-188.5 -40.5q-29 0 -64.5 4t-72.5 12t-73 22.5t-66 32.5l-2 -477h-166zM287 182q16 -12 44.5 -24.5t63.5 -23.5t72 -17 t72 -6q51 0 98 19.5t83 67.5t56.5 126.5t20.5 195.5q0 104 -18.5 173t-50.5 111t-78 59.5t-101 17.5q-31 0 -69 -9.5t-74.5 -25t-68.5 -32.5t-50 -36v-596z" />
<glyph unicode="&#xff;" horiz-adv-x="942" d="M20 -406l27 117q55 -12 91 -17t71 -5q59 0 98 28.5t66 110.5l57 178h-80l-313 993h162l204 -686q20 -66 34 -123t22 -86h10l63 213q20 68 47 152t55 173t56.5 180t57.5 177h170q-47 -143 -96.5 -292.5t-99.5 -300t-100.5 -299t-97.5 -289.5q-37 -119 -104.5 -188.5 t-183.5 -69.5q-23 2 -73 5t-143 29zM203 1235q0 39 28.5 64.5t63.5 25.5q43 0 69.5 -24.5t26.5 -65.5q0 -39 -26.5 -64.5t-67.5 -25.5t-67.5 25.5t-26.5 64.5zM588 1235q0 39 26.5 64.5t61.5 25.5q43 0 71.5 -24.5t28.5 -65.5q0 -39 -28.5 -64.5t-71.5 -25.5 q-39 0 -63.5 25.5t-24.5 64.5z" />
<glyph unicode="&#x11e;" horiz-adv-x="1288" d="M123 694q0 74 11 158t39 165t76 154.5t119.5 130t170 90t229.5 33.5q113 0 204 -17t154 -40l-34 -129q-88 29 -166 38t-144 9q-123 0 -214 -42t-149.5 -119.5t-87 -188.5t-28.5 -250q0 -117 19.5 -219t68.5 -177t133 -119t213 -44q27 0 59.5 2t66.5 6t66 9.5t56 13.5v563 h162v-672q-104 -35 -212 -50t-212 -15q-166 0 -279.5 52t-185.5 145t-103.5 224.5t-31.5 288.5zM379 1724l96 68q55 -76 119.5 -123t124.5 -47q18 0 45 4t62.5 19.5t80.5 47t103 87.5l55 -51q-90 -129 -181 -181.5t-173 -52.5q-53 0 -100.5 19.5t-88.5 51t-76.5 73.5 t-66.5 85z" />
<glyph unicode="&#x11f;" horiz-adv-x="1124" d="M90 -150q0 86 44 147.5t89 86.5q-59 12 -91 49t-32 96q0 45 14.5 75t38 50.5t51 30.5t52.5 16l4 7q-51 29 -91 89t-40 167q0 96 35 164.5t92 111.5t129 63.5t143 20.5q51 0 99.5 -5t91.5 -20h323v-106h-155l-4 -10q35 -37 52 -93.5t17 -117.5q0 -82 -31.5 -145.5 t-87 -107.5t-132 -66.5t-169.5 -22.5h-110q-74 0 -118 -14.5t-44 -61.5q0 -33 28.5 -50.5t76.5 -17.5h262q184 0 282.5 -77.5t98.5 -225.5q0 -74 -34 -134t-97.5 -103t-154.5 -65.5t-204 -22.5q-129 0 -212 24.5t-131 65.5t-66.5 93t-18.5 109zM211 1358l96 69 q55 -78 118.5 -124t123.5 -46q18 0 46 3.5t63.5 18.5t80.5 47t103 87l55 -51q-90 -129 -181 -181.5t-173 -52.5q-53 0 -100.5 19.5t-88.5 52.5t-76.5 74t-66.5 84zM254 -121q0 -39 11 -74.5t44 -63.5t88.5 -44t145.5 -16q143 0 220 54t77 144q0 31 -8.5 63.5t-34 59.5 t-72.5 43t-123 16h-227q-20 -6 -42 -24.5t-39.5 -44t-28.5 -55t-11 -58.5zM299 672q0 -102 59.5 -162.5t159.5 -60.5q57 0 105.5 13t83 40.5t55 70t20.5 99.5q0 39 -11 80t-40 73.5t-76 53t-116 20.5q-119 0 -179.5 -59.5t-60.5 -167.5z" />
<glyph unicode="&#x130;" horiz-adv-x="540" d="M154 1661q0 47 32.5 82t79.5 35t82 -35t35 -82t-35 -81t-82 -34t-79.5 34t-32.5 81zM184 0v1403h172v-1403h-172z" />
<glyph unicode="&#x131;" horiz-adv-x="520" d="M174 0v999h166v-999h-166z" />
<glyph unicode="&#x152;" horiz-adv-x="1658" d="M98 690q0 145 32 278.5t102.5 235t186 160.5t281.5 59q104 0 189 -24h676v-127h-639v-473h534v-125h-534v-547h671v-127h-751q-35 -6 -71 -10t-75 -4q-164 0 -277.5 49t-186 141t-105.5 222t-33 292zM279 686q0 -281 98 -426t323 -145h24.5t25.5 2v1171q-10 0 -23.5 1 t-28.5 1q-127 0 -207.5 -51t-128 -136t-65.5 -193.5t-18 -223.5z" />
<glyph unicode="&#x153;" horiz-adv-x="1703" d="M80 494q0 100 24.5 194t78 168t138.5 119t207 45q137 0 220 -56.5t131 -144.5q23 41 54.5 78t74.5 64.5t99 44t128 16.5q96 0 163.5 -26.5t111.5 -69.5t69 -95.5t37 -105.5t14 -100t2 -78v-78h-665q0 -70 12 -133.5t44 -112.5t87 -77.5t139 -28.5q88 0 159 17.5t157 53.5 l41 -106q-90 -47 -179.5 -69.5t-189.5 -22.5q-145 0 -231 49t-132 135q-49 -84 -136 -137t-228 -53q-123 0 -205 42t-132 111.5t-71.5 161.5t-21.5 195zM254 494q0 -74 10 -143.5t40 -122t83 -84t141 -31.5q82 0 133.5 33.5t80 89t39 123t10.5 135.5t-10.5 137t-38 127.5 t-80 95.5t-134.5 37q-84 0 -137 -36t-84 -92t-42 -128t-11 -141zM969 569h506q0 74 -12.5 133.5t-40 102.5t-73.5 66.5t-114 23.5q-72 0 -121 -26.5t-79.5 -71.5t-46 -104.5t-19.5 -123.5z" />
<glyph unicode="&#x15e;" horiz-adv-x="1173" d="M102 92l60 127q125 -59 221 -77.5t174 -18.5q160 0 249 56.5t89 205.5q0 63 -22.5 105t-63.5 70t-96.5 47.5t-118.5 35.5q-92 25 -176 51.5t-148.5 67.5t-102.5 104.5t-38 161.5q0 94 35 168t96.5 125t146.5 77.5t187 26.5q88 0 191.5 -17t193.5 -71l-55 -123 q-100 45 -184.5 58.5t-153.5 13.5q-123 0 -201 -62.5t-78 -191.5q0 -57 26.5 -96t72 -64.5t100.5 -43t115 -31.5q76 -18 155.5 -42t145 -68t107.5 -115.5t42 -186.5q0 -96 -32.5 -169t-92 -122t-141.5 -75.5t-182 -32.5q-23 -29 -44.5 -57.5t-41.5 -57.5q100 -4 161.5 -44 t61.5 -118q0 -86 -89 -147.5t-278 -61.5v74q111 10 176.5 39t65.5 82q0 27 -18.5 44t-48 25.5t-66.5 11.5t-74 3l-27 39q33 41 64 83t63 83q-104 4 -215.5 27.5t-210.5 80.5z" />
<glyph unicode="&#x15f;" horiz-adv-x="913" d="M80 66l53 114q96 -43 176 -55t133 -12q47 0 89 8t73 26.5t48.5 49t17.5 75.5q0 39 -17.5 67t-47.5 47.5t-68.5 33.5t-81.5 29q-66 23 -126.5 45t-107.5 54t-75.5 77t-28.5 114q0 72 28.5 125.5t77.5 88t114.5 51t141.5 16.5q31 0 70 -4t79 -12.5t78.5 -21.5t71.5 -34 l-51 -117q-78 31 -137.5 42.5t-112.5 11.5q-39 0 -75.5 -7.5t-64.5 -24.5t-45.5 -46t-17.5 -70q0 -33 21.5 -56.5t54.5 -41.5t70 -30.5t67 -22.5q63 -20 125 -42t111 -55.5t78.5 -84t29.5 -130.5q0 -137 -93 -205.5t-240 -78.5l-90 -119q100 -4 161.5 -44t61.5 -118 q0 -86 -89 -147.5t-278 -61.5v74q111 10 176.5 39t65.5 82q0 27 -18.5 44t-48 25.5t-66.5 11.5t-74 3l-27 39q35 43 66 86t63 84q-84 4 -172 23.5t-149 54.5z" />
<glyph unicode="&#x178;" horiz-adv-x="1097" d="M20 1403h183l192 -369l144 -284h8l155 297l195 356h178l-442 -789v-614h-182v606zM256 1579q0 37 27.5 63.5t62.5 26.5q43 0 70.5 -24.5t27.5 -65.5t-26.5 -65.5t-67.5 -24.5t-67.5 24.5t-26.5 65.5zM641 1579q0 37 25.5 63.5t60.5 26.5q43 0 71.5 -24.5t28.5 -65.5 t-28.5 -65.5t-71.5 -24.5q-37 0 -61.5 24.5t-24.5 65.5z" />
<glyph unicode="&#x2c6;" horiz-adv-x="1030" d="M150 1145l307 293h112l312 -289l-52 -59l-317 190l-315 -193z" />
<glyph unicode="&#x2da;" horiz-adv-x="1032" d="M295 1343q0 43 17.5 82t47 69t70.5 47.5t88 17.5q45 0 85 -17.5t69.5 -46.5t46 -69t16.5 -83q0 -92 -62.5 -153.5t-154.5 -61.5q-47 0 -88 16.5t-70.5 46.5t-47 68.5t-17.5 83.5zM387 1337q0 -53 36 -90t95 -37q55 0 90 37t35 90q0 55 -35 94t-90 39q-59 0 -95 -37.5 t-36 -95.5z" />
<glyph unicode="&#x2dc;" horiz-adv-x="1030" d="M195 1217q25 70 71.5 111.5t106.5 41.5q37 0 76.5 -12t78.5 -27.5t75 -28t65 -12.5l116 82l58 -45q-23 -70 -70 -113t-106 -43q-47 0 -88 12.5t-78 28t-70 27.5t-61 12l-117 -80z" />
<glyph unicode="&#x2000;" horiz-adv-x="945" />
<glyph unicode="&#x2001;" horiz-adv-x="1890" />
<glyph unicode="&#x2002;" horiz-adv-x="945" />
<glyph unicode="&#x2003;" horiz-adv-x="1890" />
<glyph unicode="&#x2004;" horiz-adv-x="630" />
<glyph unicode="&#x2005;" horiz-adv-x="472" />
<glyph unicode="&#x2006;" horiz-adv-x="315" />
<glyph unicode="&#x2007;" horiz-adv-x="315" />
<glyph unicode="&#x2008;" horiz-adv-x="236" />
<glyph unicode="&#x2009;" horiz-adv-x="378" />
<glyph unicode="&#x200a;" horiz-adv-x="105" />
<glyph unicode="&#x2010;" horiz-adv-x="749" d="M111 471v139h528v-139h-528z" />
<glyph unicode="&#x2011;" horiz-adv-x="749" d="M111 471v139h528v-139h-528z" />
<glyph unicode="&#x2012;" horiz-adv-x="749" d="M111 471v139h528v-139h-528z" />
<glyph unicode="&#x2013;" horiz-adv-x="1024" d="M63 463v123h902v-123h-902z" />
<glyph unicode="&#x2014;" horiz-adv-x="2048" d="M70 463v123h1900v-123h-1900z" />
<glyph unicode="&#x2018;" horiz-adv-x="440" d="M106 1143q0 43 16.5 89t45.5 89t66.5 79t80.5 58l41 -55q-41 -37 -64.5 -81t-27.5 -101q74 -23 74 -105q0 -41 -32 -73.5t-79 -32.5q-55 0 -88 36.5t-33 96.5z" />
<glyph unicode="&#x2019;" horiz-adv-x="440" d="M109 1065q41 37 64.5 81t27.5 99q-74 23 -74 105q0 43 31.5 75.5t79.5 32.5q55 0 87.5 -38t32.5 -95q0 -43 -16 -89t-44 -89t-65.5 -79t-82.5 -58z" />
<glyph unicode="&#x201a;" horiz-adv-x="430" d="M82 -201q82 80 92 191q-35 10 -55.5 36.5t-20.5 63.5q0 43 33 76t80 33q53 0 86 -38t33 -93q0 -43 -15.5 -90.5t-43 -91.5t-65.5 -80.5t-83 -59.5z" />
<glyph unicode="&#x201c;" horiz-adv-x="702" d="M104 1143q0 43 16.5 89t44.5 89t65.5 79t82.5 58l41 -55q-41 -37 -64.5 -81t-27.5 -101q35 -10 54.5 -37t19.5 -68t-33 -73.5t-80 -32.5q-53 0 -86 36.5t-33 96.5zM379 1143q0 43 16.5 89t45 89t66.5 79t81 58q10 -14 20 -27.5t23 -27.5q-41 -37 -65.5 -81t-28.5 -101 q73 -23 73 -105q0 -41 -31.5 -73.5t-78.5 -32.5q-55 0 -88 36.5t-33 96.5z" />
<glyph unicode="&#x201d;" horiz-adv-x="702" d="M106 1065q41 37 66 81t29 99q-74 23 -74 105q0 43 31.5 75.5t79.5 32.5q55 0 87.5 -38t32.5 -95q0 -43 -16 -89t-44 -89t-65.5 -79t-82.5 -58zM383 1065q41 37 64.5 81t27.5 99q-74 23 -74 105q0 43 33 75.5t80 32.5q53 0 86 -38t33 -95q0 -43 -15.5 -89t-43 -89 t-66.5 -79t-84 -58z" />
<glyph unicode="&#x201e;" horiz-adv-x="698" d="M82 -201q82 80 92 191q-35 10 -55.5 36.5t-20.5 63.5q0 43 33 76t80 33q53 0 86 -38t33 -93q0 -43 -15.5 -90.5t-43 -91.5t-65.5 -80.5t-83 -59.5zM362 -201q82 80 93 191q-35 10 -55.5 36.5t-20.5 63.5q0 43 32.5 76t80.5 33q53 0 85.5 -38t32.5 -93q0 -43 -15 -90.5 t-42 -91.5t-64.5 -80.5t-82.5 -59.5z" />
<glyph unicode="&#x2022;" horiz-adv-x="657" d="M109 561q0 45 17 86t47 72t70 48t85 17t85 -17t69.5 -48t47 -72t17.5 -86t-17.5 -85t-47 -70.5t-69.5 -48t-85 -17.5t-85 17.5t-70 48t-47 70.5t-17 85z" />
<glyph unicode="&#x2026;" horiz-adv-x="1306" d="M94 92q0 43 32 75t79 32q45 0 76.5 -32t31.5 -75q0 -47 -32.5 -79.5t-73.5 -32.5q-47 0 -80 32.5t-33 79.5zM532 92q0 43 31 75t78 32t78 -32t31 -75q0 -47 -32 -79.5t-75 -32.5q-47 0 -79 32.5t-32 79.5zM995 92q0 43 32 75t77 32q47 0 77.5 -32t30.5 -75 q0 -47 -31.5 -79.5t-74.5 -32.5q-47 0 -79 32.5t-32 79.5z" />
<glyph unicode="&#x202f;" horiz-adv-x="378" />
<glyph unicode="&#x2039;" horiz-adv-x="645" d="M127 346v80l299 326l70 -54l-207 -313l207 -311l-68 -51z" />
<glyph unicode="&#x203a;" horiz-adv-x="645" d="M127 74l205 311l-205 313l70 54l299 -326v-80l-301 -323z" />
<glyph unicode="&#x205f;" horiz-adv-x="472" />
<glyph unicode="&#x20ac;" d="M70 551v84h852v-84h-590q6 -92 30.5 -171t71.5 -136.5t124 -90t187 -32.5q47 0 121 7t197 36l27 -123q-33 -12 -78 -22.5t-94.5 -17.5t-99.5 -11t-95 -4q-139 0 -241.5 41t-170 114.5t-103.5 178t-42 231.5h-96zM70 733v84h100q8 98 44 197.5t102.5 180.5t169 132 t247.5 51q104 0 181 -14t149 -43q-8 -31 -17.5 -61.5t-17.5 -61.5q-92 33 -173 40t-116 7q-182 0 -281.5 -116.5t-121.5 -311.5h586v-84h-852z" />
<glyph unicode="&#x2122;" horiz-adv-x="1492" d="M68 1315v86h555v-86h-224v-582h-114v582h-217zM705 731v670h118q23 -45 44.5 -90t43.5 -90l129 -260q33 66 64 131t65 131q23 47 44.5 90t43.5 88h119v-670h-106v483h-4l-92 -184l-91 -186h-88l-90 180q-23 45 -44 89t-44 91h-2v-473h-110z" />
<glyph unicode="&#x25fc;" horiz-adv-x="1003" d="M0 0v1004h1004v-1004h-1004z" />
</font>
</defs>
</svg>
